#TITLE:MODEL DD11;
#SUBTITLE:;
#ARTIST:Mutsuhiko Izumi;
#TITLETRANSLIT:;
#SUBTITLETRANSLIT:;
#ARTISTTRANSLIT:;
#GENRE:;
#CREDIT:;
#MENUCOLOR:;
#METERTYPE:DDR;
#BANNER:MODEL DD11.png;
#BACKGROUND:MODEL DD11-bg.png;
#LYRICSPATH:;
#CDTITLE:./CDTITLES/GITADORA.PNG;
#MUSIC:MODEL DD11.ogg;
#OFFSET:0.000;
#SAMPLESTART:47.500;
#SAMPLELENGTH:15.000;
#SELECTABLE:YES;
#LISTSORT:;
#BPMS:0.000=160.000,20.000=180.000,28.000=360.000,444.000=180.000,460.000=360.000,620.000=180.000;
#STOPS:444.000=0.66666666666666666666666666666667‬
,620.000=0.33333333333333333333333333333333
,620.500=0.500
,621.000=0.33333333333333333333333333333333
,621.500=0.33333333333333333333333333333333
;
#BGCHANGES:0.000=MODEL DD11.avi=1.000=0=0=0,
99999=-nosongbg-=1.000=0=0=0 // don't automatically add -songbackground-
;
#ATTACKS:;

//---------------dance-single - ----------------
#NOTES:
     dance-single:
     :
     Beginner:
     7:
     0.250,0.582,0.008,0.000,0.000:
0000
0000
0000
0000
,
0000
0000
0000
0000
,
0000
0000
0000
0000
,
0000
0000
0000
0000
,
0000
0000
0000
0000
,
0000
0000
0000
0000
,
0000
0000
0000
0000
,
0001
0000
0000
0000
,
0000
0000
0000
0000
,
0001
0000
0000
0000
,
0000
0000
0000
0000
,
1000
0000
0000
0000
,
0000
0000
0000
0000
,
1000
0000
0000
0000
,
0000
0000
0000
0000
,
0010
0000
0010
0000
,
0010
0000
0000
0000
,
0010
0000
0000
0000
,
0010
0000
0000
0000
,
0100
0000
0100
0000
,
0100
0000
0000
0000
,
0100
0000
0000
0000
,
0100
0000
0000
0000
,
0001
0000
0000
0000
,
1000
0000
0000
0000
,
0001
0000
0001
0000
,
0001
0000
0000
0000
,
1000
0000
0000
0000
,
0001
0000
0000
0000
,
1000
0000
1000
0000
,
1000
0000
0000
0000
,
0010
0000
0000
0000
,
0100
0000
0000
0000
,
0010
0000
0010
0000
,
0010
0000
0000
0000
,
0100
0000
0000
0000
,
0010
0000
0000
0000
,
0100
0000
0100
0000
,
0100
0000
0000
0000
,
0001
0000
0001
0000
,
0001
0000
0001
0000
,
0001
0000
0000
0000
,
1000
1000
1000
0000
,
1000
0000
1000
0000
,
1000
0000
1000
0000
,
1000
0000
0000
0000
,
0010
0010
0010
0000
,
0100
0000
0000
0000
,
0000
0000
0000
0000
,
0001
0000
0000
0000
,
0000
0000
0000
0000
,
1000
0000
0000
0000
,
0001
0000
0000
0000
,
1000
0000
1000
0000
,
1000
0000
0000
0000
,
0001
0000
0000
0000
,
0001
0000
0000
0000
,
0010
0000
0000
0000
,
0010
0000
0000
0000
,
0100
0000
0000
0000
,
0100
0000
0000
0000
,
1000
0000
0000
0000
,
1000
0000
0000
0000
,
1000
0000
0000
0000
,
0100
0000
0000
0000
,
0010
0000
0000
0000
,
0001
0000
0000
0000
,
0001
0000
0000
0000
,
0010
0000
0000
0000
,
0100
0000
0000
0000
,
1000
0000
0000
0000
,
0001
0000
0000
0001
,
0000
0000
0000
0000
,
1000
0000
0000
1000
,
0000
0000
0000
0000
,
0010
0000
0000
0010
,
0000
0000
0000
0000
,
0100
0000
0000
0100
,
0000
0000
0000
0000
,
0001
0000
0001
0000
,
0001
0000
0001
0000
,
0001
0000
0000
0000
,
0001
0000
0000
0000
,
1000
0000
1000
0000
,
1000
0000
1000
0000
,
1000
0000
0000
0000
,
1000
0000
0000
0000
,
0010
0000
0010
0000
,
0010
0000
0010
0000
,
0010
0000
0000
0000
,
0010
0000
0000
0000
,
0100
0000
0100
0000
,
0100
0000
0100
0000
,
0100
0000
0000
0000
,
0100
0000
0000
0000
,
0001
0000
1000
0000
,
0001
0000
1000
0000
,
0001
0000
0000
0000
,
0001
0000
0000
0000
,
1000
0000
0001
0000
,
1000
0000
0001
0000
,
1000
0000
0000
0000
,
1000
0000
0000
0000
,
0010
0000
0100
0000
,
0010
0000
0100
0000
,
0010
0000
0000
0000
,
0010
0000
0000
0000
,
0100
0000
0100
0000
,
0100
0000
0100
0000
,
0100
0000
0000
0000
,
0100
0000
0000
0000
,
0000
0000
0000
0000
,
0000
0000
0000
0000
,
0001
0000
0000
0000
,
0000
0000
0000
0000
,
1000
0000
1000
0000
,
1000
0000
0000
0000
,
0001
0000
0001
0000
,
0001
0000
0000
0000
,
0100
0000
0100
0000
,
0100
0000
0000
0000
,
0010
0000
0010
0000
,
0010
0000
0000
0000
,
1000
0000
1000
0000
,
0100
0000
0100
0000
,
0010
0000
0000
0000
,
0001
0000
0000
0000
,
0010
0000
0010
0000
,
0100
0000
0100
0000
,
1000
0000
0000
0000
,
0001
0000
0000
0000
,
0100
0000
0100
0000
,
0010
0000
0010
0000
,
1000
0000
1000
0000
,
0001
0000
0001
0000
,
1000
0000
1000
0000
,
0100
0000
0100
0000
,
0010
0000
0010
0000
,
0001
0000
0001
0000
,
1000
0000
1000
0000
,
1000
0000
1000
1000
,
1000
0000
0000
0000
,
0001
0001
0001
0000
,
0001
0000
0001
0000
,
0001
0000
0001
0001
,
0001
0000
0000
0000
,
0100
0100
0100
0000
,
0010
0000
0000
0010
,
0000
0000
0010
0000
,
0100
0000
0000
0100
,
0000
0000
0100
0000
,
0001
0000
0010
0000
,
0100
0000
1000
0000
,
0100
0000
0001
0000
,
0100
0000
1000
0000
,
0001
0001
0001
0001
1000
0000
0100
0000
,
0010
0001
1001
0000
;

//---------------dance-single - ----------------
#NOTES:
     dance-single:
     :
     Easy:
     12:
     0.660,0.970,0.273,0.124,0.004:
0000
0000
0000
0000
,
0000
0000
0000
0000
,
0000
0000
0000
0000
,
0000
0000
0000
0000
,
0000
0000
0000
0000
0000
0000
0000
2001
,
0000
0000
0010
3000
,
0001
0010
0001
0010
0100
1000
0100
0000
,
1000
0010
0100
0010
,
1000
0100
1000
0000
,
0001
0010
0001
0100
,
0010
0100
0001
0000
,
0010
0001
0100
0001
,
0010
0100
0010
0000
,
0100
1000
0001
0010
,
0001
1000
0001
1000
,
0001
0100
0010
0100
,
0001
0100
0001
0000
,
1000
0100
0010
0100
,
1000
0010
1000
0000
,
0001
0100
0010
0100
,
0001
0010
0100
0000
,
1000
0010
0100
0010
,
1000
0100
0010
0000
,
0001
0000
0010
0000
,
0100
0000
1001
0000
,
1000
0010
0100
0001
,
1000
0100
0010
0000
,
0001
0000
0010
0000
,
0100
0000
0110
0000
,
0001
0010
0100
1000
,
0001
0010
0100
0000
,
1000
0000
0001
0000
,
0010
0000
0011
0000
,
1000
0100
0001
0100
,
1000
0100
0010
0000
,
0001
0000
0100
0000
,
0010
0000
1010
0000
,
1000
0010
0001
0010
,
1000
0010
0100
0000
,
0001
0010
0100
1000
,
0001
0100
0010
1000
,
0002
0000
0100
0000
,
1003
1000
0010
0010
,
1000
0100
0010
0001
,
1000
0010
0100
0001
,
2000
0000
0010
0000
,
3001
0001
0010
0010
,
0100
0000
1000
0002
,
0000
0000
0013
0000
,
0001
0000
1000
0020
,
0000
0000
1030
0000
,
0001
0000
0101
0000
,
1000
0000
1100
0000
,
1000
0010
0100
0001
,
1000
0001
0100
0000
,
0001
0010
0100
1000
,
0001
0010
0001
0000
,
0001
0010
0100
1000
,
0001
0100
0010
0000
,
1000
0010
0100
0001
,
1000
0010
1000
0000
,
1001
0000
0110
0000
,
0101
0000
1002
0000
,
1003
0010
1000
0001
,
1000
0100
0010
0000
,
0001
0010
0001
1000
,
0001
0100
0010
0000
,
1000
0010
0100
0010
,
1000
0001
0100
0000
,
0001
0000
0000
1001
0000
0000
1000
0000
,
0000
1001
0000
0000
0200
0000
0000
0000
,
0310
0000
0001
0012
,
0000
0000
1003
0000
,
0100
0000
1000
2010
,
0000
0000
3001
0000
,
0100
0000
0010
0120
,
0000
0000
1030
0000
,
0100
0000
0010
0210
,
0000
0000
0301
0000
,
1000
0100
1000
0100
,
0010
0001
1000
0001
,
1000
0100
1000
0100
,
0010
0100
1000
0000
,
0001
1000
0001
0100
,
0010
1000
0001
1000
,
0100
1000
0001
0010
,
0100
0100
1000
1000
,
0001
0010
0001
0010
,
0100
1000
0010
0100
,
0001
0010
0001
0010
,
0100
1000
0001
1000
,
0010
0000
0110
0000
,
1001
0000
1100
0000
,
0001
0010
0100
1000
,
0002
0000
1003
0000
,
0010
1000
0100
1000
,
0010
1000
0001
1000
,
0010
0100
0010
0100
,
0001
0100
0001
0100
,
0010
1000
0100
1000
,
0010
1000
0001
1000
,
0001
0010
0100
1000
,
0001
0010
0100
1000
,
0010
0100
0010
0100
,
0001
1000
0001
1000
,
0100
0010
0100
1000
,
0100
0010
0100
0001
,
0100
0000
1100
0000
,
0101
0000
1001
0000
,
0001
0010
0100
0000
,
1000
0010
0100
0001
,
0000
1001
0000
0000
0000
0000
0000
0000
0000
0000
0110
0000
0000
0000
1001
0000
,
0000
0000
0000
0000
0001
0100
0010
1000
,
0001
0000
0000
0000
0000
0110
0000
1000
,
0001
0010
0001
1001
,
1000
0010
0100
0001
,
1000
0010
1000
0001
,
1000
0100
0010
0100
,
1000
0001
0100
0000
,
0001
0010
0100
1000
,
0001
0010
0001
0000
,
1000
0000
0000
1001
0000
0000
0001
0000
,
0000
1001
0000
0000
0020
0000
0000
0000
,
0130
0001
0100
0001
,
0100
0010
0100
0010
,
1000
0100
0010
0001
,
1000
0100
0010
0001
,
0010
0100
0010
0100
,
0010
0001
0010
0001
,
1000
0010
0100
0001
,
1000
0010
0100
0001
,
1000
0100
1000
0100
,
0001
0100
0001
0100
,
1000
0100
0010
0001
,
1000
0100
0010
0001
,
1000
0010
1000
0010
,
0001
0010
0001
0010
,
1000
0010
0100
0001
,
1000
0010
0100
0001
,
1000
0100
0010
0100
,
1000
0001
0100
0010
,
2000
0000
0010
0000
,
3001
0001
1000
1000
,
0010
1000
0100
0010
,
0100
1000
0010
0100
,
0020
0000
1000
0000
,
0130
0100
0010
0010
,
0100
0000
0001
0010
,
0000
0010
0100
0000
,
1000
0000
0010
0100
,
0000
0100
0001
0000
,
1000
0100
0001
0100
,
1000
0010
0100
0001
,
1000
0010
0001
0010
,
1000
0100
0010
0001
,
1000
1100
0001
0101
1000
0010
0100
0001
,
1000
0001
0100
0000
1001
0000
0000
0000
;

//---------------dance-single - ----------------
#NOTES:
     dance-single:
     :
     Medium:
     14:
     0.793,1.000,0.330,0.173,0.050:
0000
0000
0000
0000
,
0000
0000
0000
0000
,
0000
0000
0000
0000
,
0000
0000
0000
0000
,
0000
0000
0000
0000
0000
0000
0000
2001
,
0000
0000
0010
3000
,
0001
0000
0010
0000
0001
0000
0010
0000
0100
1000
0100
0000
1000
0000
0000
0000
,
0001
0100
0010
0100
,
0001
0010
0100
1000
,
0001
0100
0010
0100
,
0001
0010
0110
0000
,
1000
0010
0100
0010
,
1000
0010
0100
0001
,
1000
0100
0010
0001
,
1000
0001
1000
0000
1001
0000
0000
0000
,
0001
0000
0010
0001
0010
0000
0001
0000
,
0100
0010
1000
0001
,
0010
0000
0001
0010
0001
0000
1000
0000
,
0100
0010
0011
0000
,
0001
0000
1000
0100
1000
0000
0010
0000
,
1000
0001
0100
0010
,
1000
0000
0100
1000
0100
0000
1000
0000
,
0001
0100
0110
0000
,
1000
0100
1000
0000
0001
0000
0000
0000
,
1100
0000
0101
0000
,
0001
0100
0001
0000
1000
0000
0000
0000
,
0101
0000
1100
0000
,
1000
0010
1000
0000
0010
0000
0000
0000
,
1010
0000
0011
0000
,
0001
0010
0001
0000
0010
0000
0000
0000
,
0011
0000
1010
0000
,
1000
0100
1000
0000
0010
0000
1000
0000
,
0001
0000
1001
0000
,
0001
0100
0001
0000
0010
0000
0001
0000
,
1000
0000
1001
0000
,
0100
0010
0100
0000
0010
0000
1000
0000
,
0010
0000
0110
0000
,
0100
0010
0100
0000
0010
0000
0100
0000
,
0001
0000
0101
0000
,
1000
0100
0010
0001
,
1000
0000
0010
0000
0100
0001
0100
0000
,
0002
0000
1000
0000
,
0103
0100
0010
0010
,
1000
0010
0100
0001
,
1000
0000
0100
0000
1000
0010
1000
0000
,
0020
0000
0100
0000
,
1030
1000
0001
0001
,
1001
0000
0100
2100
,
0000
0000
3010
0000
,
0101
0000
0010
1020
,
0000
0000
0130
0000
,
1000
0100
0001
0100
,
1000
0100
0001
0100
,
1000
0000
0110
0000
,
1000
0001
1000
0000
1001
0000
0000
0000
,
1000
0100
0000
0000
0010
0000
0100
0000
,
1000
0100
0010
0001
,
0100
0001
0000
0000
1000
0000
0001
0000
,
0010
0001
1000
0000
,
0001
0010
0000
0000
0100
0000
1000
0000
,
0010
0100
0010
0000
,
1000
0000
0000
0000
1000
0000
0010
0000
0000
0000
0010
0000
,
0100
0000
0001
0000
1000
0000
0002
0000
0000
0000
0000
0000
,
1003
0001
0000
0001
0010
0000
0001
0000
,
0100
0010
1000
0000
,
0001
1000
0000
1000
0010
0000
1000
0000
,
0001
1000
0100
0000
,
0010
0100
0000
0100
1000
0000
0010
0000
,
0100
0001
1000
0000
,
0001
0000
0010
0001
0000
1000
0001
0000
,
0100
0001
0000
0000
1001
0000
0000
0000
,
1000
0010
0100
0002
,
0000
1003
0100
0001
,
0100
1000
0010
0200
,
0000
0310
1000
0010
,
0001
0010
0100
0002
,
0000
1003
0010
0100
,
0010
1000
0001
0020
,
0000
0031
0010
0100
,
1000
0010
0000
0010
1000
0000
0001
0000
,
1000
0100
0010
0001
,
1000
0010
0000
0010
1000
0000
0001
0000
,
0010
0100
1000
0000
,
0010
1000
0000
1000
0010
0000
0100
0000
,
0010
1000
0001
0100
,
0010
0100
0000
0100
0010
0000
0100
0000
,
0001
1000
0001
1001
,
0001
0010
0000
0010
0100
0000
1000
0000
,
0100
0010
0001
1000
,
0001
0100
0000
0100
0010
0000
1000
0000
,
0010
0100
0001
0000
,
0010
0100
0010
0000
0100
0010
0100
0000
,
1000
0001
1000
0000
0001
1000
0001
0000
,
1000
0100
0010
0001
,
2000
0000
3000
0000
,
0020
0000
1030
0000
,
0001
1000
0000
1000
0001
0000
0010
0000
,
0002
0000
1003
0000
,
0010
0100
0000
0100
0010
0000
1000
0000
,
0200
0000
0310
0000
,
0100
1000
0000
1000
0001
0000
1000
0000
,
0002
0000
0013
0000
,
0001
0100
0000
0100
0001
0000
1000
0000
,
0001
0010
0000
0001
1000
0000
0001
0100
,
0000
0001
1000
0000
0001
0000
0000
0000
,
0100
0010
0000
0100
1000
0000
0100
0010
,
0000
0100
0001
0000
0100
0000
0000
0000
,
0001
0100
0001
0000
1000
0000
0100
0000
,
1000
0010
1000
0000
0001
0000
0100
0000
,
0001
0010
0001
0000
1000
0010
1000
0000
,
0001
1000
0001
0000
1000
0001
1000
0001
,
0000
1001
0000
0000
0000
0000
0000
0000
0000
0000
0110
0000
0000
0000
1001
0000
,
0000
0000
0000
0000
0000
0000
0000
0000
0001
0000
0100
0001
0100
0000
0001
0000
,
1000
0000
0000
0000
0000
0110
0000
1000
,
0001
0000
0001
0010
0000
0010
0100
1000
0001
2000
0000
0000
,
3010
0000
1000
0010
1000
0000
0001
0000
,
1000
0010
0000
0010
1000
0000
0000
0000
,
0001
0000
0010
0001
0010
0000
0001
0000
,
1000
0001
0000
0001
1000
0000
0000
0000
,
0010
0000
0100
0001
0000
0100
0010
0000
,
0100
0001
0000
1000
0001
0000
0000
0000
,
0010
0000
0001
0010
0000
0100
1000
0000
,
0001
0010
0000
0001
2000
0000
0000
0000
,
3010
1000
0010
0000
1000
0000
0100
0000
,
0010
0001
1000
0001
,
1000
0100
1000
0000
0001
0000
0010
0000
,
0100
1000
1001
0000
,
0001
0010
0001
0000
0100
0000
0001
0000
,
1000
0010
0100
0010
,
1000
0010
1000
0000
0001
0000
1000
0000
,
0001
0010
0011
0000
,
0010
0100
0010
0000
1000
0000
0010
0000
,
0001
0010
1000
0010
,
0100
0010
0100
0000
0001
0000
0100
0000
,
1000
0100
1100
0000
,
0001
0010
0001
0000
1000
0000
0100
0000
,
0001
0100
0010
0001
,
1000
0010
1000
0000
0001
0000
0010
0000
,
1000
0010
0110
0000
,
0001
0100
0101
0001
,
1000
0000
0010
0000
1000
0100
1000
0000
,
0002
0000
0013
0000
,
0001
0001
1000
1000
,
0010
0100
0110
0100
,
0001
0000
0010
0000
0001
0100
0001
0000
,
2000
0000
3010
0000
,
1000
1000
0001
0001
,
1000
0100
0010
0002
,
0100
0000
1003
0001
,
1000
0010
0100
0020
,
0001
0000
0000
0000
1030
0001
1000
0001
,
1000
0100
0000
0000
0100
0010
0000
0000
,
0010
0001
0000
0000
0001
1000
0000
1000
,
0001
0100
0001
0000
1000
0100
1000
0000
,
0001
0010
0001
0000
1000
0100
1000
0000
,
1100
1001
0011
1001
0010
0100
0001
1000
,
0001
0000
0010
0000
0100
1000
0100
0000
1100
0000
0000
0000
0000
0000
0000
0000
;

//---------------dance-single - ----------------
#NOTES:
     dance-single:
     :
     Hard:
     18:
     1.000,1.000,0.306,0.173,0.140:
0000
0000
0000
0000
,
0000
0000
0000
0000
,
0000
0000
0000
0000
,
0000
0000
0000
0000
,
0000
0000
0000
0000
0000
0000
0000
2001
,
0000
0000
0010
3000
,
0001
0010
0001
0010
0100
1000
0100
1000
0001
0100
0001
0100
0010
1000
0010
1000
,
0001
0000
0010
0001
0010
0001
0100
0000
,
0010
1000
0010
1000
0001
0000
1000
0100
,
0010
0000
0100
1000
0100
1000
0010
0000
,
0100
0001
0100
0001
1000
0000
0001
0010
,
0100
0000
0010
0001
0010
0001
0100
0000
,
0010
1000
0010
1000
0001
0000
1000
0100
,
0010
0000
0100
1000
0001
0000
0100
0001
,
1000
0010
1000
0010
0100
0001
0100
0001
,
1000
0000
0010
1000
0010
0000
1000
0100
,
0010
0100
0000
0100
1000
0000
0001
1000
,
0100
0000
1000
0010
0100
0000
0010
1000
,
0001
0010
0000
0010
0001
0000
0100
0001
,
1000
0000
0001
0010
0100
0000
0010
0001
,
0100
0010
0000
0010
0100
0000
0001
1000
,
0100
0000
1000
0010
0100
0000
0010
1000
,
0001
0010
0001
0010
0100
1000
0100
1000
,
0001
0100
0001
0000
1000
0100
1000
0000
,
0001
0010
0001
0000
1000
0010
1000
0000
,
0001
0010
0100
0000
1000
0100
0010
0000
,
0001
0010
0100
0000
1000
0100
0010
0000
,
0001
0010
0001
0000
1000
0010
1000
0000
,
0001
0010
0001
0000
1000
0010
1000
0000
,
0001
0100
0010
0000
1000
0100
0010
0000
,
0001
1000
0100
0000
1000
0001
0100
0000
,
0010
1000
0010
0000
0100
0001
0100
0000
,
0010
1000
0010
0000
0100
0001
0100
0000
,
0001
0010
1000
0000
0010
0001
0100
0000
,
0001
0010
1000
0000
0010
0001
0100
0000
,
0001
0010
0001
0000
1000
0100
1000
0000
,
0001
0010
0001
0000
1000
0001
1000
0000
,
0001
0100
1000
0000
0100
0001
0010
0000
,
0001
0100
1000
0100
0010
1000
0001
1000
,
0001
0010
0011
0001
,
1000
0000
1001
0000
1000
0001
0100
0001
,
2000
0000
0001
0000
,
3100
0000
0100
0000
0010
0001
0100
0000
,
0010
1000
1010
1000
,
0001
0000
1001
0000
0001
1000
0100
1000
,
0002
0000
0010
0000
,
1003
0100
1000
0100
0010
0001
1000
0001
,
0010
0000
0001
0100
0010
0100
0002
0000
,
0000
0000
0013
0000
0001
1000
0001
0000
,
1000
0000
0010
1000
0100
1000
0020
0000
,
0000
0000
0130
0000
0001
1000
0100
1000
,
0001
0010
0001
0010
0100
1000
0100
1000
,
0001
0100
0001
0100
0010
1000
0010
1000
,
0001
1000
0100
1000
0010
0000
0110
0000
,
0010
0000
1000
0000
0001
0000
1000
0000
0010
0100
0000
0000
0000
0000
0000
0000
,
1000
0010
0000
0010
0100
0000
0100
0001
,
0000
0001
1000
0000
0001
0010
0100
0010
,
0001
0010
0000
0010
0100
0000
0100
1000
,
0000
1000
0001
0000
0100
0001
1000
0001
,
1000
0010
0000
0010
0001
0000
0001
0010
,
0000
0010
1000
0000
0001
0010
0100
1000
,
0001
0000
0010
0000
1000
0000
0010
0000
0001
0000
1000
0000
,
0010
0000
1000
0000
0001
0000
2000
0000
0000
0000
0000
0000
,
3100
0000
0010
0001
0010
0000
0001
1000
,
0010
1000
0000
1000
0001
0000
1000
0001
,
0100
0000
0010
1000
0010
0000
1000
0100
,
0010
0100
0000
0100
1000
0000
0001
0010
,
0001
0000
0100
0001
0100
0000
0001
1000
,
0010
0100
0000
0100
0001
0000
1000
0001
,
1000
0000
0100
0001
0000
0100
1000
0000
,
0001
0010
0000
0000
2002
0000
3003
0000
,
0101
0000
0001
0100
0001
0000
2001
0000
,
0000
0000
3001
0000
1000
0100
1000
0000
,
1001
0000
1000
0100
1000
0000
2001
0000
,
0000
0000
3010
0000
0100
0001
0100
0000
,
0110
0000
0100
0001
0100
0000
0120
0000
,
0000
0000
1030
0000
0001
0010
0001
0000
,
0011
0000
0001
1000
0001
0000
1001
0000
,
0001
0010
0001
0010
0100
1000
0100
0000
,
1000
0000
0100
0001
0100
0000
1000
0100
,
0010
0100
0000
0100
1000
0000
0001
1000
,
0001
0000
0100
1000
0100
0000
0001
0010
,
0100
1000
0000
1000
0001
0000
1000
0010
,
0100
0000
0010
1000
0010
0000
0001
0010
,
1000
0010
0000
0010
0100
0000
0001
0010
,
0001
0000
1000
0100
0001
0000
0100
1000
,
0010
0110
0010
1010
,
1001
0000
1000
0100
0010
0000
0100
1000
,
0010
0001
0000
0001
0010
0000
1000
0100
,
1000
0000
0001
0010
0100
0000
0010
0001
,
0010
1000
0000
1000
0010
0000
0001
1000
,
0100
1100
0100
0110
,
0010
0011
0001
1001
,
0001
0100
0001
0100
0010
1000
0010
1000
,
0001
0010
0100
1000
0001
0010
0100
1000
,
0020
1000
1000
1030
,
0100
0010
0000
0010
1000
0000
0001
1000
,
0200
0010
0010
0310
,
0001
0010
0000
0010
0001
0000
1000
0100
,
2000
0001
0001
3001
,
0010
0100
0000
0100
1000
0000
0001
0010
,
0002
1000
1000
1003
,
0001
0010
0000
0001
0100
0010
1000
0001
,
1000
0100
0000
0001
0100
0000
1000
0100
,
0000
1000
0001
0100
0010
1000
0010
0000
,
1000
0010
0000
0001
0010
0000
1000
0010
,
0000
0001
0010
0100
0001
1000
0001
0000
,
0010
0001
0000
0010
1000
0000
0010
0100
,
0000
0010
0001
0010
0100
1000
0001
0000
,
0100
0010
0000
0100
1000
0000
0100
0010
,
0100
0001
1000
0001
1000
0100
0010
0001
,
0000
1001
0000
0000
0000
0000
0000
0000
0000
0000
0110
0000
0000
0000
1001
0000
,
0000
0000
0000
0000
0000
0000
0000
0000
0001
0010
0001
0010
0100
1000
0100
1000
,
0010
0000
0000
0000
0000
0110
0000
1000
,
0001
0010
1000
0010
0001
1000
0001
0010
0100
2000
0000
0000
,
3001
0000
0010
0100
1000
0000
0100
0010
,
0001
1000
0000
1000
0010
0000
1000
0001
,
0100
0000
0010
1000
0001
0000
1000
0010
,
0100
0001
0000
0001
0010
0000
0001
1000
,
0100
0001
0000
0100
1000
0000
0100
0001
,
0000
0100
1000
0000
0010
0100
0001
1000
,
0001
0010
0000
1000
0010
0000
0001
0010
,
0000
1000
0010
0000
0002
0000
0000
0000
,
1003
0100
1000
0000
0001
0100
0001
0000
,
1000
0100
1000
0000
0001
0100
0001
0000
,
1000
0100
0010
0100
1000
0100
0010
0100
,
1000
0100
0010
0001
1000
0100
0010
0001
,
1000
0010
1000
0000
0001
0010
0001
0000
,
1000
0010
1000
0000
0001
0010
0001
0000
,
1000
0010
0100
0001
1000
0010
0100
0001
,
1000
0100
0010
0100
1000
0100
0010
0001
,
0100
0001
0100
0000
0010
1000
0010
0000
,
0100
0001
0010
0000
0100
1000
0010
0000
,
0100
0001
1000
0010
0100
0001
1000
0010
,
0100
0001
0010
1000
0010
0001
0100
0010
,
1000
0010
1000
0000
0001
0010
0001
0000
,
1000
0100
1000
0000
0001
0100
0001
0000
,
0010
0001
1000
0100
0010
0001
1000
0100
,
1000
0010
0001
0010
1000
0100
0010
0001
,
1000
0100
1100
1000
,
0001
0000
1001
0000
0001
0100
0010
0100
,
0002
0010
1000
0103
,
1000
0001
1000
0001
1000
0000
1001
0000
,
0001
0010
0011
0001
,
1000
0000
1001
0000
1000
0100
1000
0010
,
2000
0001
0010
3001
,
0100
0010
0100
0010
0100
0000
0110
0000
,
1010
0000
0001
0100
1000
0100
0002
0000
,
0010
1000
0100
1003
,
0001
0000
1000
0100
0001
0100
2000
0000
,
0010
0001
0100
3001
,
0010
0100
0010
0100
0001
0100
0001
0100
,
0010
1000
0010
1000
0001
0010
0100
1000
,
0001
1000
0100
1000
0001
1000
0010
0000
,
1000
0001
0100
0001
1000
0001
0010
0000
,
1001
0000
0110
0000
0101
0000
1010
0000
0001
0010
0001
0010
0100
1000
0100
1000
,
0001
0010
0100
1000
0001
0010
1000
0010
0001
0000
0000
0000
0000
0000
0000
0000
;

//---------------dance-single - ----------------
#NOTES:
     dance-single:
     :
     Challenge:
     19:
     1.000,1.000,0.405,0.248,0.215:
0000
0000
0000
0000
,
0000
0000
0000
0000
,
0000
0000
0000
0000
,
0000
0000
0000
0000
,
0000
0000
0000
0000
0000
0000
0000
2002
,
0000
0000
0000
0000
,
0000
0000
0000
3003
,
1000
0100
0010
0100
1000
0000
0001
0010
,
0100
0010
0001
0000
1000
0010
0100
0001
,
1000
0010
0100
0010
1000
0000
0001
0010
,
0001
1000
0001
0000
0100
0001
0010
0001
,
1000
0001
0100
0001
0010
0000
0001
1000
,
0100
1000
0010
0000
1000
0010
0100
0001
,
1000
0100
0010
0100
1000
0000
0001
0100
,
0010
0100
0010
0100
0001
0100
0001
0100
,
0010
0000
1000
0010
1000
0000
0001
1000
,
0010
1000
0000
1000
0001
0000
1000
0001
,
0010
0000
0001
1000
0100
0000
1000
0001
,
0100
0010
0000
0010
0100
0000
0001
0010
,
0100
0000
0010
0001
1000
0000
0001
0010
,
0100
0010
0000
0010
0001
0000
1000
0100
,
0010
0000
0100
1000
0010
0000
0100
0010
,
1000
0010
1000
0010
0100
0001
0100
0001
,
1000
0100
0010
0100
1000
0100
0010
0100
,
1000
0100
0010
0100
1000
0100
0010
0100
,
1000
0100
0010
0001
1000
0100
0010
0001
,
1000
0100
0010
0001
1000
0100
0010
0001
,
1000
0100
0010
0100
1000
0100
0010
0100
,
1000
0100
0010
0100
1000
0100
0010
0100
,
1000
0010
0100
0001
1000
0010
0100
0001
,
1000
0010
0100
0001
1000
0010
0100
0001
,
1000
0010
0100
0010
1000
0010
0100
0010
,
1000
0010
0100
0010
1000
0010
0100
0010
,
1000
0100
1000
0100
0001
0100
0001
0100
,
1000
0100
1000
0100
0001
0100
0001
0100
,
1000
0010
0100
0010
1000
0010
0100
0010
,
1000
0010
0100
0010
1000
0010
0100
0010
,
1000
0010
1000
0010
0001
0010
0001
0010
,
1000
0001
1000
0001
0100
0010
0100
0010
,
1000
1100
1001
1100
,
1100
0000
1001
0000
1000
0010
0100
0001
,
0020
0001
0100
1030
,
0001
0100
1000
0100
0001
0000
1001
0000
,
0001
0101
1001
0101
,
0101
0000
1001
0000
0001
0010
0100
1000
,
0020
1000
0100
0031
,
1000
0010
0001
0010
1000
0000
1001
0000
,
1000
0000
0001
1000
0100
0001
0200
0000
,
1000
0310
1001
0100
,
1010
0000
0001
1000
0010
0001
0020
0000
,
1000
0000
0130
0000
0001
1000
0001
0000
,
1000
0100
1000
0100
0010
0100
0010
0100
,
0001
0100
0001
0100
0010
0100
0010
0100
,
1000
0000
0100
0000
0010
0000
0001
0000
0000
0100
0000
0000
0010
0000
0000
0000
0000
0000
1010
0000
0000
0000
0000
0000
,
0001
0000
0100
0000
0010
0000
0000
0000
1000
0001
0000
0000
0000
0000
0000
0000
,
1000
0010
0000
0100
0000
0001
0000
1000
,
0001
0100
0000
0100
0001
0000
1000
0000
,
0010
1000
0000
1000
0010
0000
0010
0001
,
0000
0001
0010
0000
0200
0000
0300
0000
,
1000
0100
0000
0100
0001
0000
0001
0010
,
0000
0010
1000
0000
0001
0000
0100
0000
,
0010
0000
0001
0000
1000
0000
1001
0000
1000
0000
0010
0000
,
0100
0000
0010
0000
1000
0000
2001
0000
0000
0000
0000
0000
,
3100
1000
0100
1000
0010
0000
0100
0001
,
0010
1000
0000
1000
0010
0000
0001
0100
,
0001
0010
0001
0010
0100
0000
1000
0010
,
0001
0010
0000
0010
0100
0000
0001
1000
,
0100
1000
0100
1000
0010
0000
0100
0001
,
0010
0100
0000
0100
0010
0000
0001
1000
,
0001
0100
0000
0110
0000
1000
0100
0000
,
0001
0100
0010
0000
2002
0000
3003
0000
,
1010
0000
0010
1000
0100
1000
0020
0000
,
0000
1030
0001
0100
0001
1000
0001
0000
,
0011
0000
0010
0001
0100
0001
0020
0000
,
0000
0031
0010
0100
1000
0001
1000
0000
,
0110
0000
1000
0010
0100
0010
2000
0000
,
0000
3001
0010
0100
0010
0001
1000
0000
,
0110
0000
0001
0100
0010
0100
0001
1000
,
0001
0010
0001
0010
0100
1000
0001
0000
,
1000
0100
1000
0100
0010
0000
0100
1000
,
0001
1000
0000
1000
0010
0000
1000
0010
,
0100
0001
0100
0001
1000
0000
0001
0010
,
0100
0010
0000
0010
0001
0000
1000
0001
,
1000
0100
0010
0001
1000
0100
0010
0001
,
1000
0010
0100
0001
1000
0010
0100
0001
,
1000
0100
0001
0100
1000
0100
0010
0001
,
0100
0101
1100
0101
,
0001
0010
0001
1000
0010
0000
0100
0010
,
1000
0010
0000
0010
1000
0000
0001
1000
,
0100
0010
0100
1000
0010
0000
0100
0010
,
1000
0001
0000
0001
0010
0000
0001
0000
,
1000
0100
1000
0100
0001
0100
0001
0100
,
0010
0100
0010
0100
1000
0100
1000
0100
,
1000
0001
1000
0001
0100
0010
0100
0010
,
1000
0100
0010
0100
1000
0000
0001
1000
,
0001
0020
0000
0031
1000
0000
0001
0100
,
0000
0100
0010
1000
0001
1000
0100
0000
,
1000
0200
0000
0310
0100
0000
1000
0010
,
0000
0010
0100
0001
1000
0100
1000
0000
,
0001
0010
0100
1000
0002
0000
2003
0000
,
3010
0100
0000
0100
0001
1000
0001
0000
,
0010
0001
0100
0001
0010
0001
1000
0010
,
0100
0010
2000
0000
3010
0000
1000
0001
,
1000
0100
1000
0100
0010
0100
2000
0000
,
3002
0000
1003
0000
0001
0010
0100
0000
,
0010
0001
0010
0001
1000
0010
0200
0000
,
0310
1000
0001
1000
0001
0010
0001
0000
,
1000
0000
0100
0000
0010
0000
0001
0000
0000
1000
0000
0000
0100
0000
0000
1000
0000
0000
0010
0000
0000
0100
0000
0000
,
0001
0000
0010
0000
0100
0000
1000
0000
0000
0001
0000
0000
0100
0000
0000
0010
0000
0000
1000
0000
0000
0001
0000
0000
,
1000
0000
0010
0000
0100
0000
0001
0000
0000
0100
0000
0000
0010
0000
0000
1000
0000
0000
0001
0000
0000
1000
0000
0000
,
0001
0000
0100
0000
0010
0000
1000
0000
0000
0001
0000
0000
1000
0000
0000
0001
0000
0000
1000
0000
0000
0200
0000
0000
,
0000
0300
0000
0000
0110
0000
0000
0000
0000
0000
0000
0000
0000
0000
0000
0000
0000
0000
0000
0000
0000
0000
0000
0000
0000
0000
0000
0000
0000
0000
0000
0000
0000
0000
0000
0000
0000
0000
0000
0000
0101
0000
0000
0000
0000
0000
0000
0000
0000
0000
0000
0000
0000
0000
0000
0000
1100
0000
0000
0000
0000
0000
0000
0000
,
0000
0000
0000
0000
0000
0000
0000
0000
1000
0010
1000
0010
0100
0001
0100
0001
,
1000
0100
0000
0100
0010
0000
0010
0001
0000
0001
0100
0000
0020
0000
0000
0000
,
0130
0001
0100
1000
0010
0001
0100
1000
0100
0002
0000
0000
,
1003
0010
1000
0010
0100
0000
0010
1000
,
0001
1000
0000
1000
0010
0000
1000
0100
,
0010
0100
0010
0100
1000
0000
0001
0010
,
0100
0010
0000
0010
0001
0000
1000
0001
,
1000
0010
0000
0010
0001
0000
0001
0010
,
0000
0010
1000
0100
0002
0000
0103
0000
,
1000
0100
0000
0001
0010
0000
1000
0010
,
0000
0001
0100
1000
0002
0000
0000
0000
,
1003
0100
0010
0100
1000
0100
0010
0100
,
1000
0100
0010
0100
1000
0100
0010
0100
,
1000
0010
0100
0001
1000
0010
0100
0001
,
1000
0010
0100
0001
1000
0010
0100
0001
,
1000
0100
0010
0100
1000
0100
0010
0100
,
1000
0100
0010
0100
1000
0100
0010
0100
,
1000
0010
0001
0010
1000
0010
0001
0010
,
1000
0010
0001
0010
1000
0010
0001
0010
,
1000
0010
0100
0010
1000
0010
0100
0010
,
1000
0010
0100
0010
1000
0010
0100
0010
,
1000
0100
0010
0001
1000
0100
0010
0001
,
1000
0100
0010
0001
1000
0100
0010
0001
,
1000
0010
0100
0010
1000
0010
0100
0010
,
1000
0010
0100
0010
1000
0010
0100
0010
,
1000
0100
0001
0100
1000
0100
0001
0100
,
1000
0100
0001
0100
1000
0001
0100
0001
,
1000
1100
1001
1100
,
1100
0000
1001
0000
1000
0010
0100
0001
,
0020
0001
0100
1030
,
0001
0010
1000
0010
0001
0000
1001
0000
,
0001
0101
1001
0101
,
0101
0000
1001
0000
0001
0010
0100
1000
,
0020
1000
0100
0031
,
1000
0100
0001
0100
1000
0000
1001
0000
,
1010
0000
0010
1000
0100
0001
0200
0000
,
1000
0310
1001
0100
,
0011
0000
0100
1000
0010
0001
0020
0000
,
1000
0000
0130
0000
1000
0001
1000
0000
,
0001
0100
0001
0100
1000
0100
1000
0100
,
0010
0100
0010
0100
0001
0010
0100
1000
,
0001
0000
0010
0000
0100
0000
1000
0000
0000
0100
0000
0000
1000
0000
0010
0000
0100
0000
0001
0000
0000
0100
0000
0000
,
0001
0000
0010
0000
0100
0000
1000
0000
0000
0100
0000
0000
1000
0000
0010
0000
0100
0000
0001
0000
0000
1000
0000
0000
,
1001
0000
0000
0000
0000
0000
1100
0000
0000
0000
0000
0000
0011
0000
0000
0000
0000
0000
1001
0000
0000
0000
0000
0000
1000
0000
0100
0000
0010
0000
0001
0000
0000
0010
0000
0000
0001
0000
0010
0000
0100
0000
1000
0000
0000
0100
0000
0000
,
1000
0000
0010
0000
0100
0000
0001
0000
0000
0100
0000
0000
0001
0000
0010
0000
1000
0000
0010
0000
0000
0001
0000
0000
1000
0000
0000
0000
0000
0000
0000
0000
0000
0000
0000
0000
0000
0000
0000
0000
0000
0000
0000
0000
0000
0000
0000
0000
;

//---------------dance-double - ----------------
#NOTES:
     dance-double:
     :
     Easy:
     11:
     0.636,1.000,0.083,0.149,0.004: // measure 1
00000000
00000000
00000000
00000000
,  // measure 2
00000000
00000000
00000000
00000000
,  // measure 3
00000000
00000000
00000000
00000000
,  // measure 4
00000000
00000000
00000000
00000000
,  // measure 5
00000000
00000000
00000000
00000000
00000000
00000000
00000000
20010000
,  // measure 6
00000000
00000000
30100000
00000000
,  // measure 7
10000000
01000000
10000000
00010000
01000000
00001000
00100000
00000000
,  // measure 8
00001000
00010000
00001000
00010000
,  // measure 9
00000010
00000100
00000001
00000000
,  // measure 10
00000010
00000001
00000010
00000100
,  // measure 11
00010000
00001000
00010000
00000000
,  // measure 12
00001000
01000000
00001000
01000000
,  // measure 13
00100000
10000000
00010000
00000000
,  // measure 14
10000000
01000000
00100000
01000000
,  // measure 15
10000000
10000000
00020000
00000000
,  // measure 16
10030000
01000000
00100000
01000000
,  // measure 17
10000000
00100000
01000000
00000000
,  // measure 18
00010000
01000000
00001000
00100000
,  // measure 19
00001000
00010000
00001000
00000000
,  // measure 20
00010000
00000010
00000100
00000010
,  // measure 21
00001000
00000100
00000010
00000000
,  // measure 22
00000001
00000010
00000100
00010000
,  // measure 23
00001000
01000000
00001000
00000000
,  // measure 24
01000000
00100000
01000000
00000000
,  // measure 25
00100000
10000000
00100000
00000000
,  // measure 26
10000000
01000000
10000000
01000000
,  // measure 27
00100000
00001000
00010000
00000000
,  // measure 28
00001000
01000000
00001000
00000000
,  // measure 29
00100000
00001000
00100000
00000000
,  // measure 30
00001000
00010000
00001000
00010000
,  // measure 31
00000010
00000100
00000010
00000000
,  // measure 32
00001000
00000100
00001000
00000000
,  // measure 33
00000010
00001000
00000010
00000000
,  // measure 34
00001000
00000010
00001000
00000010
,  // measure 35
00000100
00000001
00001000
00000000
,  // measure 36
00000001
00000010
00000100
00000000
,  // measure 37
00000010
00000100
00010000
00000000
,  // measure 38
00001000
01000000
00001000
01000000
,  // measure 39
00100000
10000000
00010000
00000000
,  // measure 40
10000000
01000000
10000000
00010000
,  // measure 41
01000000
00010000
00100000
00001000
,  // measure 42
00020000
00000000
00031000
00000000
,  // measure 43
00010000
00010000
00001000
00001000
,  // measure 44
00100000
00001000
01000000
00010000
,  // measure 45
10000000
00100000
01000000
00100000
,  // measure 46
20000000
00000000
31000000
00000000
,  // measure 47
00100000
00100000
00001000
00001000
,  // measure 48
00020000
00000000
00030010
00000100
,  // measure 49
00000000
00000100
00000001
00000000
,  // measure 50
00000020
00000000
00000130
00000010
,  // measure 51
00000000
00000010
00000001
00000000
,  // measure 52
00000010
00000000
00000100
00000000
,  // measure 53
00010000
00000000
00000100
00000000
,  // measure 54
00010000
00001000
00010000
00001000
,  // measure 55
00010000
00000000
00001000
00000000
,  // measure 56
01000000
00100000
01000000
00100000
,  // measure 57
10000000
00010000
10000000
00000000
,  // measure 58
00010000
01000000
00010000
01000000
,  // measure 59
00100000
10000000
00010000
00000000
,  // measure 60
10000000
01000000
10000000
01000000
,  // measure 61
00100000
00001000
00010000
00000000
,  // measure 62
00001000
01000000
00001000
01000000
,  // measure 63
00001000
00100000
00002000
00000000
,  // measure 64
00013000
00000010
00000100
00000010
,  // measure 65
00010000
00000100
00001000
00000000
,  // measure 66
00000001
00000010
00000100
00000010
,  // measure 67
00000001
00000100
00000001
00000000
,  // measure 68
00000100
00000010
00010000
00000100
,  // measure 69
00010000
00001000
00010000
00000000
,  // measure 70
00001000
00000000
00000000
01000000
00000000
00000000
00100000
00000000
,  // measure 71
00000000
10000000
00000000
00000000
10010000
00000000
00000000
00000000
,  // measure 72
10000000
00000000
01000000
00200000
,  // measure 73
00000000
00301000
00010000
00000000
,  // measure 74
00001000
00000000
00010000
00000020
,  // measure 75
00000000
00000130
00000001
00000000
,  // measure 76
00000010
00000000
00000100
00020000
,  // measure 77
00000000
00030100
00010000
00000000
,  // measure 78
00001000
00000000
01000000
00200000
,  // measure 79
00000000
10300000
00010000
00000000
,  // measure 80
10000000
01000000
10000000
00000000
,  // measure 81
00010000
01000000
00010000
00000000
,  // measure 82
00100000
00001000
00100000
00000000
,  // measure 83
00001000
00010000
00001000
00000000
,  // measure 84
00010000
00000010
00010000
00000000
,  // measure 85
00000010
00000100
00000010
00000000
,  // measure 86
00000100
00000001
00000100
00000000
,  // measure 87
00000001
00000010
00000001
00000000
,  // measure 88
00000010
00000100
00010000
00000000
,  // measure 89
00000100
00010000
00001000
00000000
,  // measure 90
00010000
00001000
00100000
00000000
,  // measure 91
00010000
01000000
00010000
00000000
,  // measure 92
10000000
01000000
10000000
01000000
,  // measure 93
00100000
00001000
00010000
00000000
,  // measure 94
00001000
00010000
00001000
00010000
,  // measure 95
00000020
00000000
00000130
00000000
,  // measure 96
00000010
00001000
00000010
00000100
,  // measure 97
00000001
00000010
00000100
00000000
,  // measure 98
00000010
00000001
00000010
00000001
,  // measure 99
00001000
00000010
00000100
00000000
,  // measure 100
00000010
00010000
00000010
00010000
,  // measure 101
00000100
00010000
00001000
00000000
,  // measure 102
00100000
00001000
00100000
00001000
,  // measure 103
01000000
00100000
10000000
00000000
,  // measure 104
00100000
01000000
00100000
01000000
,  // measure 105
00010000
10000000
01000000
00100000
,  // measure 106
01000000
10000000
01000000
10000000
,  // measure 107
00010000
01000000
00001000
00010000
,  // measure 108
00001000
00010000
00001000
00010000
,  // measure 109
00000010
00000100
00000001
00000010
,  // measure 110
00000100
00010000
00000100
00010000
,  // measure 111
00001000
00010000
00001000
00010000
,  // measure 112
00000000
00001000
00000000
00000000
00000000
00000000
00000000
00000000
00000000
00000000
01000000
00000000
00000000
00000000
01100000
00000000
,  // measure 113
00000000
00000000
00000000
00000000
10000000
00100000
01000000
00000000
,  // measure 114
01010000
00000000
00000000
00000000
00000000
00100000
00000000
00001000
,  // measure 115
00010000
00000010
00000100
00000002
,  // measure 116
00000013
00000100
00000010
00000100
,  // measure 117
00010000
00000100
00010000
00000000
,  // measure 118
00000100
00010000
00000100
00010000
,  // measure 119
00001000
00100000
00001000
00000000
,  // measure 120
01000000
00100000
01000000
00100000
,  // measure 121
10000000
00010000
10000000
00000000
,  // measure 122
00010000
00000000
00000000
01000000
00000000
00000000
00010000
00000000
,  // measure 123
00000000
00100000
00000000
00000000
00021000
00000000
00000000
00000000
,  // measure 124
00030010
00000100
00000010
00000100
,  // measure 125
00000010
00000100
00000010
00000100
,  // measure 126
00000001
00000010
00000001
00000010
,  // measure 127
00000100
00010000
00000100
00010000
,  // measure 128
00001000
00010000
00001000
00010000
,  // measure 129
00001000
00010000
00001000
00010000
,  // measure 130
00001000
01000000
00001000
01000000
,  // measure 131
00100000
01000000
00100000
01000000
,  // measure 132
00100000
10000000
00100000
10000000
,  // measure 133
00100000
10000000
00100000
10000000
,  // measure 134
01000000
10000000
01000000
10000000
,  // measure 135
01000000
00100000
01000000
00100000
,  // measure 136
00001000
00100000
00001000
00100000
,  // measure 137
00001000
00100000
00001000
00100000
,  // measure 138
00001000
00010000
00001000
00010000
,  // measure 139
00001000
00010000
00001000
00010000
,  // measure 140
00000010
00000100
00000001
00000000
,  // measure 141
00000010
00000100
00010000
00000000
,  // measure 142
00002000
00000000
01003000
00000000
,  // measure 143
00100000
00100000
01000000
01000000
,  // measure 144
00100000
10000000
00010000
00000000
,  // measure 145
10000000
01000000
00100000
00000000
,  // measure 146
00002000
00000000
00103000
00000000
,  // measure 147
00001000
00001000
00010000
00010000
,  // measure 148
00000010
00000000
00000100
00000002
,  // measure 149
00000000
00000000
00000013
00000000
,  // measure 150
00000100
00000000
00001000
02000000
,  // measure 151
00000000
00000000
13000000
00000000
,  // measure 152
00100000
01000000
00100000
01000000
,  // measure 153
00001000
01000000
00001000
01000000
,  // measure 154
00001000
00010000
00001000
00010000
,  // measure 155
00000010
00000100
00000001
00001000
,  // measure 156
00001001
00001100
00010100
00011000
00001000
00100000
00001000
00010000
,  // measure 157
00000010
00010000
00001000
00000000
00011000
00000000
00000000
00000000
;

//---------------dance-double - ----------------
#NOTES:
     dance-double:
     :
     Medium:
     14:
     0.792,1.000,0.363,0.132,0.054: // measure 1
00000000
00000000
00000000
00000000
,  // measure 2
00000000
00000000
00000000
00000000
,  // measure 3
00000000
00000000
00000000
00000000
,  // measure 4
00000000
00000000
00000000
00000000
,  // measure 5
00000000
00000000
00000000
00000000
00000000
00000000
00000000
20010000
,  // measure 6
00000000
00000000
30100000
00000000
,  // measure 7
10000000
01000000
10000000
00000000
00010000
00000000
01000000
00000000
00010000
00000000
00100000
00000000
00001000
00000000
00010000
00000000
,  // measure 8
00000010
00000000
00000000
00000010
00000100
00000000
00000001
00000000
,  // measure 9
00001000
00000100
00000010
00000000
,  // measure 10
00000011
00000000
00000000
00000001
00000100
00000000
00000010
00000000
,  // measure 11
00010000
00001000
00010000
00000000
,  // measure 12
00011000
00000000
00000000
00001000
01000000
00000000
00100000
00000000
,  // measure 13
10000000
01000000
00100000
00000000
,  // measure 14
01100000
00000000
00000000
01000000
10000000
00000000
00010000
00000000
,  // measure 15
01000000
00010000
01000000
00000000
00001000
00000000
00010000
00000000
,  // measure 16
00000010
00000000
00000000
00000010
00000100
00000000
00000001
00000000
,  // measure 17
00001000
00000100
00000000
00001000
00000001
00000000
00000000
00000000
,  // measure 18
00000110
00000000
00000000
00000010
00010000
00000000
00001000
00000000
,  // measure 19
00100000
00010000
00000000
10000000
00010000
00000000
00000000
00000000
,  // measure 20
01100000
00000000
00000000
00100000
10000000
00000000
00010000
00000000
,  // measure 21
01000000
00010000
00000000
00100000
00001000
00000000
00000000
00000000
,  // measure 22
00011000
00000000
00000000
00001000
01000000
00000000
00001000
00000000
,  // measure 23
00010000
00001000
00010000
00000000
00001000
00000000
00000000
00000000
,  // measure 24
00010000
00000100
00000010
00000100
,  // measure 25
00010000
00000100
00000010
00000100
,  // measure 26
00001000
00000000
00001100
00000000
,  // measure 27
00000101
00000000
00001100
00000000
,  // measure 28
00001000
00000010
00000100
00000010
,  // measure 29
00001000
00000010
00000100
00000010
,  // measure 30
00001000
00000000
00001010
00000000
,  // measure 31
00011000
00000000
01010000
00000000
,  // measure 32
10000000
01000000
00100000
01000000
,  // measure 33
10000000
01000000
00100000
01000000
,  // measure 34
10000000
00000000
01010000
00000000
,  // measure 35
01100000
00000000
01010000
00000000
,  // measure 36
10000000
00100000
01000000
00100000
,  // measure 37
10000000
00100000
01000000
00100000
,  // measure 38
10000000
00000000
01100000
00000000
,  // measure 39
00101000
00000000
00011000
00000000
,  // measure 40
00000100
00001000
00000001
00000010
,  // measure 41
00000100
00000000
00010000
00000000
00000100
00010000
00000100
00000000
,  // measure 42
00020000
00000000
00031000
00000000
,  // measure 43
00010000
00010000
00001000
00001000
,  // measure 44
01000000
00100000
10000000
00100000
,  // measure 45
01000000
00000000
00010000
00000000
10000000
01000000
10000000
00000000
,  // measure 46
00020000
00000000
10030000
00000000
,  // measure 47
00010000
00100000
01000000
10000000
,  // measure 48
00100000
00000000
00000000
00100000
01000000
00000000
00010000
00000000
,  // measure 49
00100000
00001000
00010000
00000100
,  // measure 50
00010000
00000000
00000000
00010000
00000010
00000000
00000100
00000000
,  // measure 51
00000001
00000010
00000100
00010000
,  // measure 52
00000100
00010000
00000100
00000000
00010000
00000000
00010000
00000000
,  // measure 53
00000100
00010000
00000100
00000000
00001000
00000000
00001000
00000000
,  // measure 54
00000010
00000100
00000010
00000000
00010000
00000000
00010000
00000000
,  // measure 55
00000100
00000100
00011000
00000000
,  // measure 56
00010000
01000000
00000000
00010000
00000000
10000000
00000000
00010000
,  // measure 57
00000000
01000000
00000000
00000000
00100000
00000000
10000000
00000000
,  // measure 58
01000000
00100000
00000000
01000000
00100000
00000000
00010000
00100000
,  // measure 59
00000000
00001000
00010000
00000000
00001000
00000000
00000000
00000000
,  // measure 60
00010000
00000010
00000000
00010000
00000010
00000000
00000100
00000010
,  // measure 61
00000000
00001000
00000001
00000000
00000010
00000000
00000100
00000000
,  // measure 62
00001000
00000000
00000000
00000000
00001000
00000000
00000100
00000000
00000000
00000000
00000100
00000000
,  // measure 63
00000010
00000000
00000001
00000000
00001000
00000000
00000002
00000000
00000000
00000000
00000000
00000000
,  // measure 64
00000103
00000000
00000010
00001000
00000010
00000000
00000000
00000000
,  // measure 65
00010000
00001000
00000000
01000000
00001000
00000000
01000000
00000000
,  // measure 66
00100000
00000000
10000000
00100000
10000000
00000000
00000000
00000000
,  // measure 67
00010000
10000000
00000000
00010000
00100000
00000000
00010000
00000000
,  // measure 68
10000000
01000000
00000000
01000000
00100000
00000000
00000000
00000000
,  // measure 69
00001000
00010000
00000000
00010000
00001000
00000000
00010000
00000000
,  // measure 70
00000010
00000100
00000000
00000010
00001000
00000000
00000010
00000100
,  // measure 71
00000000
00000010
00010000
00000000
00010200
00000000
00000000
00000000
,  // measure 72
00010300
00000000
00001000
01000000
00001000
00000000
00020000
00000000
,  // measure 73
00000000
00031000
01000000
00100000
,  // measure 74
10000000
00000000
01000000
00100000
01000000
00000000
20000000
00000000
,  // measure 75
00000000
30100000
01000000
00001000
,  // measure 76
00100000
00000000
00001000
01000000
00001000
00000000
00200000
00000000
,  // measure 77
00000000
00310000
01000000
00001000
,  // measure 78
00010000
00000000
00000010
00000100
00000010
00000000
00010000
00000000
,  // measure 79
00000010
00001000
00000001
00000000
,  // measure 80
00000010
00000100
00001000
00000100
,  // measure 81
00000010
00000001
00000100
00000010
,  // measure 82
00001000
00000010
00000100
00000010
,  // measure 83
00010000
00000100
00010000
00001000
,  // measure 84
00100000
00010000
01000000
00100000
,  // measure 85
10000000
01000000
10000000
00010000
,  // measure 86
10000000
00100000
01000000
00010000
,  // measure 87
00100000
00100000
00001000
00001000
,  // measure 88
00010000
00000010
00000100
00000001
,  // measure 89
00000010
00000100
00010000
00000100
,  // measure 90
00001000
00000010
00000100
00000001
,  // measure 91
00000010
00001000
00000010
00000100
,  // measure 92
00001000
01000000
00010000
01000000
,  // measure 93
10000000
01000000
00010000
01000000
,  // measure 94
10000000
00100000
10000000
00000000
00010000
00000000
01000000
00000000
,  // measure 95
00002000
00000000
00013000
00000000
,  // measure 96
00000010
00000100
00000000
00000100
00000001
00000000
00000100
00000010
,  // measure 97
00000000
00000010
00001000
00000000
00000001
00000000
00000000
00000000
,  // measure 98
00000010
00000100
00000000
00000100
00010000
00000000
00000100
00010000
,  // measure 99
00000000
00010000
00001000
00000000
00010000
00000000
00000000
00000000
,  // measure 100
00001000
01000000
00000000
01000000
00100000
00000000
10000000
00010000
,  // measure 101
00000000
00010000
10000000
00000000
00010000
00000000
00000000
00000000
,  // measure 102
10000000
01000000
00000000
01000000
00100000
00000000
00010000
00100000
,  // measure 103
00000000
00100000
00001000
00000000
00010000
00000000
00000000
00000000
,  // measure 104
00000010
00001000
00000000
00000010
00000100
00000000
00000010
00001000
,  // measure 105
00000000
00000001
00000010
00000000
00000001
00000000
00000000
00000000
,  // measure 106
00001000
00000100
00000000
00010000
00001000
00000000
01000000
00010000
,  // measure 107
00000000
01000000
00100000
00000000
01000000
00000000
00000000
00000000
,  // measure 108
00100000
10000000
00100000
00000000
01000000
00000000
00010000
00000000
,  // measure 109
10000000
01000000
10000000
00000000
00010000
00000000
00100000
00000000
,  // measure 110
00001000
00010000
00001000
00000000
00010000
00000000
00000010
00000000
,  // measure 111
00000100
00000010
00000100
00000000
00000010
00000000
00001000
00000001
,  // measure 112
00000000
00001001
00000000
00000000
00000000
00000000
00000000
00000000
00000000
00000000
00000110
00000000
00000000
00000000
00000101
00000000
,  // measure 113
00000000
00000000
00000001
00000010
,  // measure 114
00000110
00000000
00000000
00000000
00000000
00010100
00000000
00011000
,  // measure 115
00001000
01000000
00001000
01000000
00100000
01000000
00100000
10000000
00010000
00200000
00000000
00000000
,  // measure 116
00301000
01000000
00001000
00010000
,  // measure 117
00001000
01000000
00000000
00001000
00010000
00000000
00000000
00000000
,  // measure 118
00011000
00001000
01000000
00000000
,  // measure 119
00100000
01000000
00000000
00010000
00100000
00000000
00000000
00000000
,  // measure 120
00011000
00010000
00000010
00000000
,  // measure 121
00000100
00000010
00000000
00010000
00001000
00000000
00000000
00000000
,  // measure 122
00010100
00000000
00000000
00011000
00000000
00000000
01001000
00000000
,  // measure 123
00000000
01100000
00000000
00000000
20020000
00000000
30030000
00000000
,  // measure 124
10000000
01000000
10000000
00000000
00100000
00000000
01000000
00000000
,  // measure 125
00100000
10000000
00010000
01000000
,  // measure 126
00001000
00100000
00001000
00000000
01000000
00000000
00001000
00000000
,  // measure 127
00100000
00001000
00011000
00000000
,  // measure 128
00100000
00001000
00100000
00000000
00001000
00000000
00010000
00000000
,  // measure 129
00000010
00000100
00000010
00001000
,  // measure 130
00000001
00000010
00000001
00000000
00000010
00000000
00000100
00000000
,  // measure 131
00010000
00000100
00010000
00001000
,  // measure 132
01000000
00001000
01000000
00000000
00100000
00000000
01000000
00000000
,  // measure 133
00010000
00100000
01000000
10000000
,  // measure 134
00100000
01000000
00100000
00000000
10000000
00000000
00100000
00000000
,  // measure 135
01000000
00001000
00011000
00000000
,  // measure 136
00010000
00001000
00010000
00000000
00000010
00000000
00000100
00000000
,  // measure 137
00000001
00000010
00001000
00000010
,  // measure 138
00000100
00010000
00000100
00000000
00010000
00000000
00001000
00000000
,  // measure 139
01000000
00100000
01000000
00100000
10000000
00000000
00010000
00000000
,  // measure 140
10000000
01000000
11000000
00000000
,  // measure 141
10000000
00000000
00100000
00000000
01000000
00001000
01000000
00000000
,  // measure 142
00002000
00000000
00103000
00000000
,  // measure 143
00001000
00001000
00010000
00010000
,  // measure 144
00000010
00000100
00000110
00000000
,  // measure 145
00000010
00000000
00001000
00000000
00000001
00000010
00000001
00000000
,  // measure 146
00002000
00000000
00003100
00000000
,  // measure 147
00010000
00010000
00001000
00001000
,  // measure 148
01000000
00000000
00100000
10000000
00100000
00000000
20000000
00000000
,  // measure 149
00000000
00000000
30010000
00000000
,  // measure 150
10000000
00000000
01000000
00100000
01000000
00000000
00200000
00000000
,  // measure 151
00000000
00000000
00301000
00000000
,  // measure 152
00010000
00000100
00000001
00000100
,  // measure 153
00010000
00001000
00011000
00000000
,  // measure 154
00001000
01000000
10000000
01000000
,  // measure 155
00001000
00100000
00001000
00010000
,  // measure 156
00000110
00000000
00001010
00000000
00010100
00000000
00011000
00000000
00001000
01000000
00001000
00000000
10000000
00000000
01000000
00000000
,  // measure 157
00100000
00001000
00010000
00000000
00011000
00000000
00000000
00000000
;

//---------------dance-double - ----------------
#NOTES:
     dance-double:
     :
     Hard:
     18:
     1.000,1.000,0.397,0.140,0.140: // measure 1
00000000
00000000
00000000
00000000
,  // measure 2
00000000
00000000
00000000
00000000
,  // measure 3
00000000
00000000
00000000
00000000
,  // measure 4
00000000
00000000
00000000
00000000
,  // measure 5
00000000
00000000
00000000
00000000
00000000
00000000
00000000
20010000
,  // measure 6
00000000
00000000
30100000
00000000
,  // measure 7
10000000
01000000
10000000
01000000
00100000
00001000
00100000
00001000
00010000
00000010
00010000
00000010
00001000
00000001
00001000
00000001
,  // measure 8
00000100
00000000
00000010
00001000
00000010
00000000
00000100
00000000
,  // measure 9
00000010
00001000
00000010
00000000
00001000
00000100
00001000
00000000
,  // measure 10
00000001
00000000
00000010
00000001
00000010
00000000
00000001
00000000
,  // measure 11
00000100
00000001
00000100
00000000
00000001
00001000
00000001
00000000
,  // measure 12
00001000
00000000
00000010
00010000
00000010
00000000
00001000
00000000
,  // measure 13
00000010
00010000
00000010
00000000
00010000
00001000
00010000
00000000
,  // measure 14
00001000
00000000
01000000
00001000
01000000
00000000
00100000
00000000
,  // measure 15
10000000
00010000
01000000
00100000
10000000
00010000
01000000
00010000
,  // measure 16
10000000
00000000
01000000
00100000
01000000
00000000
10000000
00100000
,  // measure 17
01000000
00010000
00000000
00010000
00100000
00000000
00010000
01000000
,  // measure 18
00010000
00000000
01000000
00001000
00100000
00000000
00001000
00010000
,  // measure 19
00000010
00001000
00000000
00001000
00000010
00000000
00000100
00000001
,  // measure 20
00000100
00000000
00000001
00000010
00000001
00000000
00001000
00000100
,  // measure 21
00000010
00000100
00000000
00000100
00010000
00000000
00001000
01000000
,  // measure 22
00100000
00000000
10000000
01000000
10000000
00000000
00010000
00100000
,  // measure 23
00010000
10000000
00010000
10000000
00100000
01000000
00010000
00000000
,  // measure 24
10000000
01000000
10000000
01000000
00100000
01000000
10000000
00000000
,  // measure 25
00010000
01000000
00010000
01000000
00100000
01000000
00010000
00000000
,  // measure 26
00100000
00001000
00100000
00001000
00010000
00001000
00010000
00001000
,  // measure 27
00010000
00000100
00010000
00000100
00010000
00001000
00010000
00001000
,  // measure 28
00010000
00000010
00010000
00000010
00010000
00000010
00000100
00000000
,  // measure 29
00000010
00001000
00000010
00001000
00000001
00000010
00000001
00000000
,  // measure 30
00001000
00000100
00001000
00000100
00000010
00000100
00000010
00000100
,  // measure 31
00010000
00000100
00010000
00000100
00010000
00001000
00010000
00001000
,  // measure 32
01000000
00001000
01000000
00001000
00100000
00010000
01000000
00000000
,  // measure 33
00100000
10000000
00100000
10000000
00100000
01000000
00010000
00000000
,  // measure 34
10000000
01000000
10000000
01000000
00100000
00001000
00100000
00001000
,  // measure 35
00010000
00000010
00010000
00000010
00000100
00000010
00001000
00000001
,  // measure 36
00000010
00000100
00000010
00000100
00001000
00000100
00000010
00000000
,  // measure 37
00000001
00000100
00000001
00000100
00000010
00001000
00000001
00000000
,  // measure 38
00001000
00000100
00001000
00000100
00010000
00000100
00010000
00000100
,  // measure 39
00010000
00001000
00010000
00001000
00100000
00010000
01000000
00000000
,  // measure 40
00100000
10000000
10100000
00100000
,  // measure 41
10000000
00000000
10100000
00000000
10000000
00100000
01000000
00000000
,  // measure 42
01020000
00000000
00130000
00000000
,  // measure 43
00010000
00010000
00100000
00100000
,  // measure 44
00001000
00010000
00011000
00010000
,  // measure 45
00000010
00000000
00000110
00000000
00000010
00001000
00000001
00000000
,  // measure 46
00001002
00000000
00000013
00000000
,  // measure 47
00000001
00000100
00000001
00000100
00000010
00001000
00000001
00000000
,  // measure 48
00001001
00000000
00000010
00000100
00010000
00000000
00020100
00000000
,  // measure 49
00000000
00031000
00100000
00001000
,  // measure 50
01001000
00000000
00100000
01000000
00010000
00000000
02010000
00000000
,  // measure 51
00000000
00000000
03100000
00000000
10000000
00010000
10000000
00000000
,  // measure 52
00010000
01000000
00010000
01000000
00100000
01000000
00010000
00000000
,  // measure 53
10000000
01000000
10000000
01000000
00100000
01000000
10000000
00000000
,  // measure 54
00010000
01000000
00010000
00100000
00010000
00000000
00110000
00000000
,  // measure 55
00010000
00000000
00100000
00000000
00001000
00000000
00010000
00000000
00001000
00010000
00000000
00000000
00000000
00000000
00000000
00000000
,  // measure 56
00000010
00000100
00000000
00000100
00000001
00000000
00000001
00000010
,  // measure 57
00000000
00000010
00000100
00000000
00001000
00000100
00001000
00000000
,  // measure 58
00000100
00010000
00000000
00010000
00001000
00000000
00001000
00100000
,  // measure 59
00000000
00100000
00010000
00000000
01000000
00100000
01000000
00000000
,  // measure 60
00100000
10000000
00000000
10000000
00010000
00000000
00010000
01000000
,  // measure 61
00000000
01000000
00010000
00000000
10000000
01000000
10000000
00000000
,  // measure 62
01000000
00000000
00100000
00000000
01000000
00000000
10000000
00000000
00100000
00000000
01000000
00000000
,  // measure 63
00001000
00000000
00100000
00000000
00001000
00000000
00020000
00000000
00000000
00000000
00000000
00000000
,  // measure 64
00030010
00001000
00000000
00001000
00000100
00000000
00000100
00000001
,  // measure 65
00000000
00000001
00000100
00000000
00001000
00000100
00001000
00000000
,  // measure 66
00000100
00010000
00000000
00010000
00001000
00000000
00001000
00100000
,  // measure 67
00000000
00100000
00010000
00000000
01000000
00010000
01000000
00000000
,  // measure 68
00100000
10000000
00000000
10000000
00010000
00000000
00010000
01000000
,  // measure 69
00000000
01000000
00010000
00000000
00100000
01000000
10000000
00000000
,  // measure 70
00010000
00100000
00000000
00001000
00010000
00000000
00000010
00000100
,  // measure 71
00000000
00000010
00001000
00000000
00002020
00000000
00003030
00000000
,  // measure 72
00001100
00000000
00001000
00000100
00001000
00000000
00002001
00000000
,  // measure 73
00000000
00003010
00000100
00000001
,  // measure 74
00000011
00000000
00000001
00000010
00000001
00000000
00002001
00000000
,  // measure 75
00000000
00003010
00000100
00000010
,  // measure 76
00010010
00000000
00000010
00010000
00000100
00000000
00010200
00000000
,  // measure 77
00000000
00010300
00001000
00010000
,  // measure 78
00011000
00000000
00001000
01000000
00100000
00000000
01100000
00000000
,  // measure 79
00100000
10000000
00100000
10000000
00010000
10000000
01000000
00000000
,  // measure 80
10000000
01000000
00100000
01000000
10000000
00000000
01000000
00000000
,  // measure 81
00100000
00001000
00000000
00001000
00010000
00000000
00001000
00000000
,  // measure 82
00010000
00000010
00000100
00000010
00010000
00000000
00000010
00000000
,  // measure 83
00000100
00000001
00000000
00000001
00001000
00000000
00000001
00000000
,  // measure 84
00000010
00000001
00000100
00000001
00000010
00000000
00000100
00000000
,  // measure 85
00010000
00000100
00000000
00000100
00010000
00000000
00001000
00000000
,  // measure 86
01000000
00010000
00100000
00010000
01000000
00000000
00100000
10000000
,  // measure 87
00010000
10010000
10000000
10010000
,  // measure 88
10000000
00100000
01000000
00100000
10000000
00000000
00100000
00000000
,  // measure 89
01000000
00001000
00000000
00001000
00100000
00000000
00001000
00000000
,  // measure 90
01000000
00001000
00100000
00001000
00010000
00000000
00001000
00000000
,  // measure 91
00010000
00000010
00000000
00000010
00000100
00000000
00000001
00000000
,  // measure 92
00001000
00000100
00001000
00000100
00000010
00000100
00000010
00000100
,  // measure 93
00001000
00000100
00000010
00000001
00001000
00000100
00000010
00000001
,  // measure 94
00000100
00000010
00010000
00000010
00000100
00000010
00010000
00001000
,  // measure 95
00020000
00000000
00000000
00000000
00031000
00010000
00001000
00010000
,  // measure 96
00001000
01000000
00000000
01000000
00100000
00000000
00100000
10000000
,  // measure 97
00000000
10000000
00010000
00000000
10000000
01000000
10000000
00000000
,  // measure 98
00100000
01000000
00000000
01000000
00010000
00000000
00010000
00100000
,  // measure 99
00000000
00100000
00001000
00000000
00010000
00001000
00010000
00000000
,  // measure 100
00000010
00010000
00000000
00010000
00000010
00000000
00000100
00000001
,  // measure 101
00000000
00000001
00001000
00000000
00000001
00000010
00000001
00000000
,  // measure 102
00000010
00000100
00000000
00000100
00010000
00000000
00001000
01000000
,  // measure 103
00000000
01000000
00010000
00000000
00100000
00010000
10000000
00010000
,  // measure 104
10000000
01000000
00000000
00010000
01000000
00000000
00100000
01000000
,  // measure 105
00000000
00100000
00001000
00000000
00010000
00000010
00000100
00000000
,  // measure 106
00000010
00001000
00000000
00000010
00000001
00000000
00000010
00000100
,  // measure 107
00000000
00000010
00001000
00000000
00000001
00000010
00000100
00001000
,  // measure 108
00000001
00000100
00000001
00000100
00001000
00000100
00001000
00000100
,  // measure 109
00000001
00000010
00000001
00000010
00010000
00000010
00010000
00000010
,  // measure 110
00000100
00000010
00000001
00001000
00000100
00000000
00010100
00000000
,  // measure 111
00001000
01000000
00100000
10000000
00010000
01000000
00010000
10000000
,  // measure 112
00000000
01100000
00000000
00000000
00000000
00000000
00000000
00000000
00000000
00000000
10100000
00000000
00000000
00000000
10010000
00000000
,  // measure 113
00000000
00000000
00000000
00000000
00000000
00000000
00000000
00000000
10000000
01000000
10000000
01000000
00100000
01000000
10000000
01000000
,  // measure 114
10000000
00000000
00000000
00000000
00000000
01100000
00000000
01001000
,  // measure 115
00001000
00010000
00000010
00010000
00000100
00001000
00000010
00000100
00000001
00002000
00000000
00000000
,  // measure 116
00003001
00000000
00000010
00000001
00000010
00000000
00000001
00000100
,  // measure 117
00000010
00001000
00000000
00001000
00000010
00000000
00001000
00000100
,  // measure 118
00001000
00000000
00000100
00010000
00001000
00000000
00100000
00010000
,  // measure 119
01000000
00100000
00000000
00100000
10000000
00000000
00010000
01000000
,  // measure 120
00010000
00100000
00000000
10000000
00100000
00000000
00010000
01000000
,  // measure 121
00000000
10000000
01000000
00000000
01100000
00000000
00010000
00000000
,  // measure 122
00001000
00000010
00000000
00000001
00000010
00000000
00001000
00000100
,  // measure 123
00000000
00000001
00000100
00000000
00001001
00000000
00000000
00000000
,  // measure 124
00000010
00000100
00000010
00000100
00000010
00001000
00000010
00001000
,  // measure 125
00000001
00000010
00000001
00000010
00000100
00001000
00000100
00001000
,  // measure 126
00000001
00000010
00000100
00001000
00000001
00000010
00000100
00001000
,  // measure 127
00000010
00000100
00000010
00000100
00000010
00010000
00000010
00010000
,  // measure 128
00001000
01000000
00001000
01000000
00100000
10000000
00100000
10000000
,  // measure 129
00010000
00100000
00010000
00100000
00010000
10000000
00010000
10000000
,  // measure 130
00010000
00100000
01000000
10000000
00010000
00100000
01000000
10000000
,  // measure 131
00100000
01000000
00100000
01000000
00010000
01000000
00001000
01000000
,  // measure 132
00001000
00100000
00001000
00100000
00001000
00010000
00001000
00010000
,  // measure 133
00000010
00000100
00000010
00000100
00000001
00001000
00000001
00001000
,  // measure 134
00000001
00000010
00000100
00001000
00000001
00000010
00000100
00001000
,  // measure 135
00000010
00000100
00000010
00000100
00000010
00010000
00001000
00010000
,  // measure 136
00001000
01000000
00001000
01000000
00100000
10000000
00100000
10000000
,  // measure 137
00010000
00100000
00010000
00100000
00010000
10000000
00010000
10000000
,  // measure 138
00010000
00100000
01000000
10000000
00010000
00100000
01000000
10000000
,  // measure 139
00100000
01000000
00001000
01000000
00010000
00100000
00010000
10000000
,  // measure 140
00010000
01000000
01010000
00010000
,  // measure 141
00100000
00000000
00110000
00000000
00001000
00010000
00001000
00000000
,  // measure 142
00021000
00000000
00030010
00000000
,  // measure 143
00000100
00000100
00000010
00000010
,  // measure 144
00001000
00000010
00001010
00001000
,  // measure 145
00000100
00000000
00001100
00000000
00001000
00000001
00000100
00000000
,  // measure 146
00000102
00000000
00000013
00000000
,  // measure 147
00000001
00001000
00000001
00001000
00000001
00000000
00001001
00000000
,  // measure 148
00001010
00000000
00000010
00001000
00000100
00000000
00020100
00000000
,  // measure 149
00000000
00031000
00100000
00001000
,  // measure 150
01001000
00000000
00010000
01000000
00100000
00000000
01200000
00000000
,  // measure 151
00000000
10300000
00100000
01000000
,  // measure 152
00100000
10000000
00100000
00000000
01000000
00010000
01000000
00000000
,  // measure 153
00001000
00100000
00001000
00000000
00010000
00001000
00010000
00000000
,  // measure 154
00000010
00001000
00000100
00001000
00000010
00000000
00000110
00000000
,  // measure 155
00000001
00000010
00000100
00010000
00001000
00010000
00001000
00000000
,  // measure 156
01001000
00000000
01100000
00000000
10100000
00000000
10010000
00000000
10000000
01000000
10000000
01000000
00100000
00001000
00010000
00000010
,  // measure 157
00000100
00000010
00000100
00000010
00001000
00000001
00001000
00000001
00001001
00000000
00000000
00000000
00000000
00000000
00000000
00000000
;

//---------------dance-double - ----------------
#NOTES:
     dance-double:
     :
     Challenge:
     19:
     1.000,1.000,0.611,0.165,0.248: // measure 1
00000000
00000000
00000000
00000000
,  // measure 2
00000000
00000000
00000000
00000000
,  // measure 3
00000000
00000000
00000000
00000000
,  // measure 4
00000000
00000000
00000000
00000000
,  // measure 5
00000000
00000000
00000000
00000000
00000000
00000000
00000000
20010000
,  // measure 6
00000000
00000000
30100000
00000000
,  // measure 7
10000000
01000000
10000000
01000000
00100000
00001000
00010000
00000000
00001000
01000000
00001000
01000000
00100000
10000000
00010000
10000000
,  // measure 8
00100000
10000000
00100000
10000000
01000000
00000000
00100000
00010000
,  // measure 9
00100000
00010000
01000000
00000000
00001000
00100000
01000000
00100000
,  // measure 10
00001000
00010000
00001000
00010000
00000010
00000000
00000100
00000010
,  // measure 11
00000100
00000010
00001000
00000000
00000001
00000010
00000100
00000010
,  // measure 12
00000001
00000100
00000001
00000100
00000010
00000000
00001000
00000010
,  // measure 13
00001000
00000010
00000100
00000000
00000010
00010000
00000100
00010000
,  // measure 14
00001000
00100000
00001000
00100000
01000000
00000000
00100000
00010000
,  // measure 15
10000000
01000000
10000000
01000000
00100000
01000000
10000000
01000000
,  // measure 16
10000000
00100000
10000000
00100000
01000000
00000000
00100000
10000000
,  // measure 17
00010000
00100000
00000000
00100000
00010000
00000000
01000000
00001000
,  // measure 18
00010000
00000100
00010000
00000100
00001000
00000000
00000010
00000100
,  // measure 19
00000001
00000010
00000000
00000010
00000001
00000000
00001000
00000001
,  // measure 20
00000100
00000001
00000100
00000001
00000010
00000000
00000100
00000010
,  // measure 21
00000001
00001000
00000000
00001000
00000010
00000000
00010000
00000010
,  // measure 22
00000100
00000010
00000100
00000010
00010000
00000000
00001000
01000000
,  // measure 23
00010000
00100000
00010000
00100000
01000000
10000000
00010000
00000000
,  // measure 24
10000000
00100000
01000000
00010000
10000000
00100000
01000000
00010000
,  // measure 25
10000000
00100000
01000000
00010000
10000000
00100000
01000000
00010000
,  // measure 26
10000000
01000000
00100000
01000000
10000000
01000000
00100000
01000000
,  // measure 27
10000000
01000000
00100000
01000000
10000000
01000000
00100000
01000000
,  // measure 28
00100000
00001000
00010000
00001000
00100000
00001000
00010000
00001000
,  // measure 29
00100000
00001000
00010000
00001000
00100000
00001000
00010000
00001000
,  // measure 30
00010000
00000010
00000100
00000010
00010000
00000010
00000100
00000010
,  // measure 31
00001000
00000100
00000010
00000100
00001000
00000100
00000010
00000100
,  // measure 32
00001000
00000010
00000100
00000001
00001000
00000010
00000100
00000001
,  // measure 33
00001000
00000010
00000100
00000001
00001000
00000010
00000100
00000001
,  // measure 34
00001000
00000100
00000010
00000100
00010000
00000100
00000010
00000100
,  // measure 35
00010000
00000100
00000010
00000100
00010000
00000100
00010000
00001000
,  // measure 36
01000000
00100000
10000000
00010000
01000000
00100000
10000000
00010000
,  // measure 37
01000000
00100000
01000000
00010000
01000000
00100000
01000000
00010000
,  // measure 38
00100000
01000000
10000000
01000000
00100000
01000000
10000000
01000000
,  // measure 39
00100000
00001000
01000000
00001000
00100000
00001000
01000000
00001000
,  // measure 40
00010000
00010100
00010010
00010100
,  // measure 41
00010100
00000000
00010010
00000000
00000010
00000100
00000001
00000000
,  // measure 42
00001002
00000010
00000100
00001003
,  // measure 43
00001100
00001100
00000110
00000110
,  // measure 44
00000101
00000101
00001001
00000101
,  // measure 45
00000101
00000000
00000011
00000000
00000001
00000010
00000100
00000000
,  // measure 46
00020100
00001000
01000000
00031000
,  // measure 47
01000000
00000000
01001000
00000000
00100000
10000000
00010000
00000000
,  // measure 48
10010000
00000000
10000000
01000000
10000000
00000000
10200000
00000000
,  // measure 49
01000000
00000000
00310000
00000000
10000000
00010000
01000000
00000000
,  // measure 50
01010000
00000000
00100000
00001000
00010000
00000000
00021000
00000000
,  // measure 51
00000010
00000000
00030100
00000000
00000010
00000100
00000001
00000000
,  // measure 52
00000010
00000001
00000010
00000001
00000100
00000010
00001000
00000000
,  // measure 53
00000010
00001000
00000010
00001000
00000100
00010000
00001000
00000000
,  // measure 54
10000000
00000000
00100000
00000000
10000000
00000000
00100000
00000000
00000000
01000000
00000000
00000000
00100000
00000000
00000000
00000000
00000000
00000000
01100000
00000000
00000000
00000000
00000000
00000000
,  // measure 55
00100000
00000000
10000000
00000000
01000000
00000000
10000000
00000000
00010000
00100000
00000000
00000000
00000000
00000000
00000000
00000000
,  // measure 56
00001000
00000100
00000000
00000001
00000100
00000000
00001000
00000100
,  // measure 57
00000000
00000001
00000100
00000000
00001000
00000100
00000010
00001000
,  // measure 58
00000001
00000010
00000000
00001000
00000010
00000000
00000001
00000010
,  // measure 59
00000000
00001000
00000010
00000000
00000100
00000010
00000100
00000000
,  // measure 60
00010000
01000000
00000000
10000000
01000000
00000000
00010000
01000000
,  // measure 61
00000000
10000000
01000000
00000000
00100000
01000000
00010000
00000000
,  // measure 62
10000000
00000000
00100000
00000000
01000000
00000000
01100000
00000000
01000000
00000000
00001000
00000000
,  // measure 63
00101000
00000000
00001000
00000000
00010000
00000000
00021000
00000000
00000000
00000000
00000000
00000000
,  // measure 64
00030010
00001000
00000100
00001000
00000010
00000000
00000100
00000001
,  // measure 65
00000010
00000001
00000000
00000001
00001000
00000000
00000001
00000010
,  // measure 66
00000100
00000010
00000001
00000010
00000100
00000000
00010000
00000100
,  // measure 67
00010000
00001000
00000000
00001000
00100000
00000000
00010000
01000000
,  // measure 68
00010000
00100000
00000000
10000000
00100000
00000000
00010000
01000000
,  // measure 69
00000000
10000000
01000000
00000000
01100000
00000000
01000000
00000000
,  // measure 70
00001000
00000010
00000000
00000001
00000010
00000000
00001000
00000100
,  // measure 71
00000000
00000001
00000100
00000000
00002002
00000000
00003003
00000000
,  // measure 72
00001100
00000000
00001000
00000100
00001000
00000000
00002010
00000000
,  // measure 73
00000001
00000000
00003100
00000000
00000001
00000010
00000001
00000000
,  // measure 74
00000011
00000000
00000001
00000100
00000010
00000000
00010020
00000000
,  // measure 75
00000100
00000000
00001030
00000000
00010000
00000100
00010000
00000000
,  // measure 76
00011000
00000000
00001000
01000000
00001000
00000000
01200000
00000000
,  // measure 77
10000000
00000000
01300000
00000000
10000000
01000000
10000000
00000000
,  // measure 78
11000000
00000000
00100000
00001000
00010000
00000000
00011000
00000000
,  // measure 79
00010000
00000010
00000100
00000010
00001000
00000100
00001000
00000100
,  // measure 80
00002000
00000000
00000000
00000000
00000010
00000000
00003001
00000010
,  // measure 81
00000100
00000010
00000001
00000010
00000100
00000010
00000001
00000010
,  // measure 82
00000100
00010000
00001000
00010000
00000100
00010000
00001000
00010000
,  // measure 83
00001000
01000000
00100000
01000000
00001000
01000000
00100000
01000000
,  // measure 84
00010000
00100000
10000000
00100000
00010000
00100000
01000000
10000000
,  // measure 85
00100000
01000000
00100000
01000000
00010000
01000000
00010000
01000000
,  // measure 86
00010000
00100000
01000000
10000000
00010000
01000000
00100000
01000000
,  // measure 87
00010000
01010000
00110000
00011000
,  // measure 88
00010000
00000010
00010000
00000010
00000100
00000010
00001000
00000000
,  // measure 89
00000001
00000010
00000001
00000010
00000100
00000010
00000001
00000000
,  // measure 90
00001000
00000100
00000000
00000001
00000100
00000000
00001000
00000010
,  // measure 91
00000000
00000001
00000010
00000000
00001000
00000100
00001000
00000000
,  // measure 92
00000100
00010000
00000100
00010000
00001000
00010000
00001000
00010000
,  // measure 93
00001000
00100000
00001000
00100000
00010000
01000000
00010000
01000000
,  // measure 94
00100000
10000000
00100000
10000000
00010000
10000000
00010000
10000000
,  // measure 95
00010000
00100000
01000000
10000000
00010000
00100000
01000000
10000000
,  // measure 96
00010000
01000000
00000000
10000000
01000000
00000000
00010000
00100000
,  // measure 97
00000000
10000000
00100000
00000000
00010000
01000000
00001000
00010000
,  // measure 98
00001000
00000010
00000000
00000001
00000010
00000000
00001000
00000100
,  // measure 99
00000000
00000001
00000100
00000000
00010000
00000100
00010000
00001000
,  // measure 100
00010000
00100000
00000000
10000000
00100000
00000000
00010000
01000000
,  // measure 101
00000000
10000000
01000000
00000000
00001000
00100000
00001000
00010000
,  // measure 102
00001000
00000010
00000000
00000001
00000010
00000000
00001000
00000100
,  // measure 103
00000000
00000001
00000100
00000000
00001000
00000001
00000100
00000001
,  // measure 104
00001000
00000010
00000000
00000010
00000100
00000000
00000100
00000001
,  // measure 105
00000000
00000001
00000010
00000000
00000100
00010000
00001000
00010000
,  // measure 106
00001000
00100000
00000000
00100000
01000000
00000000
01000000
10000000
,  // measure 107
00000000
10000000
00010000
00000000
01000000
00010000
01000000
00010000
,  // measure 108
10000000
00000000
01000000
00000000
10000000
00000000
01000000
00000000
00000000
00100000
00000000
00000000
00001000
00000000
00000000
00010000
00000000
00000000
00001000
00000000
00000000
00010000
00000000
00000000
,  // measure 109
00000010
00000000
00000100
00000000
00000010
00000000
00000100
00000000
00000000
00000010
00000000
00000000
00001000
00000000
00000000
00000001
00000000
00000000
00000100
00000000
00000000
00000001
00000000
00000000
,  // measure 110
00001000
00000000
00000100
00000000
00001000
00000000
00000100
00000000
00000000
00010000
00000000
00000000
00001000
00000000
00000000
00100000
00000000
00000000
00010000
00000000
00000000
01000000
00000000
00000000
,  // measure 111
00100000
00000000
01000000
00000000
00100000
00000000
01000000
00000000
00000000
00100000
00000000
00000000
10000000
00000000
00000000
00010000
00000000
00000000
01000000
00000000
00000000
00020000
00000000
00000000
,  // measure 112
00000000
00030000
00000000
00000000
10010000
00000000
00000000
00000000
00000000
00000000
00000000
00000000
00100000
00000000
00000000
00000000
00000000
00000000
00000000
00000000
01000000
00000000
00000000
00000000
00000000
00000000
00000000
00000000
10000000
00000000
00000000
00000000
00000000
00000000
00000000
00000000
01000000
00000000
00000000
00000000
00100000
00000000
00000000
00000000
00000000
00000000
00000000
00000000
00000000
00000000
00000000
00000000
00000000
00000000
00000000
00000000
00101000
00000000
00000000
00000000
00000000
00000000
00000000
00000000
,  // measure 113
00001000
00010000
00000000
00010000
00000010
00000000
00000010
00000100
00000000
00000100
00000001
00000000
00002000
00000000
00000000
00000000
,  // measure 114
00003001
00000010
00000000
00000010
00000100
00000000
00000100
00010000
00000000
00010000
00001000
00000000
02000000
00000000
00000000
00000000
,  // measure 115
03100000
10000000
00100000
00010000
00100000
01000000
00001000
00100000
00001000
00020000
00000000
00000000
,  // measure 116
00030010
00001000
00000010
00001000
00000100
00000000
00000010
00000001
,  // measure 117
00001000
00000001
00000000
00000001
00000010
00000000
00000001
00000100
,  // measure 118
00000001
00000010
00000001
00000010
00000001
00000000
00001000
00000010
,  // measure 119
00000100
00000010
00000000
00000010
00010000
00000000
00000010
00010000
,  // measure 120
00001000
00000100
00000000
00000001
00000100
00000000
00001000
00000010
,  // measure 121
00000000
00000001
00000010
00000000
00000110
00000000
00000000
00000000
,  // measure 122
00010000
01000000
00000000
10000000
01000000
00000000
00010000
00100000
,  // measure 123
00000000
10000000
00100000
00000000
10010000
00000000
00000000
00000000
,  // measure 124
10000000
01000000
10000000
01000000
00100000
01000000
00100000
01000000
,  // measure 125
00100000
00001000
00100000
00001000
00010000
00001000
00010000
00001000
,  // measure 126
00010000
00000010
00000100
00000010
00010000
00000010
00000100
00000010
,  // measure 127
00010000
00000100
00000001
00000100
00001000
00000100
00000001
00000100
,  // measure 128
00001000
00000010
00001000
00000010
00000100
00000010
00000100
00000010
,  // measure 129
00001000
00000001
00001000
00000001
00000010
00000100
00000010
00000100
,  // measure 130
00001000
01000000
10000000
01000000
00010000
01000000
10000000
01000000
,  // measure 131
00100000
01000000
00100000
01000000
00010000
01000000
00010000
01000000
,  // measure 132
00010000
00100000
01000000
10000000
00010000
00100000
01000000
10000000
,  // measure 133
00010000
01000000
00100000
10000000
00010000
01000000
00001000
00100000
,  // measure 134
00001000
00000010
00000001
00000010
00001000
00000010
00000001
00000010
,  // measure 135
00000100
00001000
00000100
00001000
00000001
00000100
00000001
00000100
,  // measure 136
00000001
00000010
00000100
00001000
00000001
00000010
00000100
00001000
,  // measure 137
00000001
00000100
00000010
00010000
00000100
00010000
00001000
00100000
,  // measure 138
00010000
01000000
10000000
01000000
00010000
01000000
10000000
01000000
,  // measure 139
00010000
00100000
00010000
00100000
01000000
10000000
01000000
10000000
,  // measure 140
00100000
11000000
10010000
11000000
,  // measure 141
11000000
00000000
10010000
00000000
10000000
00100000
01000000
00000000
,  // measure 142
02100000
00010000
00100000
13000000
,  // measure 143
01100000
01100000
01001000
01001000
,  // measure 144
00011000
00010100
00011000
00010100
,  // measure 145
00010100
00000000
00011000
00000000
00010000
00000010
00000100
00000000
,  // measure 146
00000210
00000001
00000010
00001300
,  // measure 147
00001010
00001010
00001001
00001001
,  // measure 148
00000011
00000000
00000001
00000010
00001000
00000010
00000001
00000000
,  // measure 149
00000120
00001000
00000100
00001030
,  // measure 150
00010100
00000000
00001000
00100000
10000000
00100000
00010000
00000000
,  // measure 151
21000000
00000000
00010000
00000000
30100000
01000000
00100000
01000000
,  // measure 152
00010000
00100000
01000000
10000000
00010000
00100000
01000000
10000000
,  // measure 153
00100000
01000000
00100000
01000000
00001000
01000000
00001000
01000000
,  // measure 154
00001000
00000000
00010000
00000000
00001000
00000000
00010000
00000000
00000000
00000010
00000000
00000000
00000100
00000000
00000010
00000000
00000100
00000000
00000010
00000000
00000000
00001000
00000000
00000000
,  // measure 155
00000001
00000000
00000010
00000000
00000100
00000000
00010000
00000000
00000000
00001000
00000000
00000000
00010000
00000000
00100000
00000000
01000000
00000000
10000000
00000000
00000000
00010000
00000000
00000000
,  // measure 156
10010000
00000000
00101000
00000000
00011000
00000000
00010100
00000000
00000010
00000100
00000010
00000100
00000001
00001000
00000001
00001000
,  // measure 157
00000001
00000000
00000000
00000010
00000000
00000000
00001000
00000000
00000000
00000010
00000000
00000000
00000100
00000000
00010000
00000000
00001000
00000000
00010000
00000000
00000000
00001000
00000000
00000000
00011000
00000000
00000000
00000000
00000000
00000000
00000000
00000000
00000000
00000000
00000000
00000000
00000000
00000000
00000000
00000000
00000000
00000000
00000000
00000000
00000000
00000000
00000000
00000000
;
