#TITLE:I Wish (Brutal Remix By Skazi);
#SUBTITLE:;
#ARTIST:Infected Mushroom;
#TITLETRANSLIT:;
#SUBTITLETRANSLIT:;
#ARTISTTRANSLIT:;
#GENRE:;
#CREDIT:;
#MENUCOLOR:;
#METERTYPE:DDR;
#BANNER:I Wish (Brutal Remix By Skazi).png;
#BACKGROUND:I Wish (Brutal Remix By Skazi)-bg.png;
#LYRICSPATH:;
#CDTITLE:./CDTITLES/NONE.PNG;
#MUSIC:I Wish (Brutal Remix By Skazi).ogg;
#OFFSET:0.000;
#SAMPLESTART:74.483;
#SAMPLELENGTH:15.000;
#SELECTABLE:YES;
#LISTSORT:;
#BPMS:0.000=145.000;
#STOPS:;
#BGCHANGES:;
#ATTACKS:;

//---------------dance-single - ----------------
#NOTES:
     dance-single:
     :
     Beginner:
     3:
     0.119,0.146,0.000,0.000,0.000:
0000
0000
0000
0000
,
0000
0000
0000
0000
,
0000
0000
0000
0000
,
0000
0000
0000
0000
,
0000
0000
0000
0000
,
1000
0000
0000
0000
,
1000
0000
0000
0000
,
0001
0000
0000
0000
,
0000
0000
0000
0000
,
0100
0000
0100
0000
,
0100
0000
0000
0000
,
0010
0000
0010
0000
,
0010
0000
0000
0000
,
1000
0000
1000
0000
,
1000
0000
0000
0000
,
0001
0000
0001
0000
,
0001
0000
0000
0000
,
1000
0000
0000
1000
,
1000
0000
0000
0000
,
0001
0000
0000
0001
,
0001
0000
0000
0000
,
0100
0000
0000
0100
,
0100
0000
0000
0000
,
0010
0000
0000
0010
,
0010
0000
0000
0000
,
1000
0000
1000
0000
,
1000
0000
0000
0000
,
0001
0000
0001
0000
,
0001
0000
0000
0000
,
0100
0000
0100
0000
,
0100
0000
0000
0000
,
0010
0000
0010
0000
,
0010
0000
0000
0000
,
1000
0000
0000
0000
,
0001
0000
0000
0000
,
1000
0000
0000
0000
,
0000
0000
0000
0000
,
0010
0000
0000
0010
,
0010
0000
0000
0100
,
0100
0000
0000
0000
,
0001
0000
0000
0000
,
1000
0000
0000
0001
,
0001
0000
0000
1000
,
1000
0000
0001
0000
,
1000
0000
1000
0000
,
0001
0000
0000
0000
,
0100
0000
0100
0000
,
0010
0000
0010
0000
,
1000
0000
1000
0000
,
0001
0000
0001
0000
,
1000
0000
1000
0000
,
0001
0000
0001
0000
,
0100
0000
0100
0000
,
0010
0000
0000
0000
,
1000
0000
1000
0000
,
0100
0000
0100
0000
,
0010
0000
0010
0000
,
0001
0000
0001
0000
,
0010
0000
0010
0000
,
0100
0000
0100
0000
,
1000
0000
0001
0000
,
1000
0000
0000
0000
,
0000
0010
0000
0010
,
0010
0000
0000
0000
,
0000
0100
0000
0100
,
0100
0000
0000
0000
,
0000
0001
0000
0001
,
0001
0000
0000
0000
,
0000
1000
0000
1000
,
1000
0000
0000
0000
,
0001
0000
0000
0000
;

//---------------dance-single - ----------------
#NOTES:
     dance-single:
     :
     Easy:
     7:
     0.326,0.386,0.201,0.243,0.004:
0000
0000
0000
0000
,
0000
0000
0000
0000
,
0000
0000
0000
0000
,
0000
0000
0000
0000
,
0000
0000
0000
0000
,
0020
0000
0030
0000
,
0200
0000
0300
0000
,
0002
0000
0003
0000
,
0000
0000
0000
0000
,
1000
1000
0100
1000
,
0001
0001
0100
0001
,
1000
1000
0010
1000
,
0001
0001
0010
0001
,
1000
0100
0010
0100
,
1000
0100
0010
0001
,
0100
0001
1000
0010
,
0200
0000
0000
0310
,
1000
1000
0001
0010
,
0001
0001
1000
0010
,
1000
1000
0001
0100
,
0001
0001
1000
0100
,
0010
0010
0100
1000
,
0010
0010
0100
0001
,
0100
0100
0010
1000
,
0002
0010
0103
0000
,
1000
0100
0001
0100
,
1000
0100
0010
0001
,
1000
0010
0001
0010
,
1000
0100
0110
0001
,
0001
0100
0010
1000
,
0001
0100
1000
0100
,
0001
0100
0010
1000
,
0001
0010
1000
0010
,
0002
0000
0003
0000
,
2000
0000
3000
0010
,
0200
0000
0020
0000
,
0000
0000
0000
0330
,
2002
0000
3003
0110
,
2002
0000
3003
1100
,
0202
0000
0000
0303
,
2020
0000
0000
0000
3030
0000
0000
0001
,
0002
0000
0003
1001
,
2200
0000
3300
0011
,
0001
0001
0001
0000
1000
1000
1000
0000
,
0010
0000
0000
0010
0000
0000
0010
0000
0010
0000
0000
0000
0010
0000
0000
0000
,
2002
0000
0000
3003
,
1000
0100
0010
0011
,
0001
0100
0010
0100
,
0001
0010
0100
1100
,
1000
0100
0101
0100
,
1100
0010
0100
0101
,
0001
0010
0100
0110
,
0010
0001
1000
0010
,
1001
0010
0220
0330
,
0101
0001
0010
0001
,
1000
0100
1000
0001
,
0100
0010
1000
0001
,
0010
0100
1100
0010
,
1001
0010
0100
0001
,
1000
0100
0010
0001
,
2000
3100
0002
0103
,
0010
0010
0010
0000
0010
0010
0010
0000
,
1000
0001
1000
0001
,
0100
0010
0100
0010
,
1000
0100
1000
0100
,
0010
0001
1001
0010
,
0100
0001
1000
0100
,
1000
0010
0100
0001
,
1000
0010
0001
0010
,
2000
0000
0000
3100
,
0220
0000
0000
0000
,
0330
0000
0000
0000
;

//---------------dance-single - ----------------
#NOTES:
     dance-single:
     :
     Medium:
     10:
     0.452,0.475,0.226,0.184,0.088:
0000
0000
0000
0000
,
0000
0000
0000
0000
,
0000
0000
0000
0000
,
0000
0000
0000
0000
,
0000
0000
0000
0000
,
0002
0000
0000
1003
0000
0000
0000
0000
,
0020
0000
0000
0130
0000
0000
0001
0000
,
2000
0000
0000
3100
0000
0000
0000
0000
,
0000
0000
0000
0000
,
1000
0100
0010
0001
,
1000
0000
0100
0000
0001
0100
0010
0001
,
1000
0100
0010
0002
,
1003
0000
0010
0000
0001
0010
0100
0001
,
1000
0001
0010
0100
,
1000
0000
0100
1000
0000
0001
1000
0001
,
0100
0000
0010
0000
1000
0010
0200
0000
,
0301
0000
0010
0000
0100
0010
0001
0010
,
1000
0000
0010
0100
1000
0000
0010
0100
,
1000
0000
0010
0100
1000
0001
0100
0010
,
0001
0000
0100
0010
0001
0000
0100
0010
,
0001
0000
0100
0010
0001
0100
0010
1000
,
0001
0000
1000
0001
0100
0000
1000
0001
,
0100
0000
1000
0001
0100
1000
0001
0010
,
0001
0000
1000
0001
0010
0000
1000
0001
,
0020
0000
0130
0000
0001
1000
0001
0100
,
0001
0000
0011
0001
0100
0000
0001
0000
,
1010
0000
1000
0100
1000
0000
0001
0000
,
1001
0000
0010
0100
0001
0000
0100
0000
,
0110
0000
0010
1000
1100
0000
0101
0000
,
1001
0000
0000
0000
0010
0000
1000
0000
0001
0000
0000
0100
0000
0000
0001
0000
,
1000
0000
0000
0000
0001
0000
0010
0000
0100
0000
0000
0010
0000
0000
0001
0000
,
1000
0000
0000
0000
0100
0000
1000
0000
0010
0000
0000
0100
0000
0000
0010
0000
,
1000
0000
1010
0000
0010
0010
0010
0000
,
0210
0000
0000
0301
0000
0000
0000
0000
,
2000
0000
0000
3100
0000
0000
0010
0000
,
0002
0000
0000
2000
0000
0000
0000
0000
,
0000
0000
0000
3003
,
0120
0000
0000
1030
0000
0000
0110
0000
,
1002
0000
0000
0013
0000
0000
1001
0000
,
2100
0000
0000
3010
0000
0000
0000
0000
,
0210
0000
0000
0301
0000
0000
0000
1000
,
2010
0000
0000
3001
0010
0000
0011
0000
,
1002
0000
0000
0103
0010
0000
0110
0000
,
1000
1000
0100
0100
0010
0001
1000
0010
,
0100
0000
0000
0100
0000
0000
0100
0000
0100
0000
0100
0000
0100
0000
0100
0000
,
0002
0000
0000
0000
1003
0001
0100
0000
,
0001
0000
0101
0000
0001
0100
0010
0000
,
1000
0000
0100
0000
1000
0001
0010
0000
,
0001
0000
1000
0000
0001
1000
0100
0000
,
0010
0000
0100
0000
0110
0001
1000
0000
,
1010
0000
0100
0000
1000
0010
0100
0000
,
0001
0000
0010
0000
0001
1000
0100
0000
,
0010
0100
1000
0000
0010
0100
0001
0000
,
2001
3010
1002
0103
,
0100
0010
1000
0010
0100
0010
1000
0000
,
0001
0010
0100
0010
0001
0010
0100
0000
,
0010
0001
1000
0001
0010
0001
1000
0000
,
0001
1000
0100
1000
1001
0000
0010
0000
,
1000
0100
0010
0100
1000
0010
0001
0000
,
0010
0100
0001
0010
1000
0010
0100
0000
,
0010
0001
1000
0001
0100
0010
1000
0000
,
0010
0100
0100
0100
0100
0000
0001
0000
,
1000
0000
0000
1000
0100
0000
0000
0100
0010
0000
0000
0010
0001
0000
0000
0000
,
0001
0000
0000
0001
0100
0000
0000
0100
0010
0000
0000
0010
1000
0000
0000
0000
,
1000
0000
0000
1000
0010
0000
0000
0010
0100
0000
0000
0100
1000
0000
0000
0000
,
0001
0000
0000
0001
0100
0000
0000
0100
0010
0000
0000
0000
0011
0000
0000
0000
,
1000
0000
0000
0010
1000
0000
0000
0001
0100
0000
0000
0000
0001
0000
0000
0000
,
0001
0000
0000
0010
0001
0000
0000
1000
0100
0000
0000
0000
1000
0000
0000
0000
,
0010
0000
0000
0100
0001
0000
0000
0010
0100
0000
0000
0000
1000
0000
0000
0000
,
0002
0000
0000
1003
,
0220
0000
0000
0000
,
0330
0000
0000
0000
;

//---------------dance-single - ----------------
#NOTES:
     dance-single:
     :
     Hard:
     14:
     0.656,0.712,0.259,0.217,0.481: // measure 1
0000
0000
0000
0000
,  // measure 2
0000
0000
0000
0000
,  // measure 3
0000
0000
0000
0000
,  // measure 4
0000
0000
0000
0000
,  // measure 5
0000
0000
0000
0000
,  // measure 6
0002
0000
0000
0103
0000
0000
0000
0000
,  // measure 7
2000
0000
0000
3100
0000
0000
1000
0000
,  // measure 8
0002
0000
0000
0013
0000
0000
0000
0000
,  // measure 9
0000
0000
0000
0000
,  // measure 10
0010
1000
0100
1000
0010
0100
0001
1000
,  // measure 11
0001
0010
0100
0010
0001
1000
0010
0010
,  // measure 12
1000
0100
1000
0010
0100
0001
0020
0000
,  // measure 13
0031
0010
0100
1000
0001
0100
0010
0010
,  // measure 14
1000
0010
0100
0001
1000
0100
0001
0100
,  // measure 15
1000
0000
0010
0000
0100
0000
0010
1000
0000
0001
1000
0000
0001
0000
0010
0000
,  // measure 16
0001
0100
0010
1000
0001
0100
0020
0000
,  // measure 17
1030
0100
0010
0001
2000
0000
3020
0000
,  // measure 18
1030
0000
0010
0000
1000
0100
0000
0000
1000
0000
0010
0000
1000
0001
0000
0000
,  // measure 19
0010
0000
0100
0000
0010
0001
0000
0000
0010
0000
0100
0000
0010
0001
0000
0000
,  // measure 20
0100
0000
0001
0000
1000
0010
0000
0000
0100
0000
0010
0000
1000
0100
0000
0000
,  // measure 21
1000
0000
0010
0000
0100
0001
0000
1000
0001
0000
0010
0000
0001
0100
0000
0001
,  // measure 22
1000
0000
0010
0000
0100
0010
0000
0000
1000
0000
0010
0000
0100
0010
0000
0000
,  // measure 23
1000
0000
0100
0000
0010
0100
0000
1000
0001
0000
0100
0000
0010
0100
0000
0001
,  // measure 24
1000
0001
0100
1000
0100
0001
0010
1000
,  // measure 25
0020
0000
0000
0000
0032
0000
0000
0000
1003
0000
0100
0000
1000
0001
1000
0000
,  // measure 26
0001
0000
0100
0000
0010
1000
0000
0000
0100
0000
1000
0000
0010
0100
0000
0000
,  // measure 27
0010
0000
1000
0001
0000
0010
0001
0000
1000
0000
0100
0000
0010
0100
0000
1000
,  // measure 28
0100
0000
1000
0001
0000
0010
0001
0000
0100
0000
0010
0000
1000
0010
0000
0100
,  // measure 29
0001
0000
1000
0100
0000
0010
0100
0000
1100
0000
0010
0000
1001
0000
0000
0000
,  // measure 30
0101
0000
0001
0100
0000
0001
0010
0000
0001
0000
0100
0010
0000
1000
0001
0000
,  // measure 31
1000
0000
0100
0010
0000
0100
1000
0000
0010
0000
0100
0001
0000
1000
0001
0000
,  // measure 32
0010
0000
0001
0100
0000
0010
1000
0000
0001
0000
1000
0100
0000
0010
0001
0000
,  // measure 33
1000
0000
0100
0000
1100
0000
0000
0000
1000
0001
1000
0000
1001
0000
0000
0000
,  // measure 34
0201
0000
0000
0310
0000
0000
0000
0000
,  // measure 35
2000
0000
0000
3100
0000
0000
0010
0000
,  // measure 36
0002
0000
0000
2000
0000
0000
0000
0000
,  // measure 37
0000
0000
0000
3003
,  // measure 38
0120
0000
1030
0100
0010
0000
0011
0000
,  // measure 39
2001
0000
3001
0100
0010
0000
1010
0000
,  // measure 40
0210
0000
0301
1000
0100
0000
1000
0000
,  // measure 41
2100
0000
3001
0100
0010
0000
0100
0001
,  // measure 42
0102
0000
0013
0001
1000
0000
1001
0000
,  // measure 43
0120
0000
1030
0010
0100
0000
2010
0000
,  // measure 44
3001
0001
0010
0010
0100
0100
1000
1000
,  // measure 45
0001
0100
0000
1000
0100
0000
0001
0000
1000
0100
1000
0100
0010
0001
1000
0001
,  // measure 46
0200
0000
0000
0000
0310
0100
0001
0000
,  // measure 47
1000
0000
0010
0100
0000
0010
1000
0000
0001
0000
1000
0000
0001
0100
0001
0000
,  // measure 48
0010
0000
0001
0010
0000
0001
1000
0000
0001
0000
0100
0000
0010
0000
0100
0000
,  // measure 49
0010
0000
1000
0100
0000
0010
0001
0000
1000
0000
0010
0000
1000
0001
1000
0000
,  // measure 50
0100
0000
0010
0100
0000
1000
0100
0000
0110
0000
0001
0000
1000
0000
0000
0000
,  // measure 51
1010
0000
0001
0100
0000
0001
0010
0000
0001
0000
1000
0000
0010
1000
0010
0000
,  // measure 52
0100
0000
0010
0100
0000
0001
0100
0000
0010
0000
1000
0000
0100
1000
0100
0000
,  // measure 53
1000
0000
0100
0010
0000
0100
1000
0000
0010
0000
0100
0000
0001
1000
0001
0000
,  // measure 54
0210
0301
2100
3001
,  // measure 55
0110
0000
0010
1000
0000
0010
0001
0000
0010
0000
0100
0000
0001
0010
0001
0000
,  // measure 56
1000
0000
0100
0001
0000
0100
1000
0000
0010
0000
0100
0000
0010
1000
0000
1000
,  // measure 57
0010
0000
1000
0100
0000
0001
0100
0000
1000
0000
0001
0000
0100
0001
0100
0000
,  // measure 58
0001
0000
0010
0001
0000
0100
0001
0000
1001
0000
0010
0000
0100
0000
0000
0000
,  // measure 59
1010
0000
0001
0010
0000
0010
0100
0000
1000
0000
0010
0000
0100
0001
1000
0000
,  // measure 60
0001
0000
1000
0100
0000
0100
0010
0000
0100
0000
1000
0000
0001
1000
0010
0000
,  // measure 61
0100
0000
0010
0100
0000
0100
0001
0000
0100
0000
0010
0000
1000
0100
0010
0000
,  // measure 62
0110
1000
0001
0001
0110
0001
1001
0000
,  // measure 63
0110
0000
1000
0100
0000
0100
0010
0000
0100
0000
1000
0000
0001
0000
0100
0000
,  // measure 64
0010
0000
0100
0001
0000
0001
1000
0000
0001
0000
0010
0000
0100
1000
0000
1000
,  // measure 65
0001
0000
0010
0001
0000
0001
0100
0000
0010
0000
1000
0000
0100
0000
0001
0000
,  // measure 66
0100
0000
1000
0010
0000
0010
0100
0000
0110
0000
0001
0000
1001
0000
0010
0000
,  // measure 67
1010
0000
1000
0100
0000
0100
1000
0001
1000
0000
0001
0100
0001
0000
1000
0000
,  // measure 68
0001
0000
0010
0001
0000
0001
0100
0001
0010
0000
0001
0000
1000
0001
0000
0001
,  // measure 69
1000
0000
0100
1000
0000
1000
0100
1000
0001
0000
0100
0000
0010
0100
0000
0100
,  // measure 70
0002
0000
0000
0000
0000
0000
0000
0000
0000
0000
0000
0000
1003
0100
0010
0000
,  // measure 71
2002
0000
0000
0000
,  // measure 72
3003
0000
0000
0000
;

//---------------dance-single - ----------------
#NOTES:
     dance-single:
     :
     Challenge:
     17:
     0.927,0.920,0.443,0.167,1.000: // measure 1
0000
0000
0000
0000
,  // measure 2
0000
0000
0000
0000
,  // measure 3
0000
0000
0000
0000
,  // measure 4
0000
0000
0000
0000
,  // measure 5
0000
0000
0000
0000
,  // measure 6
2020
0000
3030
1010
0000
0000
0000
0000
,  // measure 7
0022
0000
0033
0011
0000
0000
1000
0010
,  // measure 8
0220
0000
0330
2020
0000
0000
0000
0000
,  // measure 9
0000
0000
0000
0000
0030
3010
0100
0001
,  // measure 10
1000
0000
0100
1000
0100
0000
1000
0001
0000
0100
0001
0000
1000
0001
0100
0001
,  // measure 11
1000
0000
0001
0010
0001
0000
1000
0001
0000
0100
0001
0000
1000
0010
0100
0010
,  // measure 12
1000
0000
0001
0010
0001
0000
1000
0100
0000
0010
0100
0000
1000
0100
0010
0100
,  // measure 13
1000
0000
0010
1000
0010
0000
0100
0001
0000
1000
0001
0000
0010
0001
0100
0010
,  // measure 14
0100
0000
0001
0010
0001
0000
0100
0001
0000
0010
0001
0000
1000
0001
1000
0010
,  // measure 15
0100
0000
0010
1000
0001
1000
0001
1000
0000
0001
0010
0000
0001
0100
0010
1000
,  // measure 16
0001
0000
0010
0001
0010
0000
0001
0100
0000
0001
1000
0000
0001
0010
0100
0010
,  // measure 17
0001
0000
0100
0010
1000
0000
0010
0000
0200
0000
0000
0000
0301
0000
1000
0000
,  // measure 18
0001
0010
0001
1000
0001
0100
0001
0000
1000
0010
1000
0001
1000
0100
1000
0000
,  // measure 19
0010
0100
0010
1000
0001
1000
0001
0000
0010
0100
0010
0001
1000
0001
1000
0010
,  // measure 20
0100
0010
0100
0001
0100
0010
1000
0000
0010
0100
0010
1000
0001
0010
0001
0000
,  // measure 21
1000
0100
0010
0100
1000
0001
0100
0001
0000
0001
0100
0000
0001
1000
0010
1000
,  // measure 22
0001
0010
0100
0010
0001
1000
0100
0000
1000
0010
0100
0010
1000
0001
0100
0000
,  // measure 23
0010
1000
0100
1000
0010
0100
0001
0000
0010
0001
0100
0001
0010
0100
1000
0000
,  // measure 24
0010
0100
0001
0100
0001
0010
0001
1000
0010
0100
0001
0100
0001
0010
0100
1000
,  // measure 25
0010
0000
1000
0000
0001
1000
0100
1000
0001
0000
0001
0000
1000
0001
1000
0001
,  // measure 26
1000
0000
0010
0100
0000
0100
0001
0000
1000
0100
0010
0100
1000
0001
1000
0000
,  // measure 27
0001
0000
0010
0100
0000
0100
1000
0000
0001
0100
0010
0100
0001
1000
0001
0000
,  // measure 28
0010
0000
0001
1000
0000
1000
0010
0000
1000
0001
0100
0001
1000
0100
1000
0000
,  // measure 29
0001
0000
0100
0001
0000
0001
0010
0000
0110
0000
0001
0000
1100
0000
0001
0000
,  // measure 30
0110
0000
0010
1000
0000
1000
0001
0000
1000
0010
0100
0010
1000
0001
1000
0000
,  // measure 31
0001
0000
0010
0001
0000
0001
1000
0000
0001
0100
0010
0100
0001
1000
0001
0000
,  // measure 32
0100
0000
0001
1000
0000
1000
0010
0000
1000
0100
0010
0001
1000
0100
1000
0000
,  // measure 33
1010
0000
1010
0000
1010
0000
0001
0000
1000
0001
0100
0000
1001
0000
0010
0000
,  // measure 34
0220
0000
0330
0101
0000
0000
0000
0000
,  // measure 35
0220
0000
0000
0000
0330
0000
1010
0000
0000
0000
0000
0000
0001
0000
0010
0001
,  // measure 36
0200
0000
0300
0110
2000
0000
0000
0000
,  // measure 37
0000
0000
0000
3000
,  // measure 38
1001
0000
0001
0100
0010
1000
0000
1000
0001
0010
0100
1000
0001
0000
1000
0000
,  // measure 39
1001
0000
1000
0010
0100
0001
0000
0001
1000
0010
0100
0010
1000
0100
0010
0000
,  // measure 40
0110
0000
0100
1000
0001
0010
0000
0010
0001
0100
0010
1000
0001
0100
0001
0000
,  // measure 41
0101
0000
1000
0010
0100
0001
0000
0001
1000
0100
0010
0100
1000
0000
1010
0000
,  // measure 42
0110
0000
1000
0001
0010
0001
0000
0001
0100
0010
1000
0010
0110
0000
1000
0000
,  // measure 43
1100
0000
0001
0010
0100
1000
0000
1000
0010
1000
0001
0100
0101
0000
0010
0000
,  // measure 44
0101
0101
0101
0101
1100
1100
1100
1100
,  // measure 45
0010
0010
0000
0100
0100
0000
0001
0000
1000
0100
0001
0010
1000
0100
0001
0010
,  // measure 46
0200
0000
0000
0000
0310
0001
1000
0001
,  // measure 47
0100
0000
0001
1000
0100
0000
1000
0001
0100
0000
0001
0010
0100
1000
0100
0010
,  // measure 48
0001
0000
1000
0010
0100
0000
0001
0010
0100
0000
0010
0001
1000
0010
0100
0001
,  // measure 49
1000
0000
0010
1000
0100
0000
0010
0001
0100
0000
0010
1000
0001
0100
0010
1000
,  // measure 50
0010
0000
0100
0001
1000
0000
0001
1000
1010
0000
0100
0000
1010
0000
1000
0000
,  // measure 51
1001
0000
0010
0001
0100
0000
0010
1000
0100
0000
0010
0001
0100
0010
0100
0001
,  // measure 52
1000
0000
0010
1000
0001
0000
0010
0001
0100
0000
0010
1000
0010
0100
0001
1000
,  // measure 53
0001
0000
0010
0001
0100
0000
0010
1000
0100
0000
0010
0100
1000
0100
0010
0001
,  // measure 54
2001
0000
3010
0000
0110
0001
0100
1000
,  // measure 55
0011
0000
1000
0100
0010
0000
0001
0010
0100
0000
1000
0100
0010
0001
0100
0010
,  // measure 56
1000
0000
0010
0100
0001
0000
0100
0010
1000
0000
0010
0100
0001
1000
0001
0010
,  // measure 57
0100
0000
0010
0001
1000
0000
0010
1000
0001
0000
0100
0001
1000
0010
0100
0010
,  // measure 58
1000
0000
0001
0100
0010
0000
1000
0100
0110
0000
0100
0000
1100
0000
0000
0000
,  // measure 59
0011
0000
1000
0001
0010
0000
0001
1000
0010
0000
1000
0010
0100
0001
0010
0001
,  // measure 60
1000
0000
0001
1000
0010
1000
0001
0000
1000
0000
0001
1000
0100
1000
0001
0000
,  // measure 61
1000
0000
0100
0010
0001
0000
0100
0010
1000
0000
0010
0100
0001
1000
0001
0010
,  // measure 62
0110
0010
0011
0001
1001
1000
1010
0100
,  // measure 63
1010
0000
1000
0100
0001
0000
0001
0100
1000
0000
1000
0100
0001
0100
0010
0001
,  // measure 64
1000
0000
0001
0010
1000
0000
1000
0010
0001
0000
0001
0010
1000
0010
0100
0010
,  // measure 65
0001
0000
0100
0001
0010
0000
0100
1000
0010
0000
0100
0001
0010
0100
0010
1000
,  // measure 66
0010
0000
0001
0100
0010
0000
1000
0010
0110
0000
0010
0000
1010
0000
1000
0000
,  // measure 67
1001
0000
1000
0100
0001
0000
1000
0100
0010
0000
1000
0100
0001
0100
0010
0001
,  // measure 68
1000
0000
0001
0100
1000
0000
0001
0100
0010
0000
0001
0100
1000
0100
0010
1000
,  // measure 69
0001
0000
1000
0010
1000
0000
0001
0010
0001
0000
1000
0100
1000
0000
0001
0010
,  // measure 70
0200
0000
1000
0000
1000
0000
0000
1300
0010
0000
1000
0000
0001
0100
1000
0010
,  // measure 71
0220
0000
0000
0000
,  // measure 72
0330
0000
0000
0000
;
