#TITLE:El Sonidito (El Ruidito);
#SUBTITLE:;
#ARTIST:Hechizeros Band;
#TITLETRANSLIT:;
#SUBTITLETRANSLIT:;
#ARTISTTRANSLIT:;
#GENRE:;
#CREDIT:;
#MENUCOLOR:;
#METERTYPE:DDR;
#BANNER:El Sonidito (El Ruidito).png;
#BACKGROUND:El Sonidito (El Ruidito)-bg.png;
#LYRICSPATH:;
#CDTITLE:./CDTITLES/NONE.PNG;
#MUSIC:El Sonidito (El Ruidito).ogg;
#OFFSET:0.000;
#SAMPLESTART:10.909;
#SAMPLELENGTH:15.000;
#SELECTABLE:YES;
#LISTSORT:;
#BPMS:0.000=154.000;
#STOPS:;
#BGCHANGES:0.000=El Sonidito (El Ruidito).avi=1.000=0=0=0,
99999=-nosongbg-=1.000=0=0=0 // don't automatically add -songbackground-
;
#ATTACKS:;

//---------------dance-single - ----------------
#NOTES:
     dance-single:
     :
     Beginner:
     3:
     0.103,0.143,0.009,0.000,0.000: // measure 1
0000
0000
0000
0000
,  // measure 2
0000
0000
0000
0000
,  // measure 3
0000
0000
0000
0000
,  // measure 4
0000
0000
0000
0000
,  // measure 5
0000
0000
0000
0000
,  // measure 6
0000
0000
0000
0000
,  // measure 7
0000
0000
0000
0000
,  // measure 8
0010
0000
0000
0000
,  // measure 9
1000
0000
1000
0000
,  // measure 10
1000
0000
1000
0000
,  // measure 11
0001
0000
0001
0000
,  // measure 12
0001
0000
0001
0000
,  // measure 13
0100
0000
0100
0000
,  // measure 14
0100
0000
0100
0000
,  // measure 15
0010
0000
0010
0000
,  // measure 16
0010
0000
0010
0000
,  // measure 17
1000
0000
0000
0000
,  // measure 18
0001
0000
0000
0000
,  // measure 19
0100
0000
0000
0000
,  // measure 20
0010
0000
0000
0000
,  // measure 21
1000
0000
0000
0000
,  // measure 22
0100
0000
0000
0000
,  // measure 23
0010
0000
0000
0000
,  // measure 24
0001
0000
0000
0000
,  // measure 25
0010
0000
0000
0000
,  // measure 26
0100
0000
0000
0000
,  // measure 27
1000
0000
0000
0000
,  // measure 28
0001
0000
0001
0000
,  // measure 29
0001
0000
0001
0000
,  // measure 30
1000
0000
1000
0000
,  // measure 31
1000
0000
1000
0000
,  // measure 32
0010
0000
0010
0000
,  // measure 33
0010
0000
0010
0000
,  // measure 34
0100
0000
0100
0000
,  // measure 35
0100
0000
0100
0000
,  // measure 36
0010
0000
0000
0000
,  // measure 37
1000
0000
0000
0000
,  // measure 38
0001
0000
0000
0000
,  // measure 39
1000
0000
0000
0000
,  // measure 40
0100
0000
0000
0000
,  // measure 41
0010
0000
0000
0000
,  // measure 42
0001
0000
0000
0000
,  // measure 43
0010
0000
0000
0000
,  // measure 44
0100
0000
0100
0000
,  // measure 45
0100
0000
0000
0000
,  // measure 46
0010
0000
0010
0000
,  // measure 47
0010
0000
0000
0000
,  // measure 48
0001
0000
0000
0000
,  // measure 49
1000
0000
0000
0000
,  // measure 50
0010
0000
0000
0000
,  // measure 51
0100
0000
0000
0000
,  // measure 52
0000
0000
0000
0000
,  // measure 53
0000
0000
0000
0000
,  // measure 54
0000
0000
0000
0000
,  // measure 55
0010
0000
0000
0000
,  // measure 56
1001
0000
1000
0000
,  // measure 57
1000
0000
0000
0000
,  // measure 58
0001
0000
0001
0000
,  // measure 59
0001
0000
0000
0000
,  // measure 60
0010
0000
0010
0000
,  // measure 61
0010
0000
0000
0000
,  // measure 62
0100
0000
0100
0000
,  // measure 63
0100
0000
0000
0000
,  // measure 64
1000
0000
1000
0000
,  // measure 65
0001
0000
0001
0000
,  // measure 66
0100
0000
0100
0000
,  // measure 67
0010
0000
0000
0000
;

//---------------dance-single - ----------------
#NOTES:
     dance-single:
     :
     Easy:
     6:
     0.288,0.434,0.104,0.130,0.000: // measure 1
0000
0000
0000
0000
,  // measure 2
0000
0000
0000
0000
,  // measure 3
0000
0000
0000
0000
,  // measure 4
0000
0000
0000
0000
,  // measure 5
0000
0000
0000
0000
,  // measure 6
0000
0000
0000
0000
,  // measure 7
0000
0000
0000
0000
,  // measure 8
0001
0001
0001
0001
,  // measure 9
1000
1000
1000
1000
,  // measure 10
0001
0001
0001
0001
,  // measure 11
0100
0100
0100
0100
,  // measure 12
0010
0010
0010
0010
,  // measure 13
1000
1000
1000
1000
,  // measure 14
0100
0100
0100
0100
,  // measure 15
0010
0010
0010
0010
,  // measure 16
0001
0001
0001
0001
,  // measure 17
1000
1000
0010
0010
,  // measure 18
0100
0100
0001
0001
,  // measure 19
0010
0010
0100
0100
,  // measure 20
1000
1000
0001
0001
,  // measure 21
0100
0100
0001
0001
,  // measure 22
1000
1000
0100
0100
,  // measure 23
0010
0010
0001
0001
,  // measure 24
2000
0000
0000
0000
,  // measure 25
3000
0000
0000
0000
,  // measure 26
0000
0000
0000
0000
,  // measure 27
0010
0010
0010
0010
,  // measure 28
0100
0100
0100
0001
,  // measure 29
1000
1000
1000
0100
,  // measure 30
0010
0010
0010
0001
,  // measure 31
1000
0010
0100
0001
,  // measure 32
1000
1000
1000
0001
,  // measure 33
0100
0100
0100
0010
,  // measure 34
1000
1000
1000
0100
,  // measure 35
0010
0001
1000
0010
,  // measure 36
0100
0000
0100
0100
,  // measure 37
0010
0000
0010
0010
,  // measure 38
1000
0000
1000
1000
,  // measure 39
0001
0010
0100
1000
,  // measure 40
0001
0001
0001
0001
,  // measure 41
0100
0100
0100
0100
,  // measure 42
0010
0010
0010
0010
,  // measure 43
1000
1000
1000
1000
,  // measure 44
0001
0001
0001
0001
,  // measure 45
0010
0010
0010
0010
,  // measure 46
0100
0100
0100
0100
,  // measure 47
1000
1000
1000
1000
,  // measure 48
0010
0010
0100
0100
,  // measure 49
0001
0001
1000
1000
,  // measure 50
0010
0010
0100
0100
,  // measure 51
0001
0100
1000
0100
,  // measure 52
0002
0000
0000
0000
,  // measure 53
0003
0000
0000
0000
,  // measure 54
0000
0000
0000
0000
,  // measure 55
1000
1000
1000
1000
,  // measure 56
0010
1010
2002
3003
,  // measure 57
0010
0011
2002
3003
,  // measure 58
0100
1100
2002
3003
,  // measure 59
1000
0100
0010
0001
,  // measure 60
0100
0101
2002
3003
,  // measure 61
0100
1100
2002
3003
,  // measure 62
0010
0011
2002
3003
,  // measure 63
0001
0010
0100
1000
,  // measure 64
0010
0010
0010
0010
,  // measure 65
0100
0100
0100
0100
,  // measure 66
0001
0001
0001
0001
,  // measure 67
2000
0000
0000
0000
,  // measure 68
3000
0000
0000
0000
;

//---------------dance-single - ----------------
#NOTES:
     dance-single:
     :
     Medium:
     8:
     0.417,0.492,0.104,0.233,0.000: // measure 1
0000
0000
0000
0000
,  // measure 2
0000
0000
0000
0000
,  // measure 3
0000
0000
0000
0000
,  // measure 4
0000
0000
0000
0000
,  // measure 5
0000
0000
0000
0000
,  // measure 6
0000
0000
0000
0000
,  // measure 7
0000
0000
0000
0000
,  // measure 8
0010
0010
0010
0010
,  // measure 9
1000
0001
1000
0000
0001
0100
0001
0000
,  // measure 10
1000
0001
1000
0000
0001
0010
0001
0000
,  // measure 11
0100
0001
0100
0000
0010
1000
0010
0000
,  // measure 12
0100
0001
0100
0000
0001
1000
0001
0000
,  // measure 13
0010
0001
0010
0000
0001
1000
0001
0000
,  // measure 14
0010
0001
0010
0000
0001
0100
0001
0000
,  // measure 15
1000
0010
1000
0000
0001
1000
0001
0000
,  // measure 16
1000
0100
1000
0000
0010
0100
0001
0000
,  // measure 17
1000
0010
1000
0000
1000
0001
1000
0000
,  // measure 18
1000
0100
1000
0000
1000
0001
1000
0000
,  // measure 19
0001
0010
0001
0000
0001
1000
0001
0000
,  // measure 20
0001
0100
0001
0000
0001
1000
0001
0000
,  // measure 21
0010
0100
0010
0000
0010
0001
0010
0000
,  // measure 22
0010
0100
0010
0000
0010
1000
0010
0000
,  // measure 23
0100
1000
0100
0000
0100
0010
0100
0000
,  // measure 24
0020
0000
0000
0000
,  // measure 25
0030
0000
0000
0000
,  // measure 26
0000
0000
0000
0000
,  // measure 27
0100
0100
0100
0100
,  // measure 28
2000
0000
3020
0000
0230
0000
0301
1000
,  // measure 29
0002
0000
0023
0000
0230
0000
1300
0001
,  // measure 30
2000
0000
3020
0000
0230
0000
0310
1000
,  // measure 31
0001
0010
0001
0000
1000
0100
1000
0000
,  // measure 32
0002
0000
0203
0000
0320
0000
1030
0001
,  // measure 33
2000
0000
3200
0000
0320
0000
0130
1000
,  // measure 34
0002
0000
0023
0000
0230
0000
0310
0001
,  // measure 35
1000
0010
1000
0000
0001
0100
0001
0000
,  // measure 36
1000
0100
1000
0000
0001
0001
0001
0000
,  // measure 37
0100
0001
0100
0000
0010
0010
0010
0000
,  // measure 38
1000
0001
1000
0000
0100
0100
0100
0000
,  // measure 39
0010
0100
0010
0000
0001
0001
0001
0000
,  // measure 40
1000
0010
1000
0000
0001
0001
0001
0000
,  // measure 41
0010
0001
0010
0000
0100
0100
0100
0000
,  // measure 42
0010
0001
1000
0000
0010
0010
0010
0000
,  // measure 43
0100
0001
0100
0000
0010
1000
0001
0000
,  // measure 44
1000
0001
1000
0000
1000
0100
1000
0000
,  // measure 45
1000
0001
1000
0000
1000
0010
1000
0000
,  // measure 46
0001
1000
0001
0000
0001
0100
0001
0000
,  // measure 47
0001
1000
0001
0000
0001
0010
0001
0000
,  // measure 48
0100
0010
0100
0000
0100
0001
0100
0000
,  // measure 49
0100
1000
0100
0000
0100
0010
0100
0000
,  // measure 50
0010
1000
0010
0000
0010
0100
0010
0000
,  // measure 51
0010
0001
0010
0000
0010
0100
0010
0000
,  // measure 52
2000
0000
0000
0000
,  // measure 53
3000
0000
0000
0000
,  // measure 54
0000
0000
0000
0000
,  // measure 55
0100
0100
0100
0100
,  // measure 56
1000
1100
0102
0013
,  // measure 57
0001
0101
2100
3010
,  // measure 58
0100
0110
1002
0013
,  // measure 59
1000
0100
1000
0000
0001
0100
0010
0100
,  // measure 60
0001
0101
0012
1003
,  // measure 61
0100
1100
2010
3001
,  // measure 62
0010
0011
1002
0103
,  // measure 63
1000
0010
0100
0000
0001
0010
0100
1000
,  // measure 64
0001
0001
0001
0000
0010
0001
1000
0000
,  // measure 65
0010
0010
0010
0000
1000
0001
0100
0000
,  // measure 66
0001
0001
0001
0000
1000
0001
0010
0000
,  // measure 67
0200
0000
0000
0000
,  // measure 68
0300
0000
0000
0000
;

//---------------dance-single - ----------------
#NOTES:
     dance-single:
     :
     Hard:
     11:
     0.504,0.550,0.121,0.130,0.086: // measure 1
0000
0000
0000
0000
,  // measure 2
0000
0000
0000
0000
,  // measure 3
0000
0000
0000
0000
,  // measure 4
0000
0000
0000
0000
,  // measure 5
0000
0000
0000
0000
,  // measure 6
0000
0000
0000
0000
,  // measure 7
0000
0000
0000
0000
,  // measure 8
0100
0100
0100
0100
,  // measure 9
1000
0010
1000
0100
1000
0010
1000
0000
,  // measure 10
0001
0010
0001
0100
0001
0010
0001
0000
,  // measure 11
1000
0100
1000
0001
0100
0001
1000
0000
,  // measure 12
0001
0010
0001
1000
0010
1000
0001
0000
,  // measure 13
1000
0100
0010
0100
1000
0100
0010
0000
,  // measure 14
0001
0100
0010
0100
0001
0100
0010
0000
,  // measure 15
1000
0010
0100
0010
1000
0010
0100
0000
,  // measure 16
0010
0000
1000
0000
0001
0000
0000
1000
0100
0000
0010
0000
0001
0000
0010
0000
,  // measure 17
0001
0100
0001
1000
0001
0010
0001
1000
,  // measure 18
0010
1000
0010
0100
0010
1000
0010
0100
,  // measure 19
0010
1000
0100
1000
0001
0010
0001
1000
,  // measure 20
0001
0010
1000
0010
0001
0010
1000
0010
,  // measure 21
0001
0100
1000
0100
0001
0100
1000
0100
,  // measure 22
0001
1000
0100
1000
0001
1000
0100
1000
,  // measure 23
0010
0100
0001
0100
0010
0100
0001
0100
,  // measure 24
0020
0000
0000
0000
,  // measure 25
0030
0000
0000
0000
,  // measure 26
0000
0000
0000
0000
,  // measure 27
0100
0100
0100
0100
,  // measure 28
2010
0000
0000
0000
3200
0000
0000
0000
1300
0000
0000
0001
0100
0000
0001
0000
,  // measure 29
0020
0000
0000
0000
0032
0000
0000
0000
1003
0000
0000
0010
1000
0000
0001
0000
,  // measure 30
2000
0000
0000
0000
3200
0000
0000
0000
0310
0000
0000
0001
0100
0000
0001
0000
,  // measure 31
1000
0000
0100
0000
0010
0000
0001
0000
1000
0000
0000
0001
0100
0000
0001
0000
,  // measure 32
2000
0000
0000
0000
3020
0000
0000
0000
0130
0000
0000
0010
1000
0000
0001
0000
,  // measure 33
0020
0000
0000
0000
0032
0000
0000
0000
1003
0000
0000
0001
0100
0000
0001
0000
,  // measure 34
2000
0000
0000
0000
3200
0000
0000
0000
0301
0000
0000
0100
1000
0000
0001
0000
,  // measure 35
1000
0010
0100
0001
1000
0100
0010
0001
,  // measure 36
1000
0100
1000
0010
1000
0100
1000
0000
,  // measure 37
0001
0100
0001
0010
0001
1000
0001
0000
,  // measure 38
1000
0010
0100
0010
1000
0010
1000
0000
,  // measure 39
0001
0010
0100
0010
0001
0010
0001
0000
,  // measure 40
1000
0100
1000
0001
0100
0001
1000
0000
,  // measure 41
0001
0100
0001
1000
0010
0100
0001
0000
,  // measure 42
1000
0010
1000
0100
0010
0001
1000
0000
,  // measure 43
0001
0000
0010
0000
0100
0000
0000
0010
0001
0000
1000
0000
0001
0000
0100
0000
,  // measure 44
0001
0010
0001
0100
0001
0010
0001
0100
,  // measure 45
0001
1000
0100
1000
0001
1000
0100
1000
,  // measure 46
0010
0100
0010
0001
0010
0100
0010
1000
,  // measure 47
0100
0010
0100
1000
0100
0010
0100
1000
,  // measure 48
0010
0100
0001
0100
0010
0100
0001
0100
,  // measure 49
0010
1000
0100
0001
0100
1000
0010
0001
,  // measure 50
0010
1000
0010
1000
0001
0100
0001
0100
,  // measure 51
0001
1000
0001
1000
0010
0100
0010
0100
,  // measure 52
0020
0000
0000
0000
,  // measure 53
0030
0000
0000
0000
,  // measure 54
0000
0000
0000
0000
,  // measure 55
0100
0100
0100
0100
,  // measure 56
1100
0000
0000
0000
0101
0000
0000
0000
1100
0000
0000
0100
0010
0000
0001
0000
,  // measure 57
1000
0000
0000
0000
1001
0000
0000
0000
0101
0000
0000
0001
0100
0000
0010
0000
,  // measure 58
1000
0000
0000
0000
1010
0000
0000
0000
0011
0000
0000
1000
0100
0000
1000
0000
,  // measure 59
0001
0000
0100
0000
0001
0010
0000
0000
0100
0000
1000
0000
0001
0000
0100
0000
,  // measure 60
0010
0000
0000
0000
0110
0000
0000
0000
0101
0000
0000
0010
1000
0000
0001
0000
,  // measure 61
0010
0000
0000
0000
0110
0000
0000
0000
1100
0000
0000
0010
0001
0000
1000
0000
,  // measure 62
0100
0000
0000
0000
1100
0000
0000
0000
0101
0000
0000
1000
0010
0000
0100
0000
,  // measure 63
0001
0000
1000
0000
0100
0010
0000
0100
1000
0000
0001
0000
0100
0010
0000
0100
,  // measure 64
0001
1000
0100
1000
0001
0001
0010
0010
,  // measure 65
0001
1000
0010
0100
0010
0010
1000
1000
,  // measure 66
0100
0010
0100
1000
0001
0001
0010
0010
,  // measure 67
0002
0000
0000
0000
,  // measure 68
0003
0000
0000
0000
;

//---------------dance-single - ----------------
#NOTES:
     dance-single:
     :
     Challenge:
     17:
     0.626,0.753,0.640,0.000,0.609: // measure 1
0000
0000
0000
0000
,  // measure 2
0000
0000
0000
0000
,  // measure 3
0000
0000
0000
0000
,  // measure 4
0000
0000
0000
0000
,  // measure 5
0000
0000
0000
0000
,  // measure 6
0000
0000
0000
0000
,  // measure 7
0000
0000
0000
0000
,  // measure 8
0010
1010
0101
1100
,  // measure 9
0010
0010
0010
1000
1000
1100
MMMM
0000
,  // measure 10
0010
0010
0010
0001
0001
0101
MMMM
0000
,  // measure 11
0100
0100
0100
1000
1000
1100
MMMM
0000
,  // measure 12
0100
0000
0100
0000
0100
0000
0001
0000
0001
0000
0101
0000
0001
1000
0000
0000
,  // measure 13
0010
0010
0010
1100
1001
0101
MMMM
0000
,  // measure 14
0010
0010
0010
0101
1001
1100
MMMM
0000
,  // measure 15
0100
0100
0100
1010
1001
0011
MMMM
0000
,  // measure 16
0100
0010
0100
0000
0010
0000
1000
0001
0000
0010
0001
0000
1000
0100
0000
1000
,  // measure 17
0001
0001
0001
MMMM
1000
1000
1000
MMMM
,  // measure 18
0010
0010
0010
MMMM
0100
0100
0100
MMMM
,  // measure 19
0001
0001
0100
MMMM
1000
1000
0100
MMMM
,  // measure 20
0001
0001
0010
MMMM
1000
1000
0010
MMMM
,  // measure 21
0100
0100
0100
0100
0100
0100
MMMM
0000
,  // measure 22
0010
0010
0010
0010
0010
0010
MMMM
0000
,  // measure 23
1000
1000
1000
1000
1000
1000
MMMM
0000
,  // measure 24
0001
0001
0001
0001
0001
0001
0001
MMMM
,  // measure 25
0010
0010
0010
MMMM
0010
0010
0010
MMMM
,  // measure 26
0100
0100
0100
MMMM
0100
0100
0100
MMMM
,  // measure 27
1100
0000
0101
0000
1010
0000
0011
0001
,  // measure 28
1001
0000
0000
0000
MMMM
0000
0000
0000
1100
0000
0000
0001
0010
0000
0001
0000
,  // measure 29
1001
0000
0000
0000
MMMM
0000
0000
0000
0101
0000
0000
1000
0010
0000
0100
0000
,  // measure 30
0110
0000
0000
0000
MMMM
0000
0000
0000
1010
0000
0000
1000
0010
0000
1000
0000
,  // measure 31
0001
0010
0100
1000
0001
1000
0100
0000
1000
0010
0100
0001
1000
0001
0100
0000
,  // measure 32
0110
0000
0000
0000
MMMM
0000
0000
0000
0101
0000
0000
1000
0010
0000
1000
0000
,  // measure 33
1100
0000
0000
0000
MMMM
0000
0000
0000
0011
0000
0000
0001
0010
0000
0100
0000
,  // measure 34
0110
0000
0000
0000
MMMM
0000
0000
0000
1001
0000
0000
1000
0100
0000
1000
0000
,  // measure 35
0001
0010
0001
1000
0010
0100
0010
0000
1000
0010
1000
0001
0010
0100
0010
0001
,  // measure 36
1000
1000
1000
1000
1000
1000
1000
MMMM
,  // measure 37
0100
0100
0100
0100
0100
0100
0100
MMMM
,  // measure 38
0001
0001
0001
0001
0001
0001
0001
MMMM
,  // measure 39
0010
0000
0010
0000
0010
0000
0010
0000
0010
0000
0010
0000
0010
0100
MMMM
0000
,  // measure 40
1000
1000
1000
1010
1001
1100
MMMM
0000
,  // measure 41
0010
0010
0010
0011
1001
0101
MMMM
0000
,  // measure 42
0001
0001
0001
0101
1001
1100
MMMM
0000
,  // measure 43
1000
0000
0000
0100
0000
0000
1000
0000
0000
0000
0000
0000
0001
0000
0000
0000
0100
0000
0000
0000
0001
0000
0000
0000
1000
0000
0000
0010
0000
0000
0100
0000
0000
0001
0000
0000
1000
0000
0000
0001
0000
0000
0100
0000
0000
0001
0000
0000
,  // measure 44
1000
MMMM
1000
MMMM
1000
MMMM
1000
MMMM
0100
MMMM
0100
MMMM
0100
MMMM
0100
MMMM
,  // measure 45
0001
MMMM
0001
MMMM
0001
MMMM
0001
MMMM
0010
MMMM
0010
MMMM
0010
MMMM
0010
MMMM
,  // measure 46
1000
MMMM
1000
MMMM
1000
MMMM
1000
MMMM
0010
MMMM
0010
MMMM
0010
MMMM
0010
MMMM
,  // measure 47
0001
MMMM
0001
MMMM
0001
MMMM
0001
MMMM
0100
MMMM
0100
MMMM
0100
MMMM
0100
MMMM
,  // measure 48
1000
MMMM
1000
MMMM
1000
MMMM
1000
MMMM
0001
MMMM
0001
MMMM
0001
MMMM
0001
MMMM
,  // measure 49
0100
MMMM
0100
MMMM
0100
MMMM
0100
MMMM
0010
MMMM
0010
MMMM
0010
MMMM
0010
MMMM
,  // measure 50
0100
MMMM
0100
MMMM
0100
MMMM
0100
MMMM
0001
MMMM
0001
MMMM
0001
MMMM
0001
MMMM
,  // measure 51
0010
MMMM
0010
MMMM
0010
MMMM
0010
MMMM
1000
MMMM
1000
MMMM
1000
MMMM
1000
MMMM
,  // measure 52
0100
MMMM
0100
MMMM
0100
MMMM
0100
MMMM
0001
MMMM
0001
MMMM
0001
MMMM
0001
MMMM
,  // measure 53
0100
MMMM
0100
MMMM
0100
MMMM
0100
MMMM
1000
MMMM
1000
MMMM
1000
MMMM
1000
MMMM
,  // measure 54
0010
MMMM
0010
MMMM
0010
MMMM
0010
MMMM
0100
MMMM
0100
MMMM
0100
MMMM
0100
MMMM
,  // measure 55
0101
0000
1100
0000
0011
0000
1001
0010
,  // measure 56
0101
0000
MMMM
0000
1100
0000
MMMM
0000
0101
0000
0000
0001
0010
0000
0100
0000
,  // measure 57
1100
0000
MMMM
0000
0101
0000
MMMM
0000
1100
0000
0000
1000
0010
0000
0100
0000
,  // measure 58
0110
0000
MMMM
0000
1001
0000
MMMM
0000
1010
0000
0000
0001
0010
0000
0100
0000
,  // measure 59
0010
0001
0010
0001
0010
0100
0010
0000
0001
0100
0010
1000
0001
0010
0100
1000
,  // measure 60
0100
0000
MMMM
0000
1100
0000
MMMM
0000
0101
0000
0000
1000
0010
0000
0100
0000
,  // measure 61
0110
0000
MMMM
0000
1001
0000
MMMM
0000
0101
0000
0000
1000
0100
0000
1000
0000
,  // measure 62
1100
0000
MMMM
0000
0011
0000
MMMM
0000
1001
0000
0000
0010
0100
0000
0010
0000
,  // measure 63
1000
0100
0010
0100
1000
0001
0100
0000
0001
0010
0100
0010
0001
1000
0100
1000
,  // measure 64
0001
0001
0001
0101
1001
1100
MMMM
0001
,  // measure 65
1000
1000
1000
1100
1001
0101
MMMM
0001
,  // measure 66
0010
0010
0010
0110
0101
1010
MMMM
0100
,  // measure 67
1000
1000
1000
1100
0011
0101
MMMM
0001
,  // measure 68
1000
0000
0000
0000
;
