#TITLE:Parallels;
#SUBTITLE:;
#ARTIST:As I Lay Dying;
#TITLETRANSLIT:;
#SUBTITLETRANSLIT:;
#ARTISTTRANSLIT:;
#GENRE:;
#CREDIT:;
#MENUCOLOR:;
#METERTYPE:DDR;
#BANNER:Parallels.png;
#BACKGROUND:Parallels-bg.png;
#LYRICSPATH:;
#CDTITLE:./CDTITLES/NONE.PNG;
#MUSIC:Parallels.ogg;
#OFFSET:-1.200;
#SAMPLESTART:68.400;
#SAMPLELENGTH:15.000;
#SELECTABLE:YES;
#LISTSORT:;
#BPMS:0.000=200.000;
#STOPS:;
#BGCHANGES:-4.000=Parallels.avi=1.000=0=0=0,
99999=-nosongbg-=1.000=0=0=0 // don't automatically add -songbackground-
;
#ATTACKS:;

//---------------dance-single - ----------------
#NOTES:
     dance-single:
     :
     Beginner:
     3:
     0.104,0.155,0.000,0.036,0.000:
0000
0000
0000
0000
,
0000
0000
0000
0000
,
0000
0000
0000
0000
,
0000
0000
0000
0000
,
0000
0000
0000
0000
,
0000
0000
0000
0000
,
0100
0000
0000
0000
,
0000
0000
0000
0000
,
0010
0000
0000
0000
,
1000
0000
0000
0000
,
0001
0000
0000
0000
,
1000
0000
0000
0000
,
0001
0000
0000
0000
,
0010
0000
0000
0000
,
0100
0000
0000
0000
,
1000
0000
0000
0000
,
0010
0000
0000
0000
,
0100
0000
0000
0000
,
0001
0000
0000
0000
,
1000
0000
0000
0000
,
0001
0000
0000
0000
,
0010
0000
0000
0000
,
0100
0000
0000
0000
,
1000
0000
0000
0000
,
0001
0000
0000
0000
,
0000
0000
0000
0000
,
1000
0000
0000
0000
,
0000
0000
0000
0000
,
0010
0000
0000
0000
,
0000
0000
0000
0000
,
0100
0000
0000
0000
,
0000
0000
0000
0000
,
0001
0000
0000
0000
,
1000
0000
0000
0000
,
0010
0000
0000
0000
,
0100
0000
0000
0000
,
0010
0000
0000
0000
,
1000
0000
0000
0000
,
0100
0000
0000
0000
,
0010
0000
0000
0000
,
0001
0000
0000
0000
,
0000
0000
1000
1000
,
1000
0000
0000
0000
,
0000
0000
0010
0010
,
0010
0000
0000
0000
,
0000
0000
0100
0100
,
0100
0000
0000
0000
,
0001
0000
0000
0000
,
1000
0000
0000
0000
,
0001
0000
0000
0000
,
1000
0000
0000
0000
,
0001
0000
0000
0000
,
0010
0000
0000
0000
,
0100
0000
0000
0000
,
0010
0000
0000
0000
,
0001
0000
0000
0000
,
2000
0000
0000
3000
,
0000
0000
0000
0000
,
0002
0000
0000
0003
,
0000
0000
0000
0000
,
0200
0000
0000
0300
,
0000
0000
0000
0000
,
0020
0000
0000
0030
,
0000
0000
0000
0000
,
1000
0000
0000
0000
,
0001
0000
0000
0000
,
0100
0000
0000
0000
,
0010
0000
0000
0000
,
1000
0000
0000
0000
,
0100
0000
0000
0000
,
0010
0000
0000
0000
,
0001
0000
0000
0000
,
0010
0000
0000
0000
,
0010
0000
0000
0000
,
0010
0000
0010
0000
,
0010
0000
0000
0000
,
0100
0000
0000
0000
,
0100
0000
0000
0000
,
0100
0000
0100
0000
,
0100
0000
0000
0000
,
1000
0000
0000
0000
,
1000
0000
0000
0000
,
0001
0000
0001
0000
,
0001
0000
0000
0000
,
1000
0000
0000
0000
,
0000
0000
0000
0000
,
0010
0000
0000
0000
;

//---------------dance-single - ----------------
#NOTES:
     dance-single:
     :
     Easy:
     5:
     0.214,0.404,0.144,0.126,0.000:
0000
0000
0000
0000
,
0000
0000
0000
0000
,
0000
0000
0000
0000
,
0000
0000
0000
0000
,
0000
0000
0000
0000
,
0000
0000
0000
0000
,
0010
0000
0000
0000
,
0010
0010
0200
0300
,
0001
0000
0000
0000
,
0000
1000
0100
1000
,
0100
0000
0000
0000
,
0000
1000
0001
1000
,
0001
0000
0000
0000
,
0000
0100
0010
0100
,
0010
0000
0000
0000
,
1000
0000
0000
0000
,
0001
0000
0000
0000
,
0000
0010
0001
1000
,
0001
0000
0000
0000
,
0000
1000
0001
1000
,
0100
0000
0000
0000
,
0000
1000
0010
0100
,
0001
0000
0000
0000
,
0010
0000
0000
0000
,
0100
0000
0100
0000
,
0100
0000
0000
0000
,
1000
0000
1000
0000
,
1000
0000
0000
0000
,
0001
0000
0001
0000
,
0001
0000
0000
0000
,
0100
0000
0100
0000
,
0100
0000
0000
0000
,
0110
0000
0000
0000
,
1000
0000
0000
0000
,
0001
0000
0000
0000
,
1000
0000
0000
0000
,
1001
0000
0000
0000
,
0100
0000
0000
0000
,
0010
0000
0000
0000
,
0002
0000
0000
0003
,
1000
0000
0001
0001
,
0000
1000
0100
1000
,
0100
0000
1000
1000
,
0000
0010
0100
0010
,
0100
0000
0001
0001
,
0000
0010
0100
0010
,
0001
0000
0000
0000
,
1000
0000
0000
0000
,
0010
0000
0000
0000
,
1001
0000
0000
0000
,
0100
0000
0000
0000
,
1001
0000
0000
0000
,
1000
0000
0000
0000
,
0110
0000
0000
0000
,
0001
0000
0000
0000
,
0110
0000
0000
0000
,
0020
0000
1000
0000
,
0000
0000
1030
0000
,
0200
0000
0001
0000
,
0000
0000
0301
0000
,
0002
0000
0010
0000
,
0000
0000
0013
0000
,
2000
0000
0100
0000
,
0000
0000
3100
0000
,
1000
0000
0001
0000
,
1000
0000
0001
0000
,
0100
0000
0010
0000
,
0100
0000
0010
0000
,
1000
0000
0100
0000
,
0010
0000
0001
0000
,
0010
0000
0100
0000
,
1000
0000
0001
0000
,
1001
0000
0100
0000
,
0110
0000
1000
0000
,
0001
0000
0010
0000
,
0100
1000
0100
0000
,
1001
0000
0010
0000
,
0110
0000
0001
0000
,
1000
0000
0010
0000
,
0100
0001
0100
0000
,
1002
0000
0013
0000
,
1002
0000
1003
0000
,
2001
0000
3010
0000
,
2001
0000
3001
0000
,
2002
0000
0000
0000
,
0000
0000
0000
3003
,
0220
0000
0000
0000
,
0000
0000
0000
0000
,
0000
0000
0000
0000
,
0000
0000
0000
0330
;

//---------------dance-single - ----------------
#NOTES:
     dance-single:
     :
     Medium:
     9:
     0.542,0.647,0.216,0.207,0.000:
0000
0000
0000
0000
,
0000
0000
0000
0000
,
0000
0000
0000
0000
,
0000
0000
0000
0000
,
0000
0000
0000
0000
,
0000
0000
0000
0000
,
0010
0010
0010
0010
,
0100
0100
0220
0330
,
1000
0000
0000
0001
0100
0000
0100
0000
,
0000
0010
1000
0000
0100
0000
0010
0000
,
0100
0000
0000
1000
0100
0000
0100
0000
,
0000
0010
0001
0000
1000
0000
0001
1000
,
0100
0000
0000
0010
0001
0000
1000
0000
,
0000
0001
0100
0000
0010
0000
0100
0000
,
0001
0000
0001
0010
0000
0010
0100
0000
,
1000
0100
0010
0000
0001
0010
0100
0000
,
1001
0000
0000
0010
0100
0000
0010
0000
,
0000
0100
0001
0000
1000
0000
0100
0000
,
0010
0000
0000
0100
1000
0000
0100
0000
,
0000
0010
0001
0000
1000
0000
0001
1000
,
0010
0000
0000
0100
0010
0000
0100
0000
,
0000
0001
0100
0000
0010
0000
1000
0000
,
0100
0000
0100
0010
0000
0010
0100
0000
,
1000
0100
0010
0000
0001
0010
0001
0000
,
1001
0000
0000
0000
0010
1000
0010
0000
,
0100
0000
0001
0100
0000
0100
0001
0100
,
0000
0100
0010
0000
1000
0000
0000
0000
,
0100
0000
0010
0100
0000
0100
1000
0100
,
0000
0100
0010
0000
0001
0000
1000
0000
,
0010
0200
0001
0310
,
1000
0100
0010
0001
,
1000
0020
1000
0031
,
1001
0000
0010
0000
1000
0100
1000
0000
,
0001
0100
0001
0100
0000
0100
0010
0100
,
0000
0100
0001
0000
1000
0100
1000
0000
,
0100
0010
0100
0010
0000
0010
0001
0010
,
0000
0010
0001
0000
1000
0010
1000
0000
,
0001
0010
0001
0010
0000
0010
0001
1000
,
0000
1000
0001
0000
0100
0000
0100
0000
,
0220
0330
1000
0001
,
1001
0000
0010
1000
0100
0000
0010
0000
,
0000
0100
1000
0000
0100
0000
0010
0001
,
0100
0000
0001
0100
0010
0000
0100
0000
,
0000
0001
0100
0000
0010
0000
1000
0001
,
0010
0000
0001
1000
0100
0000
1000
0000
,
0000
0001
1000
0000
0010
0000
0100
0000
,
0110
0000
0010
1000
0000
1000
0001
0000
,
1000
0100
0010
0000
0001
0010
0100
0000
,
1000
0100
0000
0001
0100
0000
1000
0100
,
0000
0001
0100
0000
1000
0010
0000
0010
,
0001
0010
0000
1000
0010
0000
0001
0010
,
0000
1000
0010
0000
0001
0010
0000
0010
,
1000
0100
0000
0001
0100
0000
1000
0010
,
0000
0001
0010
0000
1000
0100
0000
0001
,
0100
0010
0000
0001
1000
0000
0010
0100
,
0001
0000
0001
0000
1000
0001
1000
0001
,
1000
0010
0101
0010
,
1000
0000
0100
1000
0000
0001
1000
0000
,
0001
0010
0110
0010
,
0001
0000
1000
0100
0000
1000
0001
1000
,
0100
1000
1010
0010
,
0100
0000
0001
0010
0000
0001
1000
0000
,
0001
0010
0110
0010
,
0001
0000
1000
0000
0001
0000
1000
0001
,
0100
0010
0110
0010
,
1000
0100
1000
0000
1001
0000
0000
0000
,
0001
0010
0110
0010
,
0001
0000
0100
0000
0011
0000
1000
0001
,
0100
0010
1010
1000
,
0001
0100
0110
0000
,
0010
0000
1000
0000
1001
0000
0001
0100
,
0000
0100
0000
0010
1000
0100
0010
0000
,
0001
0100
0001
0000
0200
0000
0301
0000
,
0001
0100
0001
0000
0200
0000
0301
0000
,
1000
0100
0001
0000
0001
0100
1000
0000
,
1000
0100
0001
0000
0200
0000
1300
0000
,
1000
0010
1000
0000
0002
0000
1003
0000
,
1000
0010
1000
0000
0002
0000
1003
0000
,
0001
0010
1000
0000
1000
0010
0001
0000
,
0001
0010
1000
0000
1000
0010
0100
0000
,
0100
1000
0100
0000
2020
0000
3030
0000
,
0100
0001
0100
0000
0022
0000
0033
0000
,
1000
0001
0100
0000
0220
0000
0330
0000
,
0010
1000
0001
0000
2002
0000
3003
0000
,
0220
0000
0000
0000
,
0000
0000
0000
0330
,
2002
0000
0000
0000
,
0000
0000
0000
0000
,
0000
0000
0000
0000
,
0000
0000
0000
3003
;

//---------------dance-single - ----------------
#NOTES:
     dance-single:
     :
     Hard:
     13:
     0.700,0.728,0.478,0.189,0.000: // measure 1
0000
0000
0000
0000
,  // measure 2
0000
0000
0000
0000
,  // measure 3
0000
0000
0000
0000
,  // measure 4
0000
0000
0000
0000
,  // measure 5
0000
0000
0000
0000
,  // measure 6
0000
0000
0000
0000
,  // measure 7
0010
0010
0010
0010
,  // measure 8
0100
0100
0220
0330
,  // measure 9
1010
0000
0001
0100
0010
0000
1010
0000
,  // measure 10
1000
0100
0010
0001
1000
0000
1001
0000
,  // measure 11
0110
0000
0010
0100
0001
0000
0110
0000
,  // measure 12
0001
0010
0100
1000
0001
0000
1000
0001
,  // measure 13
0100
0000
0010
1000
0100
0000
0011
0000
,  // measure 14
1000
0100
0010
0001
0100
0000
0110
0000
,  // measure 15
1001
0000
0001
1000
0000
1000
0001
0000
,  // measure 16
1000
0100
0010
0100
1000
0010
0100
0001
,  // measure 17
1000
0000
0001
0010
0100
0000
0011
0000
,  // measure 18
1000
0100
0001
0000
1100
0000
0101
0000
,  // measure 19
1100
0000
0001
0010
0100
0000
1001
0000
,  // measure 20
0001
0010
1000
0000
0010
0000
0001
0100
,  // measure 21
0010
0000
1000
0100
0001
0000
1100
0000
,  // measure 22
0001
0100
0010
0000
0110
0000
1001
0000
,  // measure 23
0011
0000
0001
0100
0000
0100
0000
0010
,  // measure 24
1000
0100
0010
0100
1000
0010
0001
0010
,  // measure 25
1000
0100
1000
0000
0001
0100
0001
0000
,  // measure 26
1000
0010
1000
0010
0000
0010
1000
0001
,  // measure 27
0000
0001
0010
0000
0001
0010
0001
0000
,  // measure 28
0100
0001
0100
0010
0000
0010
1000
0001
,  // measure 29
1000
0001
0100
0000
0010
1000
0100
0000
,  // measure 30
0010
0001
0100
0010
0000
0100
0010
0100
,  // measure 31
0000
0010
1000
0000
0001
0010
0100
0000
,  // measure 32
0010
0001
1000
0001
1001
0000
0010
0100
,  // measure 33
1001
0000
0010
0000
1010
1000
0100
0000
,  // measure 34
1000
0100
0010
0100
1100
0100
0010
0001
,  // measure 35
0000
0001
0100
0000
0010
0100
0001
0000
,  // measure 36
0100
0001
0010
0001
0011
0001
1000
0001
,  // measure 37
0000
0001
1000
0000
1010
0010
0100
0000
,  // measure 38
0010
1000
0100
0010
0110
0010
0001
1000
,  // measure 39
0000
0001
0100
0000
0010
1000
0001
0000
,  // measure 40
1000
0100
0010
0100
1000
0000
1001
0000
,  // measure 41
1010
0000
0001
0010
1000
0000
0011
0000
,  // measure 42
1000
0100
0001
0000
1100
0000
1001
0000
,  // measure 43
0110
0000
0010
0100
0001
0000
1010
0000
,  // measure 44
0001
0010
0100
0000
0010
0001
1000
0100
,  // measure 45
0001
0000
0100
1000
0010
0000
0110
0000
,  // measure 46
0010
0100
0001
0000
1001
0000
1010
0000
,  // measure 47
0001
0100
0001
1001
0000
1100
0000
0011
,  // measure 48
0001
0100
0010
0100
0001
0001
1000
1000
,  // measure 49
0001
0010
1000
0001
0100
1000
0001
0010
,  // measure 50
1000
0001
0100
1000
0001
0010
0000
0001
,  // measure 51
1000
0010
0001
1000
0100
0001
1000
0010
,  // measure 52
0001
1000
0100
0001
1000
0010
0000
1000
,  // measure 53
0100
1000
0010
0100
0001
0010
0100
1000
,  // measure 54
0010
0100
0001
0010
0001
0100
0000
0001
,  // measure 55
0010
0001
0100
0010
1000
0100
0010
0001
,  // measure 56
0100
0010
0010
0010
1000
0001
1000
0001
,  // measure 57
1001
0001
0010
0100
2000
0000
3010
0000
,  // measure 58
1000
0000
0100
1000
0010
0100
0001
0000
,  // measure 59
1000
0010
0100
0001
0020
0000
0031
0000
,  // measure 60
1000
0000
0001
1000
0100
0000
1000
0001
,  // measure 61
0010
0001
1000
0010
0200
0000
0310
0000
,  // measure 62
1000
0000
0100
1000
0010
0000
0100
0001
,  // measure 63
0010
0100
0010
0001
0200
0000
0310
0000
,  // measure 64
0100
0010
0000
0100
0001
0000
1000
0001
,  // measure 65
1001
0010
0200
0000
1000
0000
0310
0000
,  // measure 66
1000
0010
0200
0000
0001
0000
0310
0000
,  // measure 67
0001
0010
0002
0000
1000
0000
0013
0000
,  // measure 68
1000
0100
1000
0000
0001
0000
1000
0001
,  // measure 69
0010
0100
0020
0000
0001
0000
1030
0000
,  // measure 70
0001
0100
0020
0000
0100
0000
0031
0000
,  // measure 71
1000
0100
0020
0000
0100
0000
0031
1000
,  // measure 72
0000
0001
0100
0010
0100
0001
1000
0100
,  // measure 73
0110
0000
0100
1000
0100
0000
1000
0000
,  // measure 74
1001
0000
0100
0001
0100
0000
0001
0000
,  // measure 75
0110
0000
0010
1000
0010
0000
1000
0000
,  // measure 76
0011
0000
1000
0100
0010
0000
0100
0000
,  // measure 77
1100
0100
0010
0100
2000
0000
3001
0000
,  // measure 78
0101
0100
0001
0100
0020
0000
0130
0000
,  // measure 79
1010
0010
1000
0010
0200
0000
0301
0000
,  // measure 80
0101
0100
0001
0010
0001
0001
1000
0000
,  // measure 81
0011
0001
0010
0100
2000
0000
3001
0000
,  // measure 82
1010
1000
0010
0100
0002
0000
1003
0000
,  // measure 83
1100
0100
1000
0100
0020
0000
0031
0000
,  // measure 84
0101
0100
0001
0100
0010
0100
0001
1000
,  // measure 85
0002
0000
0000
0000
,  // measure 86
0000
0000
0000
0003
,  // measure 87
2002
0000
0000
0000
,  // measure 88
0000
0000
0000
0000
,  // measure 89
0000
0000
0000
0000
,  // measure 90
0000
0000
0000
3003
;

//---------------dance-single - ----------------
#NOTES:
     dance-single:
     :
     Challenge:
     16:
     1.000,1.000,1.000,0.189,0.383: // measure 1
0000
0000
0000
0000
,  // measure 2
0000
0000
0000
0000
,  // measure 3
0000
0000
0000
0000
,  // measure 4
0000
0000
0000
0000
,  // measure 5
0000
0000
0000
0000
,  // measure 6
0000
0000
0000
0000
,  // measure 7
0010
0000
1000
0100
1000
0000
0001
0100
0001
0000
0010
0001
0010
0000
0001
1000
,  // measure 8
0001
1000
0001
1000
0010
0100
0010
0100
0002
0000
0000
0000
0013
0000
0000
0000
,  // measure 9
1100
0000
0100
0010
0001
0000
0100
0000
0101
0000
0000
0000
0011
0000
0000
0000
,  // measure 10
1001
0000
0001
0100
0010
0000
0010
1000
0100
0000
0100
1000
0010
0000
0010
1000
,  // measure 11
0001
0000
1000
0001
0100
0000
0010
1000
0100
0000
0000
0000
0011
0000
0000
0000
,  // measure 12
1100
0000
0100
0010
0001
0000
0001
1000
0010
0000
0010
1000
0001
0000
0100
0000
,  // measure 13
1010
0000
1000
0001
0100
0000
0001
0010
0100
0000
0000
0000
0011
0000
0000
0000
,  // measure 14
1001
0000
0001
1000
0010
0000
0010
0100
0001
0000
0001
0100
0010
0000
0010
1000
,  // measure 15
0100
0000
1000
0001
1000
0000
0101
0000
0000
0000
1100
0000
0000
0000
0001
0010
,  // measure 16
0100
0000
0010
0001
1000
0000
0001
1000
0010
0000
0100
0001
0100
0001
1000
0001
,  // measure 17
1000
0000
0001
0010
0100
0000
0010
0001
1000
0000
0000
0000
1010
0000
0000
0000
,  // measure 18
0101
0000
0001
0010
0100
0000
0010
0100
1000
0000
0001
1000
0100
0000
1000
0001
,  // measure 19
0010
0000
0001
1000
0100
0000
1000
0010
0100
0000
0000
0000
0011
0000
0000
0000
,  // measure 20
1100
0000
0100
1000
0010
0000
0100
0001
0010
0000
0100
1000
0001
0000
1000
0000
,  // measure 21
1001
0000
0010
1000
0100
0000
0010
0001
1000
0000
0000
0000
1010
0000
0000
0000
,  // measure 22
0110
0000
0010
0100
0001
0000
0100
0010
1000
0000
0001
1000
0100
0000
1000
0001
,  // measure 23
1000
0000
0001
0100
0001
0000
1010
0000
0000
0000
0011
0000
0000
0000
1000
0000
,  // measure 24
0100
0000
1000
0001
1000
0000
0001
0000
0100
0001
1000
0000
0001
0000
0001
0000
,  // measure 25
1001
0100
0101
0000
1010
0001
1001
0000
,  // measure 26
1100
0100
0010
0100
1100
0100
0010
0001
,  // measure 27
0101
0100
0101
0000
0110
0100
0110
0000
,  // measure 28
1010
0010
1000
0100
0011
0100
1000
0100
,  // measure 29
0110
0100
1100
0000
1010
0001
0100
0000
,  // measure 30
0011
1000
0100
0001
0101
0001
0100
1000
,  // measure 31
0000
0010
0110
0000
1010
0001
1001
0000
,  // measure 32
0011
0000
1000
0000
1001
0000
0100
0000
0110
0000
0100
0010
0001
0000
1000
0000
,  // measure 33
0110
0010
0110
0000
1010
1000
1001
0000
,  // measure 34
0011
0001
1001
0001
0101
0100
0001
0100
,  // measure 35
0110
0010
1010
0000
1100
0100
1001
0000
,  // measure 36
1100
0100
0010
0100
1100
0010
0001
0100
,  // measure 37
1000
0100
0101
0000
0011
1000
1010
0000
,  // measure 38
1001
0001
0100
1000
1100
1000
0010
0001
,  // measure 39
0110
0001
1000
0000
0110
1000
0001
0000
,  // measure 40
0100
0000
1000
0000
1000
0000
1000
0000
0001
0100
0001
0100
0010
0000
1000
0001
,  // measure 41
1000
0000
0001
0010
0001
0000
1000
0000
0100
0000
0001
0000
0100
0000
1000
0000
,  // measure 42
0010
0000
0100
0001
0010
0000
0100
1000
0010
0000
0100
0001
1000
0000
0001
1000
,  // measure 43
0100
0000
1000
0100
1000
0000
0010
0000
0001
0000
0010
0000
1000
0000
0100
0000
,  // measure 44
1000
0000
0001
0100
0010
0000
1000
0001
0100
0000
0001
1000
0010
0000
1000
0000
,  // measure 45
0001
0000
0100
0010
0100
0000
0010
0000
1000
0000
0100
0000
1000
0000
0010
0000
,  // measure 46
0001
0000
0010
1000
0001
0000
1000
0001
0010
0000
0001
1000
0100
0000
1000
0001
,  // measure 47
1000
0001
1010
1010
0000
0101
0000
1100
,  // measure 48
0010
0000
0001
0000
0100
0000
1000
0000
0100
0010
0100
0010
1000
0000
0000
0000
,  // measure 49
0011
0011
0011
0011
0011
0000
0011
0000
,  // measure 50
1010
1010
1010
1010
1010
0000
1010
0000
,  // measure 51
0110
0110
0110
0110
0110
0000
0110
0000
,  // measure 52
1001
1001
1001
1001
1001
0000
1001
0000
,  // measure 53
1100
0100
0010
0011
0001
0100
0110
0010
,  // measure 54
1000
1100
0100
0010
0011
0001
1000
0001
,  // measure 55
1000
0100
1000
0100
1000
0000
0001
0100
0001
0100
0001
0000
1000
0010
1000
0010
,  // measure 56
1000
0000
0001
1000
0001
0000
1000
0000
0001
0000
1000
0000
1001
0000
1001
0000
,  // measure 57
0110
0001
0100
1000
0200
0000
0301
0000
,  // measure 58
0011
0000
1000
0100
0001
0100
1000
0010
,  // measure 59
1000
0001
0100
0010
2000
0000
3010
0000
,  // measure 60
0101
0000
0010
1000
0100
0000
0011
0100
,  // measure 61
1000
0010
0100
0001
2000
0000
3010
0000
,  // measure 62
0101
0000
1000
0001
0100
0000
0001
1000
,  // measure 63
0010
0100
0001
0010
0200
0000
0310
0000
,  // measure 64
0011
0000
1000
0100
0001
0000
1000
0001
,  // measure 65
0101
0001
1000
0010
1020
0000
1030
0000
,  // measure 66
1100
0100
1000
0010
0210
0000
0301
0000
,  // measure 67
0101
0001
0100
0001
0012
0000
1003
0000
,  // measure 68
1001
0000
0010
1000
1100
0000
0011
1000
,  // measure 69
0001
1000
0001
0100
1020
0000
0130
0000
,  // measure 70
1000
0001
1000
0100
0012
0000
0103
0000
,  // measure 71
0001
1000
1100
0000
0110
0000
0001
1001
,  // measure 72
0000
1001
0000
0000
0110
0000
0000
0000
,  // measure 73
1010
0100
1100
0100
0120
0000
0130
0000
,  // measure 74
0011
0100
0101
0100
0210
0000
0310
0000
,  // measure 75
1010
0000
0001
0100
0001
0000
0010
0000
0001
0000
1000
0100
1000
0000
0001
0000
,  // measure 76
0100
0000
0010
1000
0001
0000
1000
0000
2001
0000
0000
0000
3001
0000
0000
0000
,  // measure 77
0011
0100
0110
0100
0012
0000
1003
0000
,  // measure 78
1010
0100
0110
0100
2010
0000
3001
0000
,  // measure 79
0011
0000
1000
0100
1000
0000
0001
0000
0100
0000
0010
1000
0010
0000
1000
0000
,  // measure 80
0001
0000
1000
0001
0100
0000
0001
1000
0010
0000
0010
0000
1000
0000
0000
0000
,  // measure 81
0110
0001
0101
0001
2001
0000
3010
0000
,  // measure 82
0110
1000
1001
1000
0102
0000
0013
0000
,  // measure 83
0110
1000
0101
0001
2010
0000
3001
0000
,  // measure 84
0110
0001
1100
0001
0012
0000
1003
0000
,  // measure 85
0010
0100
0010
0100
0001
0010
0001
0010
,  // measure 86
1000
0010
0001
1000
0100
0001
1000
0010
,  // measure 87
2002
0000
0000
0000
,  // measure 88
0000
0000
0000
0000
,  // measure 89
0000
0000
0000
0000
,  // measure 90
0000
0000
0000
3003
;
