#TITLE:KAISER PHOENIX;
#SUBTITLE:;
#ARTIST:96;
#TITLETRANSLIT:;
#SUBTITLETRANSLIT:;
#ARTISTTRANSLIT:;
#GENRE:;
#CREDIT:;
#MUSIC:KAISER PHOENIX.ogg;
#BANNER:KAISER PHOENIX.png;
#BACKGROUND:KAISER PHOENIX-bg.png;
#CDTITLE:./CDTITLES/GUITAR FREAKS & DRUMMANIA.PNG;
#SAMPLESTART:69.176;
#SAMPLELENGTH:15.000;
#SELECTABLE:YES;
#OFFSET:0.000;
#BPMS:0.000=170.000;
#STOPS:;
#MENUCOLOR:;
#METERTYPE:DDR;
#LISTSORT:;
#BGCHANGES:0.000=KAISER PHOENIX.avi=1.000=0=0=0=StretchNoLoop====,
99999.000=-nosongbg-=1.000=0=0=0=StretchNoLoop====
;
#FGCHANGES:;

//--------------- dance-single - t7r ----------------
#NOTES:
     dance-single:
     t7r:
     Beginner:
     6:
     0.279,0.302,0.058,0.087,0:
0000
0000
0000
0000
,
0000
0000
0000
0000
,
0000
0000
0000
0000
,
0000
0000
0000
0000
,
0000
0000
0000
0000
,
0020
0000
0000
0030
,
0000
0100
0100
0001
,
2000
0000
0000
3000
,
0001
0010
0100
1000
,
0001
0001
0001
0000
,
1000
0001
1000
0001
,
1000
1000
1000
0000
,
0010
0100
0010
0100
,
0010
0010
0010
0000
,
0100
0010
0100
0010
,
0100
0100
0100
0000
,
0001
0010
0100
1000
,
0001
0000
1000
0000
,
0010
0000
0100
0000
,
1001
0000
0110
0000
,
1001
0000
1001
0000
,
1000
0000
0001
0000
,
0100
0000
0010
0000
,
0110
0000
0110
0000
,
1000
0000
0001
0000
,
1000
1000
1000
0000
,
0010
0010
0010
0000
,
0100
0100
0100
0000
,
0001
0001
0001
0000
,
1000
0001
1000
0000
,
0001
1000
0001
0000
,
0100
0010
0100
0000
,
0010
0100
0010
0000
,
2000
0000
0000
3000
,
0001
0001
0001
0000
,
0200
0000
0000
0300
,
0010
0000
0010
0000
,
2000
0000
0000
3000
,
0010
0010
0010
0000
,
0200
0000
0000
0300
,
0001
0000
0001
0000
,
1000
0001
1000
0001
,
0100
0010
0100
0000
,
0001
1000
0001
0000
,
0010
0100
0010
0000
,
0001
0010
0001
0010
,
0100
1000
0100
0000
,
1000
0000
0010
0100
,
0001
0000
1000
0000
,
0001
0001
0001
0000
,
0010
0010
0010
0000
,
0100
0100
0100
0000
,
1000
1000
1000
0000
,
0001
0001
0010
0000
,
0100
0100
1000
0000
,
0001
0010
0100
1000
,
0001
0100
0010
1000
,
0002
1000
1003
0000
,
1000
0100
0010
0001
,
1000
0001
0001
0000
,
1000
0010
0100
0001
,
1000
0100
1000
0100
,
1000
0000
0001
0001
,
0001
0100
0001
0100
,
0001
0000
0100
0100
,
0010
0100
0010
0100
,
0010
0000
1000
1000
,
0001
0010
0001
0010
,
0002
0000
0000
0003
,
1000
0000
0000
0001
0000
0000
0100
0000
,
0000
0010
0000
0000
2000
0000
0000
3001
;

//--------------- dance-single - t7r ----------------
#NOTES:
     dance-single:
     t7r:
     Easy:
     8:
     0.477,0.538,0.202,0.221,0.01:
0000
0000
0000
0000
,
0000
0000
0000
0000
,
0000
0000
0000
0000
,
0000
0000
0000
0000
,
0000
0000
0000
0000
,
0220
0000
0000
0330
,
0000
1000
0001
0000
1000
0000
0001
0000
,
0200
0010
0010
0310
,
1000
0100
0010
0001
,
1000
0000
0010
0000
1000
0000
0001
1000
,
0000
0001
0000
0010
0000
0001
0000
1000
,
0001
0000
0010
0000
0001
0000
1000
0001
,
0000
1000
0000
0010
0000
1000
0000
0100
,
0010
0000
0100
0000
1000
0000
0010
0100
,
0000
0001
0000
0100
0000
0010
0000
1000
,
0100
0000
0010
0000
0100
0000
1000
0001
,
0100
0010
0100
0010
,
1001
0000
0000
0001
0010
0000
0100
0000
,
0010
0000
0000
0001
1000
0000
0010
0000
,
0100
0110
0010
0110
,
1000
1001
0002
0003
,
1000
0000
0000
1000
0100
0000
0010
0000
,
0100
0000
0000
1000
0001
0000
0100
0000
,
0020
0030
0200
0300
,
0002
0003
2000
3000
,
0001
0000
0001
0000
0001
0000
0010
0001
,
0100
0000
0100
0000
0100
0000
0010
1000
,
0001
0000
0001
0000
0001
0000
1000
0001
,
0010
0000
0010
0000
0010
0000
0100
0010
,
0001
0000
0100
0000
0001
0000
1000
0001
,
1000
0000
0100
0000
1000
0000
0001
1000
,
0010
0000
0100
0000
0010
0000
0100
0001
,
1000
0100
0010
0001
,
2000
0000
3010
1000
0000
0001
0000
1000
,
0001
0010
0100
0010
,
0002
0000
0000
0000
0103
0000
0000
0000
0010
0000
0000
0010
0000
0000
0010
0000
,
2000
3100
0020
0130
,
2000
0000
3010
1000
0000
0001
0000
0100
,
0001
0100
0010
1000
,
0200
0000
0000
0000
0310
0000
0000
0000
0001
0000
0000
0001
0000
0000
0001
0000
,
2000
0000
0002
3003
,
1000
0010
0100
0001
,
1000
0100
0010
0001
,
1000
0100
1000
0100
1000
0000
1000
0000
,
0001
0100
0001
0100
0001
0000
0001
0000
,
0010
0001
1000
0100
,
1000
0010
0100
0001
,
2000
3001
0002
1003
,
0020
0130
0200
0310
,
0010
1000
0010
1000
0010
0000
0101
0000
,
1000
0100
1000
0100
1000
0000
0011
0000
,
0100
0010
0100
0010
0100
0000
1010
0000
,
0001
0010
0001
0010
0001
0000
1100
0000
,
0001
1000
0100
0000
1000
0001
0010
0000
,
0001
0100
1000
0000
1000
0100
0001
0000
,
1001
1001
1001
1001
,
0010
0100
0010
0100
0010
0000
0110
0000
,
2000
0000
0001
0000
3100
0000
0001
0010
,
0000
0001
0000
0100
0000
0020
0000
0130
,
0001
0000
1000
0000
0100
0000
1000
0010
,
1000
0100
0010
0100
,
1001
0000
1000
0100
0001
0000
0100
0000
,
1100
0000
1000
1000
0001
0000
1000
0000
,
0001
0000
0001
0100
1000
0000
0100
0000
,
0101
0000
0001
0001
0010
0000
0100
0000
,
0110
0000
1000
0010
0001
0000
0010
0000
,
0110
0000
0001
0001
1000
0000
0001
0000
,
0110
0000
0001
0010
1000
0000
0010
0000
,
0001
0001
1000
1000
0001
0100
0010
0000
,
0100
0100
0000
0001
0001
0000
1000
1000
,
0000
0010
0010
0000
1000
0002
0000
1003
,
1001
0000
0000
0000
;

//--------------- dance-single - t7r ----------------
#NOTES:
     dance-single:
     t7r:
     Medium:
     12:
     0.606,0.639,0.423,0.26,0.067:
0000
0000
0000
0000
,
0000
0000
0000
0000
,
0000
0000
0000
0000
,
0000
0000
0000
0000
,
0000
0000
0000
0000
,
0220
0000
0000
0330
,
0000
1000
0100
0010
0100
0000
1000
0000
,
0002
1000
1000
1003
,
0010
0110
1001
0110
,
1100
0000
0101
0000
1100
0000
0001
0100
,
0000
0010
0100
0001
0000
2000
0000
3001
,
0010
0000
0011
0000
1010
0000
0001
0010
,
0000
0100
0010
0001
0000
0200
0000
0310
,
0100
0000
1100
0000
0101
0000
1000
0100
,
0000
0010
0100
1000
0000
0002
0000
1003
,
0010
0000
0011
0000
1010
0000
0001
1000
,
0000
0100
0110
1001
,
1000
0000
0000
0000
0000
0000
0001
0000
0100
0000
0000
0010
0000
0000
0100
0000
,
0001
0000
0000
1000
0000
0000
0001
0000
0020
0000
0000
0000
0031
0000
0000
0000
,
0100
1001
0010
1001
,
1000
1001
0220
0330
,
0001
0000
0000
0000
0000
0000
1000
0000
0100
0000
0000
0010
0000
0000
0100
0000
,
1000
0000
0000
0001
0000
0000
1000
0000
0020
0000
0000
0000
0130
0000
0000
0000
,
0001
0000
0000
0000
1001
0000
0000
0000
1000
0000
0000
0100
0000
0000
0010
0000
,
0002
0103
0020
1030
,
1001
0000
1000
0100
1000
0100
1000
0000
,
1001
0000
0001
0100
0001
0100
0001
0000
,
1010
0000
1000
0100
0010
0100
1000
0000
,
0011
0000
0001
0100
0010
0100
0001
0000
,
1001
0000
1000
0001
0100
0000
0001
1000
,
0010
0000
1000
0100
0010
0000
0001
0100
,
0010
0100
0010
0110
,
1000
0100
0010
0001
0100
0010
1000
0000
,
0002
0000
1003
0100
0000
0010
0000
0100
,
1000
0001
0100
0010
0100
0000
0110
0000
,
2001
0000
0000
0000
3001
0000
0000
0000
1000
0000
0000
0010
0000
0000
1010
0000
,
0200
0301
2000
3100
,
0020
0000
0031
1000
0000
0010
0000
0100
,
0001
1000
0010
0100
0010
0000
0110
0000
,
1002
0000
0000
0000
1003
0000
0000
0000
1001
0000
0000
1100
0000
0000
1001
0000
,
0200
0000
0020
0330
,
1000
0001
1000
0020
0000
1030
0000
1000
,
0100
0010
0001
0100
0010
0100
0001
0000
,
1000
0001
1000
0001
0100
0010
1000
0000
,
0001
1000
0001
1000
0010
1000
0001
0000
,
0100
0010
0100
0002
0000
0013
0000
0010
,
0100
1000
0100
0010
0001
1000
0100
0000
,
1000
0000
0010
0000
0100
0000
0000
0000
0001
0000
0000
1001
0000
0000
0101
0000
,
0020
0130
0002
1003
,
0001
0100
0001
1000
0001
0010
0001
0000
,
1000
0001
1000
0100
1000
0010
1000
0000
,
0010
0100
0010
0001
0010
1000
0010
0000
,
0100
0010
0100
0001
0100
1000
0100
0000
,
0010
0001
1000
0100
0001
0100
1000
0000
,
0010
1000
0001
0100
1000
0100
0001
0000
,
0110
1001
1100
1001
,
0001
1000
0001
1000
0010
0100
0010
0100
,
0002
0000
0010
0000
0013
0000
0001
0100
,
0000
1000
0100
0001
0000
2000
0000
3001
,
1000
0000
0100
0000
0100
0000
1000
0100
,
0001
0100
1100
0101
,
1001
0000
0010
1000
0100
1000
0010
1000
,
0001
0000
1000
1000
0001
0001
0100
0100
,
0010
0000
0100
0001
0010
0001
1000
0001
,
0100
0000
0110
0000
0010
0010
0100
0100
,
0001
0000
1000
0100
0001
0100
1000
0010
,
1000
0000
0001
0001
1000
1000
0010
0010
,
0100
0000
0001
0010
1000
0010
0001
0100
,
0010
0010
1000
1000
0001
0001
0100
0100
,
0001
1000
0001
0000
0000
0000
1000
0100
1000
0000
0000
0000
0001
0100
0001
0000
,
0000
0000
1000
0010
1000
0000
0000
0000
0001
0000
0012
0000
0000
0000
1003
0001
,
1000
0000
0000
0000
;

//--------------- dance-single - t7r ----------------
#NOTES:
     dance-single:
     t7r:
     Hard:
     17:
     0,0,0,0,0:
0000
0000
0000
0000
,
0000
0000
0000
0000
,
0000
0000
0000
0000
,
0000
0000
0000
0000
,
0000
0000
0000
0000
,
0120
0000
0000
0000
,
0000
1030
0001
0001
0010
0010
0100
0100
,
2100
0001
0001
3001
,
1000
0100
0010
0000
0001
0100
0010
0000
1000
0010
1000
0010
0100
0001
1000
0000
,
1001
0000
0001
0100
0010
0000
1000
0100
0010
0000
0001
0100
0010
0000
1000
0000
,
0010
0000
0001
0010
0100
0000
0010
1000
0001
0000
1000
0001
0100
0000
0001
1000
,
0001
0000
1000
0100
0010
0000
0001
0100
0010
0000
1000
0100
0010
0000
0001
0000
,
0010
0000
1000
0010
0100
0000
0010
0001
1000
0000
0001
1000
0100
0000
1000
0001
,
1000
0000
0010
0001
0010
0000
0100
0010
1000
0000
0001
0010
0100
0000
1000
0000
,
0100
0000
0001
0100
0010
0000
0100
0010
0001
0000
1000
0001
0010
0000
0001
1000
,
0001
0000
0100
1000
0100
0000
1000
0100
0010
0000
0100
0001
1000
0000
2001
0000
,
0000
0000
3001
0000
1000
0100
1000
0100
0010
0001
0010
0001
1000
0010
0100
0001
,
2000
0000
0000
0000
3001
0000
0100
0001
0100
0000
1000
0100
0000
0001
0100
0000
,
0010
0000
1000
0010
0000
0001
0010
0000
0200
0000
0000
0000
0310
0000
0000
0000
,
1000
0100
0010
0001
1000
0000
0000
0000
0001
0010
0100
1000
0001
0000
0000
0000
,
0100
0010
1000
0001
0010
0000
0000
0000
0100
0010
0100
0000
1000
0001
1000
0001
,
1000
0100
1000
0100
1000
0000
0001
0100
0010
0000
1000
0010
0000
0001
0010
0000
,
0100
0000
0001
0100
0000
1000
0100
0000
0020
0000
0000
0000
0130
0000
0000
0000
,
0001
0010
0100
1000
0001
0000
0000
0000
1000
0000
0100
0001
0000
0100
1000
0000
,
0100
0010
0001
1000
0010
0000
0100
0000
0010
1000
0010
1000
0001
0100
0001
0100
,
0001
0010
1000
0000
0010
0100
1000
0000
0001
0010
1000
0000
0010
0100
1000
0000
,
0001
0100
1000
0000
0100
0010
1000
0000
0001
0100
1000
0000
0100
0010
1000
0000
,
0001
0010
1000
0000
0010
0001
1000
0000
0001
0010
1000
0000
0010
0001
1000
0000
,
0001
0100
1000
0000
0100
0001
1000
0000
0001
0010
0001
0010
0100
1000
0001
0000
,
1000
0100
0001
0000
0100
0010
0001
0000
1000
0100
0001
0000
0100
0010
0001
0000
,
1000
0010
0001
0000
0010
0100
0001
0000
1000
0010
0001
0000
0010
0100
0001
0000
,
1000
0100
1000
0100
0010
0001
1000
0000
0001
0100
0001
0100
0010
1000
0001
0000
,
1000
0010
1000
0010
0001
0010
0001
0010
1000
0100
0010
0001
0010
0100
1000
0001
,
2000
0000
3100
0002
0000
2003
0000
3010
,
0001
0000
0100
0000
1000
0000
0100
0000
0010
0100
0010
0000
1000
0000
0001
0000
,
0020
0000
0000
0000
0031
0000
0000
0000
1001
0000
0000
0110
0000
0000
0101
0000
,
0100
0000
0100
0010
1000
0000
0000
0000
0100
0010
0001
1000
0001
0000
0000
0000
,
1002
0000
0103
2000
0000
3002
0000
0013
,
1000
0000
0100
0000
0001
0000
0100
0000
0010
0100
0010
0000
0001
0000
1000
0000
,
0020
0000
0000
0000
1030
0000
0000
0000
1001
0000
0000
0110
0000
0000
1100
0000
,
0100
0000
0100
0010
0001
0000
0000
0000
0100
0010
1000
0001
1000
0001
1000
0001
,
1000
0000
0100
0000
0001
0100
1000
0000
0001
0100
0010
0000
0100
0010
1000
0000
,
0001
0000
0100
0000
1000
0100
0001
0000
1000
0100
0010
0000
0100
0010
0001
0000
,
0100
0000
0010
1000
0100
0000
0010
0001
1000
0010
1000
0010
0100
0001
1000
0000
,
0100
0000
0010
0001
0100
0000
0001
0010
0100
0000
1000
0000
0210
0000
0000
0000
,
0301
0000
0010
0000
1000
0010
0001
0000
1000
0010
0100
0000
0010
0100
0001
0000
,
1000
0000
0010
0000
0001
0010
1000
0000
0001
0010
0100
0000
0010
0100
1000
0000
,
0010
0000
0100
0001
0010
0000
0100
1000
0010
0000
0100
0001
0000
0100
1000
0000
,
0100
0000
0010
0100
0001
0000
1000
0001
0100
0000
0001
1000
0010
0000
1000
0001
,
1000
0100
1000
0100
0010
0001
1000
0000
1000
0100
1000
0100
0010
0001
1000
0000
,
0001
0100
0001
0100
0010
1000
0001
0000
0001
0100
0001
0100
0010
1000
0001
0000
,
1000
0010
1000
0010
0100
0010
1000
0000
1000
0010
1000
0010
0100
0010
1000
0000
,
0001
0010
0001
0010
0100
0010
0001
0000
0001
0010
0001
0010
0100
0010
0001
0000
,
1000
0010
0100
0001
1000
0010
0001
0010
1000
0010
0100
0001
1000
0010
1000
0000
,
0001
0010
0100
1000
0001
0010
1000
0010
0001
0010
0100
1000
0001
1000
0001
0000
,
1000
0100
1000
0100
0010
0100
0010
0100
0010
0001
0010
0001
1000
0100
0001
0100
,
1000
0010
1000
0010
0100
0010
0100
0010
0100
0001
0100
0001
1000
0001
1000
0001
,
1000
0000
0001
0100
0010
0000
1000
0100
0010
0000
0001
0100
0010
0000
1000
0000
,
0010
0000
0001
0010
0100
0000
0010
1000
0001
0000
1000
0001
0100
0000
0001
1000
,
0001
0000
1000
0100
0010
0000
0001
0100
0010
0000
1000
0100
0010
0000
0001
0000
,
0010
0001
0010
0001
0100
0010
1000
0000
0010
1000
0010
1000
0100
0010
0001
0000
,
1001
0000
0001
1000
0100
0000
1000
0001
0100
0000
0001
1000
0100
0000
1000
0001
,
0010
0000
0011
0011
1001
1001
1100
1100
,
1001
0000
0001
0100
0010
0000
1000
0010
0100
0000
0001
0100
0010
0000
1000
0100
,
1000
0010
1000
0010
0100
0001
0100
0001
1000
0100
1000
0100
0010
0001
0010
0001
,
1000
0000
0001
0100
1000
0000
0100
0010
1000
0000
0010
0001
0010
0000
1000
0001
,
0010
0000
1100
1100
0110
0110
0011
0011
,
1001
0000
1000
0100
0001
0000
0100
0010
0001
0000
0010
1000
0010
0000
0001
1000
,
0020
0000
0000
0130
,
0001
1000
0100
0000
0000
0000
1000
0001
0100
0000
0000
0000
0001
1000
0010
0000
,
0000
0000
1000
0001
0010
0000
0000
0000
0001
0000
2001
0000
0000
0000
3010
0100
,
0110
0000
0000
0000
;

//--------------- dance-single - t7r ----------------
#NOTES:
     dance-single:
     t7r:
     Challenge:
     15:
     0.847,0.976,0.673,0.202,0.466:
0000
0000
0000
0000
,
0000
0000
0000
0000
,
0000
0000
0000
0000
,
0000
0000
0000
0000
,
0000
0000
0000
0000
,
0120
0000
0000
0000
,
0000
1030
0001
0001
0100
0100
0010
0100
,
1002
1000
1000
1003
,
1000
0100
0000
0000
0001
0100
0000
0000
1000
0010
0000
0000
0110
0000
0000
0000
,
1010
MMMM
0110
MMMM
1010
MMMM
0001
1000
,
0100
1000
0001
0010
0001
1000
0010
0100
,
0110
MMMM
0101
MMMM
0110
MMMM
1000
0100
,
0010
0000
0100
0000
1000
0000
0010
0000
1000
0000
0001
0000
0100
0000
0001
1000
,
0100
MMMM
1100
MMMM
0011
MMMM
1000
0010
,
0100
0000
0001
0000
0010
0000
0100
0000
0010
0000
0001
0000
1000
0000
0001
0100
,
0010
MMMM
0110
MMMM
1010
0000
0001
1001
,
0000
0100
0010
0100
0001
1000
1001
0000
,
1100
0000
0000
0000
1000
0000
0100
0010
0001
0000
0000
0001
0100
0000
0001
0000
,
0010
0000
0000
0010
0001
0000
1000
0000
0020
0000
0000
0000
0130
0000
0000
0000
,
0001
0100
0001
0100
0010
0000
0000
0000
1000
0100
1000
0100
0010
0000
0000
0000
,
0100
1000
0100
1000
0001
0000
0000
0000
0110
0000
0000
0000
0001
0100
0010
1000
,
0001
0000
0000
0000
0100
0000
0001
1000
0010
0000
0000
0010
1000
0000
0100
0000
,
0010
0000
0000
0010
0100
0000
1000
0000
0002
0000
0000
0000
0103
0000
0000
0000
,
0001
1000
0001
1000
0010
0000
0000
0000
1000
0001
1000
0001
0100
0000
0000
0000
,
0001
0000
1000
0010
1000
0000
0001
0000
0100
0000
0010
0000
0100
0000
0001
0000
,
1000
0000
0100
1000
0100
0000
1000
0010
1000
0000
0001
0000
0100
0000
0001
0000
,
0010
0000
0001
0010
0001
0000
0100
0001
0100
0000
0001
0000
1000
0000
0100
0000
,
0010
0000
0100
1000
0100
0000
1000
0001
1000
0000
0001
0100
0001
0000
0100
0000
,
0010
0000
0100
0001
0100
0000
0001
0010
0001
0000
1000
0100
1000
0000
0001
0000
,
1000
0000
0100
1000
0001
0000
1000
0001
0100
0000
0001
0000
1000
0010
1000
0010
,
0100
0000
0001
0010
0100
0000
0010
0001
1000
0000
0001
0000
0100
0010
0100
0010
,
1000
0000
0001
0100
0010
0000
1000
0100
0010
0000
0100
0000
1000
0001
1000
0001
,
0100
0000
0001
0100
0001
0000
0010
0001
0010
0000
0001
1000
0010
0000
0100
0000
,
1002
0000
1003
0200
0000
0320
0000
0130
,
1000
0000
0010
0000
0100
0000
0001
0000
1000
0001
1000
0001
0100
0000
0010
0000
,
0210
0000
0000
0000
0301
0000
0000
0000
1100
0000
0000
0011
0000
0000
1100
0000
,
0002
1003
0020
0130
,
2001
0000
3001
0020
0000
0230
0000
0310
,
0001
0000
1000
0000
0010
0000
0100
0000
0001
1000
0001
1000
0010
0000
0100
0000
,
0210
0000
0000
0000
0301
0000
0000
0000
1100
0000
0000
0101
0000
0000
1100
0000
,
2000
3001
0002
0103
,
0001
0010
1000
0010
0001
0010
1000
0010
,
0001
0000
0100
0000
1000
0000
0100
0000
0001
0000
0100
0000
0001
1000
0001
0000
,
1000
0000
0010
0000
0001
0000
0010
0000
1000
0000
0001
0010
0001
0010
0100
0000
,
1000
0100
0001
0100
1000
0001
0210
0000
,
0301
0100
1000
0100
0001
0100
1000
0100
,
0001
0000
0010
0000
1000
0000
0010
0000
0001
0000
1000
0000
0001
0100
0010
0000
,
1000
0000
0100
0000
0001
0000
0100
0000
1100
0000
0000
0011
0000
0000
0101
0000
,
2010
3100
1002
1003
,
0010
0000
1000
0000
0001
0100
0001
0100
0010
0000
1000
0000
0100
0000
0010
0000
,
0100
0000
1000
0000
0001
1000
0001
1000
0010
0000
0100
0000
0001
0000
1000
0000
,
0100
0000
0010
0000
0100
1000
0100
1000
0001
0000
0100
0000
0010
0000
0100
0000
,
0001
0000
0010
0000
0100
0010
0100
0010
0001
0000
1000
0000
0010
0000
0100
0000
,
0010
0000
1010
0000
1000
0001
1000
0001
1000
0000
1100
0000
0100
0010
0100
0010
,
0100
0000
0110
0000
0010
0001
0010
0001
0010
0000
0011
0000
0001
1000
0001
1000
,
0001
1001
0110
1001
,
0010
0100
0010
0100
0001
1000
0001
1000
0001
0010
0100
1000
0001
0100
1000
0100
,
0001
MMMM
1001
MMMM
0110
MMMM
1000
0100
,
0010
0100
1000
0010
0100
0002
0000
1003
,
0010
MMMM
0110
MMMM
1001
MMMM
0100
0010
,
1000
0100
0000
0000
0001
0100
0000
0000
1000
0010
0000
0000
0001
0010
0000
0000
,
1001
0010
0100
1000
0100
0001
0100
1000
,
0010
0000
1010
1010
1001
1001
0101
0101
,
0011
0000
0001
0100
1000
0100
0001
0100
,
0110
0110
1001
1001
0101
0101
1100
1100
,
0011
0000
1000
0100
0001
0100
1000
0010
,
1000
0000
0110
0110
1010
1010
0011
0011
,
1100
0000
0100
1000
0010
0001
0010
0100
,
0001
0000
1000
0001
0100
0000
0001
1000
0010
0000
1000
0100
0010
0000
0100
0000
,
1000
0001
1000
0000
0000
0000
0001
0100
0010
0000
0000
0000
1000
0100
0010
0000
,
0000
0000
0100
1000
0001
0000
0000
0000
1000
0000
2001
0000
0000
0000
3001
1001
,
1001
0000
0000
0000
;
