#TITLE:Battleground;
#SUBTITLE:;
#ARTIST:kors k;
#TITLETRANSLIT:;
#SUBTITLETRANSLIT:;
#ARTISTTRANSLIT:;
#GENRE:;
#CREDIT:;
#MENUCOLOR:;
#METERTYPE:DDR;
#BANNER:Battleground.png;
#BACKGROUND:Battleground-bg.png;
#LYRICSPATH:;
#CDTITLE:./CDTITLES/BEATMANIA IIDX.PNG;
#MUSIC:Battleground.ogg;
#OFFSET:0.000;
#SAMPLESTART:82.909;
#SAMPLELENGTH:15.000;
#SELECTABLE:YES;
#LISTSORT:;
#BPMS:0.000=165.000;
#STOPS:;
#BGCHANGES:0.000=Battleground.avi=1.000=0=0=0,
99999=-nosongbg-=1.000=0=0=0 // don't automatically add -songbackground-
;
#ATTACKS:;

//---------------dance-single - ----------------
#NOTES:
     dance-single:
     :
     Beginner:
     3:
     0.138,0.229,0.047,0.134,0.000:
0000
0000
0000
0000
,
0000
0000
0000
0000
,
0000
0000
0000
0000
,
0000
0000
0000
0000
,
0000
0000
0000
0000
,
0010
0000
0020
0000
,
0000
0000
0030
0000
,
0100
0000
0000
0000
,
0200
0000
0000
0000
,
0300
0000
0000
0000
,
0001
0000
0001
0000
,
1000
0000
0000
0000
,
1000
0000
1000
0000
,
0001
0000
0000
0000
,
0010
0000
0010
0000
,
0100
0000
0000
0000
,
0100
0000
0100
0000
,
0010
0000
0000
0000
,
1001
0000
0000
0000
,
0100
0000
0000
0000
,
1001
0000
0000
0000
,
0001
0000
1000
0000
,
0001
0000
0001
0000
,
1000
0000
0001
0000
,
1000
0000
0000
2000
,
3000
0000
0000
0000
,
0001
0000
0001
0000
,
0001
0000
0000
0000
,
1000
0000
1000
0000
,
1000
0000
0000
0000
,
0010
0000
0010
0000
,
0010
0000
0000
0000
,
0100
0000
0100
0000
,
0100
0000
0000
0000
,
0001
0000
1000
0000
,
0001
0000
0000
0000
,
1000
0000
0001
0000
,
1000
0000
0000
0000
,
0010
0000
0100
0000
,
0010
0000
0000
0000
,
0100
0000
0010
0000
,
0100
0000
0000
0000
,
0002
0003
0000
0000
,
2000
3000
0000
0000
,
0002
0003
0000
0000
,
2002
3003
0000
0000
,
2000
3000
0000
0000
,
0002
0003
0000
0000
,
2000
3000
0000
0000
,
0220
0330
0000
0000
,
0200
0300
0000
0000
,
0020
0030
0000
0000
,
0200
0300
0000
0000
,
0001
0000
0000
0000
,
0001
0000
0000
0000
,
1000
0000
1000
0000
,
1000
1000
1000
1000
,
1000
0000
0000
0000
,
0001
0000
0000
0000
,
0010
0000
0000
0000
,
0100
0000
0000
0000
,
1000
0000
0000
0000
,
0100
0000
0000
0000
,
0010
0000
0000
0000
,
0001
0000
0001
0000
,
0001
0000
0000
0000
,
1000
0000
0000
0000
,
0001
0000
0000
0000
,
0100
0000
0000
0000
,
0010
0000
0000
0000
,
1000
0000
0000
0000
,
0100
0000
0010
0000
,
0100
0000
0000
0000
,
1001
0000
0000
0000
,
0010
0000
0000
0000
,
1000
0000
0000
0000
,
0001
0000
0000
0000
,
0100
0000
0100
0000
,
0100
0000
0000
0000
,
0010
0000
0010
0000
,
0010
0000
0000
0000
,
2000
0000
0000
3000
,
0000
0000
0000
0000
,
1001
0000
0000
0000
;

//---------------dance-single - ----------------
#NOTES:
     dance-single:
     :
     Easy:
     6:
     0.313,0.360,0.142,0.181,0.000:
0000
0000
0000
0000
,
0000
0000
0000
0000
,
0000
0000
0000
0000
,
0000
0000
0000
0000
,
0000
0000
0000
0000
,
0010
0100
0002
0000
,
1000
1000
1003
0000
,
2000
3000
0200
0300
,
0010
0010
2002
3003
,
0100
0000
0100
0000
,
0010
1000
0001
0000
,
0100
0000
0100
0000
,
0010
0001
1000
0000
,
0001
0000
0001
0000
,
0010
0100
1000
0000
,
1000
0000
1000
0000
,
0010
0100
0001
0000
,
1001
0000
0010
0000
,
1001
0000
0100
0000
,
1001
0000
0001
0000
,
1001
0000
1000
0000
,
1001
0001
1001
0000
,
1001
1000
1001
0000
,
0010
0010
0100
0100
,
0010
0100
0010
0120
,
1030
1000
0001
1000
,
0001
0010
0100
1000
,
1000
1000
0001
1000
,
0001
0100
0010
1000
,
0001
0001
1000
0001
,
1000
0100
0010
0001
,
0100
0010
0100
0010
,
1000
0100
0010
0001
,
1001
1000
0001
0200
,
0301
1000
0001
0010
,
0100
0100
1000
0002
,
1003
0100
0010
0000
,
0100
0110
0001
1000
,
0010
0010
0100
0001
,
1000
0100
0010
0001
,
1000
0100
0010
0001
,
2001
0000
0000
0000
,
3020
0000
0000
0000
,
0230
0000
0000
0000
,
0302
0000
0000
0000
,
2003
0000
0000
0000
,
3200
0000
0000
0000
,
0302
0000
0000
0000
,
0203
0000
0000
0000
,
1300
1000
1000
0000
,
0001
0001
0001
0000
,
0110
0100
0100
0000
,
0010
0010
0010
0000
,
1000
1000
0010
0010
,
0100
0100
0001
0001
,
1000
0100
0010
0001
,
2000
0000
0000
3000
,
0001
0010
0001
0010
,
0100
1000
0100
1000
,
0001
0010
0100
1000
,
0001
0010
0100
1000
,
0001
1000
0001
1000
,
0010
0100
0010
0100
,
0010
0000
0100
0100
,
0010
1000
2002
3003
,
1000
0100
0010
0001
,
1000
0100
0010
0001
,
1000
0010
0100
0001
,
1000
0010
0100
0001
,
1000
0100
0010
0001
,
1000
0001
0100
0010
,
1000
0001
0100
0010
,
0100
0100
0220
0330
,
1001
0000
0001
0010
,
1000
0000
1000
0010
,
0001
0000
0001
0100
,
1000
0000
1000
0100
,
0001
0000
0100
0100
,
0010
1000
0001
0000
,
0100
0000
0010
0010
,
1000
0001
0010
0000
,
0200
0000
0020
0000
,
0000
0000
0000
0330
,
1001
0000
0000
0000
;

//---------------dance-single - ----------------
#NOTES:
     dance-single:
     :
     Medium:
     11:
     0.500,0.458,0.173,0.158,0.272: // measure 1
0000
0000
0000
0000
,  // measure 2
0000
0000
0000
0000
,  // measure 3
0000
0000
0000
0000
,  // measure 4
0000
0000
0000
0000
,  // measure 5
0000
0000
0000
0000
,  // measure 6
0001
1000
0002
2003
,  // measure 7
3010
0100
0010
0100
0020
0000
0030
0000
,  // measure 8
0110
0100
0001
1000
,  // measure 9
0002
2003
0002
3003
,  // measure 10
1000
0000
0000
0000
0100
0000
0000
0000
0010
0000
0000
0100
0000
0000
1000
0000
,  // measure 11
0000
0000
0001
0000
0000
1000
0000
0000
0001
0000
0000
0100
0000
0000
0100
0000
,  // measure 12
0010
0000
0000
0000
0100
0000
0000
0000
0001
0000
0000
0010
0000
0000
0100
0000
,  // measure 13
0000
0000
0010
0000
0000
0001
0000
0000
1000
0000
0000
0001
0000
0000
1000
0000
,  // measure 14
0010
0000
0000
0000
0100
0000
0000
0000
0010
0000
0000
1000
0000
0000
0001
0000
,  // measure 15
0000
0000
1000
0000
0000
0100
0000
0000
0010
0000
0000
0100
0000
0000
1000
0000
,  // measure 16
0001
0000
0000
0000
0100
0000
0000
0000
1000
0000
0000
0100
0000
0000
0001
0000
,  // measure 17
0000
0000
1000
0000
0000
0010
0000
0000
0001
0000
0000
0010
0000
0000
1000
0000
,  // measure 18
0001
0000
0000
0000
1000
0000
0000
0000
0001
0000
0000
1000
0000
0000
0001
0000
,  // measure 19
0100
0000
0010
0000
0000
1000
0000
0000
0001
0000
0000
1000
0000
0000
0100
0000
,  // measure 20
0010
0000
0000
0000
0100
0000
0000
0000
1000
0000
0000
0001
0000
0000
0100
0000
,  // measure 21
0010
0000
0100
0000
0000
0001
0000
0000
1000
0000
0000
0001
0000
0000
0010
0000
,  // measure 22
0100
0110
0001
1001
,  // measure 23
0010
0110
1000
1001
,  // measure 24
1000
1000
1000
0000
0001
0001
0001
0000
,  // measure 25
0100
0010
0100
2001
,  // measure 26
3010
0000
0000
0000
0110
0000
0000
0000
0001
0000
0000
0100
0000
0000
0001
0000
,  // measure 27
0000
0000
1000
0000
0000
0100
0000
0000
0010
0000
0000
0100
0000
0000
1000
0000
,  // measure 28
0001
0000
0000
0000
0101
0000
0000
0000
1000
0000
0000
0010
0000
0000
1000
0000
,  // measure 29
0000
0000
0001
0000
0000
0010
0000
0000
0100
0000
0000
0010
0000
0000
0001
0000
,  // measure 30
1000
0000
0000
0000
1001
0000
0000
0000
0010
0000
0000
0100
0000
0000
0001
0000
,  // measure 31
0000
0000
1000
0000
0000
0100
0000
0000
0010
0000
0000
0001
0000
0000
1000
0000
,  // measure 32
0010
0100
0001
0000
0010
0100
1000
0000
,  // measure 33
0001
0010
0100
1000
0002
0000
0003
0000
,  // measure 34
1000
0000
0000
0000
1001
0000
0000
0000
0001
0000
0000
0100
0000
0000
0001
0000
,  // measure 35
1000
0000
0001
0000
0000
1000
0000
0000
0100
0000
0000
0010
0000
0000
0100
0000
,  // measure 36
1000
0000
0000
0000
1100
0000
0000
0000
0010
0000
0000
0001
0000
0000
1000
0000
,  // measure 37
0010
0000
0100
0000
0000
0010
0000
0000
1000
0000
0000
0001
0000
0000
1000
0000
,  // measure 38
0001
0000
0000
0000
1001
0000
0000
0000
0100
0000
0000
0010
0000
0000
0100
0000
,  // measure 39
0001
0000
0010
0000
0000
0001
0000
0000
1000
0000
0000
0100
0000
0000
1000
0000
,  // measure 40
0100
0010
0001
0000
0100
0010
1000
0000
,  // measure 41
0010
1000
0100
0000
0010
0001
0100
0000
,  // measure 42
1001
0000
0010
0000
0100
0000
0000
0001
,  // measure 43
2000
0000
0100
0000
3010
0000
0000
1000
,  // measure 44
0002
0000
0100
0000
0013
0000
0000
0010
,  // measure 45
2000
0001
3100
0000
,  // measure 46
1001
0000
0010
0000
0100
0000
0000
0001
,  // measure 47
0020
0000
0100
0000
1030
0000
0000
1000
,  // measure 48
0200
0000
0001
0000
0310
0000
0000
0001
,  // measure 49
2000
0001
3100
0000
,  // measure 50
1001
0000
0000
0010
0000
0000
1000
0000
0001
0000
0000
0010
0000
0000
0000
0000
,  // measure 51
1001
0000
0000
0010
0000
0000
0001
0000
1000
0000
0000
0010
0000
0000
0000
0000
,  // measure 52
1000
0000
0000
0100
0000
0000
0010
0000
0001
0000
0000
1000
0000
0000
0000
0000
,  // measure 53
0001
0000
0000
0100
0000
0000
0010
0000
1000
0000
0000
0001
0000
0000
1000
0000
,  // measure 54
0100
0100
0010
0010
,  // measure 55
0001
0001
1000
1000
,  // measure 56
0001
0100
0001
0000
1000
0100
1000
0000
,  // measure 57
2002
0000
0000
3003
,  // measure 58
1000
0000
0000
0010
0000
0000
0010
0000
1000
0000
0000
0010
0000
0000
0010
0000
,  // measure 59
1000
0000
0000
0001
0000
0000
0001
0000
1000
0000
0000
0001
0000
0000
0001
0000
,  // measure 60
0010
0000
0000
0100
0000
0000
0100
0000
0010
0000
0000
0100
0000
0000
0100
0000
,  // measure 61
0010
0000
0000
0001
0000
0000
1000
0000
0001
0000
0000
0100
0000
0000
0001
0000
,  // measure 62
1000
0000
0000
0010
0000
0000
0010
0000
1000
0000
0000
0010
0000
0000
0010
0000
,  // measure 63
1000
0000
0000
0100
0000
0000
0100
0000
0010
0000
0000
0001
0000
0000
1000
0000
,  // measure 64
0001
0100
0001
0000
1000
0010
1000
0000
,  // measure 65
0001
0100
0100
0100
0020
0000
0030
0000
,  // measure 66
1000
0000
0000
0001
0000
0000
1000
0000
0001
0000
0000
0010
0000
0000
0001
0000
,  // measure 67
1000
0000
0000
0100
0000
0000
0010
0000
0001
0000
0000
0100
0000
0000
0010
0000
,  // measure 68
1000
0000
0000
0010
0000
0000
0001
0000
0010
0000
0000
1000
0000
0000
0001
0000
,  // measure 69
0010
0000
0000
1000
0000
0000
0010
0000
0001
0000
0000
1000
0000
0000
0001
0000
,  // measure 70
0100
0000
0000
1000
0000
0000
0100
0000
0001
0000
0000
0100
0000
0000
1000
0000
,  // measure 71
0010
0000
0000
0100
0000
0000
1000
0000
0001
0000
0000
1001
0000
0000
0100
0000
,  // measure 72
0010
1000
0100
0000
0010
0001
0100
0000
,  // measure 73
0001
0001
1000
1000
2000
0000
3000
0000
,  // measure 74
0010
0000
1000
0010
0100
0010
1000
0001
,  // measure 75
0000
0001
0010
0100
0010
0001
1000
0000
,  // measure 76
0100
0000
0010
0100
1000
0100
0010
0001
,  // measure 77
0000
0100
0010
1000
0010
0100
0001
0000
,  // measure 78
1000
0100
1000
0001
1000
0000
1001
0000
,  // measure 79
0001
0100
0001
1000
0001
0000
1001
0000
,  // measure 80
0100
0000
0010
0010
0010
0000
1000
0001
,  // measure 81
0100
0100
0001
0001
1000
1000
0001
0000
,  // measure 82
0210
0001
2000
3000
,  // measure 83
0001
0000
0000
0000
0010
0000
0000
0000
0301
0000
0000
0001
0000
0000
1000
0000
,  // measure 84
1001
0000
0000
0000
;

//---------------dance-single - ----------------
#NOTES:
     dance-single:
     :
     Hard:
     15:
     0.760,0.752,0.654,0.150,0.555: // measure 1
0000
0000
0000
0000
,  // measure 2
0000
0000
0000
0000
,  // measure 3
0000
0000
0000
0000
,  // measure 4
0000
0000
0000
0000
,  // measure 5
0000
0000
0000
0000
,  // measure 6
1010
0100
1002
1003
,  // measure 7
0001
0010
0100
1000
0100
0100
0010
0000
,  // measure 8
1002
0013
0100
0110
,  // measure 9
1001
0000
0110
0000
2001
0000
3010
1000
,  // measure 10
0100
0000
0000
0000
1100
0000
0000
0000
0011
0000
0000
0001
0010
0000
0001
0000
,  // measure 11
1000
0000
0010
0000
0100
0010
0000
0000
1010
0000
0000
0010
0100
0000
0010
0000
,  // measure 12
1000
0000
0000
0000
1100
0000
0000
0000
0011
0000
0000
0001
1000
0000
0001
0000
,  // measure 13
0010
0000
0001
0000
0100
0010
0000
0000
0110
0000
0000
0010
0100
0000
0001
0000
,  // measure 14
1000
0000
0000
0000
1001
0000
0000
0000
1010
0000
0000
0010
1000
0000
0100
0000
,  // measure 15
0010
0000
0100
0000
1000
0100
0000
0000
1100
0000
0000
0100
1000
0000
0010
0000
,  // measure 16
0100
0000
0000
0000
0110
0000
0000
0000
0101
0000
0000
0001
0100
0000
0001
0000
,  // measure 17
0010
0000
0001
0000
1000
0001
0000
0000
0011
0000
0000
0001
1000
0000
0010
0000
,  // measure 18
1001
0000
0000
0000
0110
0000
0000
0000
1001
0000
0000
0100
0010
0000
0100
0000
,  // measure 19
1001
0000
0001
0000
0100
0000
0000
0000
0101
0000
0000
0100
0010
0000
0100
0000
,  // measure 20
1001
0000
0000
0000
0101
0000
0000
0000
1100
0000
0000
0100
0010
0000
0100
0000
,  // measure 21
1001
0000
1000
0000
0010
0000
0000
0000
1001
0000
0000
0010
1000
0000
0010
0000
,  // measure 22
1001
0010
1001
0100
,  // measure 23
1001
1000
1001
0001
,  // measure 24
1001
1000
1001
0001
0110
0010
0110
0100
,  // measure 25
0120
0100
0130
1002
,  // measure 26
1003
0000
0000
0000
1100
0000
0000
0000
0011
0000
0000
0001
0010
0000
0001
0000
,  // measure 27
0100
0000
0001
0000
1000
0100
0000
0000
1100
0000
0000
0100
1000
0000
0010
0000
,  // measure 28
0100
0000
0000
0000
0110
0000
0000
0000
1010
0000
0000
0010
1000
0000
0001
0000
,  // measure 29
0010
0000
0001
0000
0100
0001
0000
0000
0101
0000
0000
0001
0100
0000
0001
0000
,  // measure 30
1000
0000
0000
0000
1001
0000
0000
0000
1010
0000
0000
0010
1000
0000
0001
0000
,  // measure 31
1000
0000
0100
0000
0010
0001
0000
0000
0011
0000
0000
0001
0100
0000
0010
0000
,  // measure 32
0100
0000
0100
0000
0001
0000
1000
0001
0100
0001
1000
0000
0002
0000
0000
0000
,  // measure 33
1003
0000
1000
0000
0001
0000
1000
0001
0010
0001
1000
0000
0010
0000
0100
0000
,  // measure 34
0110
0000
0000
0000
1010
0000
0000
0000
1001
0000
1000
0100
0000
1000
0001
0000
,  // measure 35
0100
0000
0010
0000
0100
0001
0000
0000
0101
0000
0000
0001
0100
0000
0001
0000
,  // measure 36
1000
0000
0000
0000
1001
0000
0000
0000
0011
0000
0001
0010
0000
0001
1000
0000
,  // measure 37
0100
0000
0100
0000
0010
0100
0000
0000
1100
0000
0000
0011
0000
0000
1001
0000
,  // measure 38
0110
0000
0000
0000
1001
0000
0000
0000
1010
0000
0010
1000
0000
0001
1000
0000
,  // measure 39
0001
0000
0010
0000
0100
1000
0000
0000
1100
0000
0000
1000
0100
0000
0010
0000
,  // measure 40
0100
0000
0100
0000
1000
0000
0001
0100
0010
0100
0001
0000
1000
0000
0001
1000
,  // measure 41
0010
0000
0010
0000
1000
0000
0100
0010
0001
0010
0100
0000
1000
0000
0001
0000
,  // measure 42
0110
0000
0010
0000
1000
0000
0100
0010
,  // measure 43
0002
0000
0100
0000
0013
0000
0100
0010
,  // measure 44
2000
0000
0100
3000
0010
0000
0100
0010
,  // measure 45
0002
0000
0100
0000
0013
0000
0100
0010
,  // measure 46
2001
0000
0100
0000
3001
0000
0100
0010
,  // measure 47
0200
0000
0010
0000
1300
0000
0010
0100
,  // measure 48
0020
0000
0100
0000
0031
0000
0100
0001
,  // measure 49
2000
0000
0100
0010
3020
0000
0230
0000
,  // measure 50
0310
0000
0000
1000
0000
0000
0001
0000
0100
0000
0000
0001
0000
0000
1000
0000
,  // measure 51
0100
0000
0000
0010
0000
0000
0001
0000
1000
0000
0000
0001
0000
0000
0100
0000
,  // measure 52
1001
0000
0000
0010
0000
0000
1000
0000
0001
0000
0000
1000
0000
0000
0001
0000
,  // measure 53
0010
0000
0000
0100
0000
0000
0010
0000
0001
0100
0000
0100
0000
0000
0010
0000
,  // measure 54
0110
1000
0100
0001
0100
1000
0100
0001
,  // measure 55
0010
1000
0010
0001
0010
1000
0010
0001
,  // measure 56
0010
0100
0100
0001
0001
1000
1000
0001
,  // measure 57
0001
0000
0010
0000
0100
0000
1000
0000
0001
1000
0100
1000
0002
0000
0000
0000
,  // measure 58
1003
0010
0000
0100
0000
0100
0001
0000
1000
0010
0000
0100
0000
0100
0001
0000
,  // measure 59
1000
0010
0000
0100
0000
0100
0010
0000
1000
0100
0000
0010
0000
0010
0001
0000
,  // measure 60
0001
0010
0000
0100
0000
0100
1000
0000
0001
0010
0000
0100
0000
0100
1000
0000
,  // measure 61
0001
0010
0000
0100
0000
0100
0010
0000
0001
0000
1000
0100
1000
0000
0001
0100
,  // measure 62
0001
1000
0000
0010
0000
1000
0001
0000
1000
0001
0000
0010
0000
0001
1000
0000
,  // measure 63
0001
1000
0000
0100
0000
1000
0001
0000
1000
0001
0000
0100
0000
0100
0001
0000
,  // measure 64
1000
0010
0100
0001
1000
1000
0001
0001
,  // measure 65
0100
0010
0010
0010
1001
0011
1001
1010
,  // measure 66
1000
0010
0000
0100
0000
0001
1000
0000
1000
0010
0000
0100
0000
0100
0001
0000
,  // measure 67
1000
0010
0000
0100
0000
0001
1000
0000
0001
0000
0010
0100
1000
0000
0001
0000
,  // measure 68
0001
0010
0000
0100
0000
0100
1000
0000
0001
0010
0000
0100
0000
1000
0001
0000
,  // measure 69
0001
0010
0000
0100
0000
0100
1000
0000
0001
0000
1000
0001
0100
0000
0001
1000
,  // measure 70
0001
1000
0000
0010
0000
0010
0100
0000
0001
1000
0000
0010
0000
0100
0010
0000
,  // measure 71
1000
0001
0000
0010
0000
0010
0100
0000
1000
0000
0001
0100
0001
0000
1000
0010
,  // measure 72
1000
0000
0001
0000
1000
0100
0000
0001
0100
0000
1000
0001
0000
0001
1000
0000
,  // measure 73
0001
0000
0100
0010
1000
0000
0010
0000
0100
0000
0010
0000
0100
0000
0010
0000
,  // measure 74
1001
0000
0000
0000
0001
0100
0001
0000
1000
0000
0000
1100
0000
0000
0101
0000
,  // measure 75
0000
0000
1000
0000
0010
0000
0100
0000
0001
0000
0000
1001
0000
0000
0110
0000
,  // measure 76
0000
0000
0001
0000
1000
0100
1000
0000
0011
0000
0000
1001
0000
0000
0101
0000
,  // measure 77
2000
0000
0000
3010
0000
0010
0100
0000
0110
0000
0000
1001
0000
0000
0110
0000
,  // measure 78
0101
0000
0001
0010
0100
1000
0001
0010
,  // measure 79
1000
0010
0001
0100
1000
0100
0001
1000
,  // measure 80
0001
0000
0000
0000
1000
0100
1000
0000
0001
0000
0001
0000
1000
0000
1000
0000
,  // measure 81
0010
0000
0100
0001
1000
0000
0001
0000
1000
0000
1000
0000
0001
0000
0001
0000
,  // measure 82
0210
0001
2000
3000
,  // measure 83
0001
0000
0000
0000
0010
0000
0000
0000
0301
0000
0000
1000
0000
1000
0001
0000
,  // measure 84
1001
0000
0000
0000
;

//---------------dance-single - ----------------
#NOTES:
     dance-single:
     :
     Challenge:
     16:
     0.937,0.948,0.520,0.189,0.953: // measure 1
0000
0000
0000
0000
,  // measure 2
0000
0000
0000
0000
,  // measure 3
0000
0000
0000
0000
,  // measure 4
0000
0000
0000
0000
,  // measure 5
0000
0000
0000
0000
,  // measure 6
1001
0000
0110
0000
2010
0000
3001
0100
,  // measure 7
0001
0010
0100
1000
0210
0000
0301
0000
,  // measure 8
0110
0000
0000
0000
1010
0000
0000
0000
0102
0000
0000
0000
1003
0000
0100
0010
,  // measure 9
0001
0011
2001
3010
,  // measure 10
0110
0000
0010
0100
0001
0000
0010
0100
1000
0000
0001
0010
0000
0001
1000
0000
,  // measure 11
0001
0000
0100
0010
1000
0000
0010
0100
0001
0000
1000
0100
0000
1000
0001
0000
,  // measure 12
1000
0000
0010
0100
0001
0000
0100
0010
1000
0000
0010
1000
0000
0001
1000
0000
,  // measure 13
0001
0000
0010
0001
0100
0000
0010
1000
0100
0000
0010
0100
0000
1000
0100
0000
,  // measure 14
0010
0000
0001
1000
0010
0000
0100
0001
1000
0000
0010
0100
0000
0001
0100
0000
,  // measure 15
0010
0000
1000
0100
0010
0000
0001
0100
0010
0000
0100
0001
0000
1000
0001
0000
,  // measure 16
0010
0000
0001
1000
0010
0000
1000
0001
0100
0000
0001
1000
0000
0010
1000
0000
,  // measure 17
0100
0000
0010
0100
1000
0000
0010
0100
0001
0000
1000
0010
0100
0001
1000
0000
,  // measure 18
1001
0000
0000
0000
1010
0000
0000
0000
1001
0000
0000
0100
0010
0000
0100
0000
,  // measure 19
1001
0000
0010
0000
0100
0010
0000
0000
0011
0000
0000
0001
1000
0000
0001
0000
,  // measure 20
1001
0000
0000
0000
1010
0000
0000
0000
1001
0000
0000
0100
0010
0000
0100
0000
,  // measure 21
1001
0000
0010
0000
0100
0001
0000
0000
0011
0000
0000
0001
1000
0000
0001
0000
,  // measure 22
1001
0000
0000
0000
1010
0000
0000
0000
1001
0000
0000
0100
0010
0000
0100
0000
,  // measure 23
1001
0000
0000
0000
0011
0000
0000
0000
1001
0000
0000
0100
0010
0000
0100
0000
,  // measure 24
1001
0001
1001
1000
1010
0010
0110
0100
,  // measure 25
0101
0000
0001
1000
0100
0000
1000
0001
0010
0000
0001
1000
0002
0000
0000
0000
,  // measure 26
1003
0000
0000
0100
1000
0000
0000
0001
1000
0000
0010
1000
0000
1000
0001
0000
,  // measure 27
1000
0000
0100
0010
0001
0000
0100
0010
1000
0000
0010
0100
0000
0100
0001
0000
,  // measure 28
1000
0000
0000
0001
0010
0000
0000
0001
0100
0000
0001
0010
0000
0010
0001
0000
,  // measure 29
1000
0000
0100
1000
0010
0000
0100
0010
1000
0000
0010
0100
0000
0100
0001
0000
,  // measure 30
1001
0000
0000
0100
0010
0000
0000
1000
0010
0000
0100
0010
0000
0010
1000
0000
,  // measure 31
0001
0000
0010
0001
0100
0000
0010
1000
0100
0000
0010
0100
0000
0100
1000
0000
,  // measure 32
0100
0000
0100
0000
0010
0000
0001
0100
0010
0100
0001
0000
2000
0000
3001
0100
,  // measure 33
0010
0000
0010
0000
0100
0000
0001
1000
0100
1000
0001
0000
0020
0000
0130
0010
,  // measure 34
0001
0000
0000
0000
0011
0000
0000
0000
0101
0000
0001
0100
0000
1000
0100
0000
,  // measure 35
0001
0000
1000
0001
0100
0000
0001
1000
0010
0000
1000
0010
0000
0001
0010
0000
,  // measure 36
1000
0000
0000
0000
1001
0000
0000
0000
1100
0000
1000
0100
0000
0001
0100
0000
,  // measure 37
1000
0000
0001
1000
0010
0000
0100
0010
1000
0000
0010
0100
0000
0001
0100
0000
,  // measure 38
0110
0000
0000
0000
1001
0000
0000
0000
0011
0000
1000
0010
0000
0001
0010
0000
,  // measure 39
1000
0000
0100
0010
0001
0000
0010
0100
1000
0000
0010
0100
0000
0001
0100
0000
,  // measure 40
0010
0000
0010
0000
0100
0000
0001
1000
0100
1000
0001
0000
0020
0000
0130
0010
,  // measure 41
0001
0000
0001
0000
0100
0000
0010
1000
0100
1000
0010
0000
0200
0000
0301
1000
,  // measure 42
0200
0000
1000
0000
0001
0000
1300
0011
,  // measure 43
0200
0000
0001
0000
0010
0000
0301
1010
,  // measure 44
0200
0000
0010
0000
0001
0000
1300
0011
,  // measure 45
0200
0000
1000
0000
0010
0000
0301
0100
,  // measure 46
2010
0000
0001
0000
0100
0000
3001
1100
,  // measure 47
0020
0000
0001
0000
0100
0000
1030
0101
,  // measure 48
0020
0000
0100
0000
1000
0000
0031
1100
,  // measure 49
0020
0000
0130
0010
0020
0000
0230
0000
,  // measure 50
1300
0000
0100
0010
0000
0010
0001
0000
1000
0000
0100
0010
0000
0010
0001
0000
,  // measure 51
1000
0000
0010
0100
0000
0100
0001
0000
1000
0000
0010
0100
0000
0100
0001
0000
,  // measure 52
1001
0000
0010
0100
0000
0100
1000
0000
0001
0000
0010
0100
0000
0100
1000
0000
,  // measure 53
0001
0000
0100
0010
0000
0010
1000
0000
0010
0000
0100
0001
0100
0000
0001
1000
,  // measure 54
0001
0000
0010
0100
1000
0000
0100
0010
0001
0000
0100
0010
1000
0000
0010
0100
,  // measure 55
0001
0000
1000
0001
0100
0000
0001
1000
0010
0000
1000
0001
0100
0000
0001
0010
,  // measure 56
0001
0100
0001
0100
0010
1000
0010
1000
0001
0010
0001
0010
0100
1000
0100
1000
,  // measure 57
0001
0000
0100
0001
0100
0000
0001
1000
0001
0000
1000
0100
0010
0100
1000
0000
,  // measure 58
0001
0010
0001
1000
0000
1000
0010
0000
1000
0010
1000
0001
0000
0001
0010
0000
,  // measure 59
0001
0100
0001
1000
0000
1000
0010
0000
1000
0100
1000
0001
0000
0001
0100
0000
,  // measure 60
0010
0100
0010
1000
0000
1000
0010
0000
0100
0010
0100
0001
0000
0001
0100
0000
,  // measure 61
0001
0010
0001
0100
0000
0100
0010
0000
1000
0000
0001
1000
0100
0000
1000
0001
,  // measure 62
0010
0001
0100
0010
0000
0010
1000
0000
0010
0100
0001
0010
0000
0010
0100
0000
,  // measure 63
1000
0100
0010
0100
0000
0100
1000
0000
0010
0100
0010
1000
0000
1000
0001
0000
,  // measure 64
1000
0001
1000
1001
0010
0110
0101
0110
,  // measure 65
1000
0000
0100
0010
0001
0000
1000
0000
0001
0000
1001
0000
0101
0000
1001
0000
,  // measure 66
0001
0010
0001
0100
0000
0100
0010
0000
1000
0010
0100
0001
1000
0000
0001
0000
,  // measure 67
1000
0010
0100
0010
0000
0010
1000
0000
0001
0010
0100
1000
0001
0000
1000
0000
,  // measure 68
0001
0100
0010
0100
0000
0100
0001
0000
1000
0100
0010
0100
1000
0000
0001
0000
,  // measure 69
1000
0010
0100
0010
0000
0010
1000
0000
0001
0010
0100
0010
0001
0000
1000
0000
,  // measure 70
0001
0100
0010
1000
0000
1000
0001
0000
1000
0100
1000
0001
0000
0001
0100
0000
,  // measure 71
0010
0100
0010
1000
0000
1000
0001
0000
0010
0100
0010
0001
0000
0001
1000
0000
,  // measure 72
0001
0100
0010
0000
0100
0010
0000
0010
1000
0000
0100
1000
0001
0000
1000
0000
,  // measure 73
0001
0000
0100
0001
1000
0000
0001
0000
1000
0000
0010
0000
0100
0000
0110
0000
,  // measure 74
1001
0000
0000
0000
0010
0100
0001
0100
0010
1000
0100
0010
0100
0010
0001
0000
,  // measure 75
0100
0000
0020
0000
0130
0000
0001
0100
0010
0100
0001
0010
0100
1000
0001
1000
,  // measure 76
0100
0000
1000
0100
0000
1000
0001
0000
0100
0010
1000
0010
0100
0000
0001
0010
,  // measure 77
0200
0000
0310
0001
0000
0001
1000
0000
0002
0000
0103
0010
0000
0010
1000
0000
,  // measure 78
0001
0000
0000
0000
1000
0100
0010
0100
1000
0000
0001
0100
0001
1000
0001
0000
,  // measure 79
0010
0000
0011
0000
0110
0000
1100
0000
2001
0000
3010
0100
0001
0100
0010
0000
,  // measure 80
1000
0000
0000
0000
0010
0100
0010
0100
0001
1000
0001
1000
0001
0010
0100
1000
,  // measure 81
0001
0000
0101
0000
1100
0000
0011
0000
1001
0000
0100
0010
1000
0001
0100
0000
,  // measure 82
2001
0010
0100
0001
,  // measure 83
0010
0000
0000
0000
0100
0000
0000
0000
3001
0000
1000
0001
0000
0001
1000
0000
,  // measure 84
1001
0000
0000
0000
;
