#TITLE:BLACK.by X-Cross Fade;
#SUBTITLE:;
#ARTIST:DJ Mass MAD Izm*;
#TITLETRANSLIT:;
#SUBTITLETRANSLIT:;
#ARTISTTRANSLIT:;
#GENRE:;
#CREDIT:;
#MENUCOLOR:;
#METERTYPE:DDR;
#BANNER:BLACK.by X-Cross Fade.png;
#BACKGROUND:BLACK.by X-Cross Fade-bg.png;
#LYRICSPATH:;
#CDTITLE:./CDTITLES/BEATMANIA IIDX.PNG;
#MUSIC:BLACK.by X-Cross Fade.ogg;
#OFFSET:-1.472;
#SAMPLESTART:7.340;
#SAMPLELENGTH:15.000;
#SELECTABLE:YES;
#LISTSORT:;
#BPMS:0.000=163.000;
#STOPS:250.500=0.36809815950920245398773006134969
;
#BGCHANGES:-4.000=BLACK.by X-Cross Fade.avi=1.000=0=0=0,
99999=-nosongbg-=1.000=0=0=0 // don't automatically add -songbackground-
;
#ATTACKS:;

//---------------dance-single - ----------------
#NOTES:
     dance-single:
     :
     Beginner:
     2:
     0.105,0.158,0.009,0.000,0.000: // measure 1
0000
0000
0000
0000
,  // measure 2
0000
0000
0000
0000
,  // measure 3
0000
0000
0000
0000
,  // measure 4
0000
0000
0000
0000
,  // measure 5
1000
0000
0000
0000
,  // measure 6
0001
0000
0000
0000
,  // measure 7
0100
0000
0000
0000
,  // measure 8
0010
0000
0000
0000
,  // measure 9
1000
0000
0000
0000
,  // measure 10
0001
0000
0000
0000
,  // measure 11
1000
0000
0000
0000
,  // measure 12
0100
0000
0000
0000
,  // measure 13
0000
0010
0000
0010
,  // measure 14
0010
0000
0000
0000
,  // measure 15
0000
0001
0000
0001
,  // measure 16
0001
0000
0000
0000
,  // measure 17
0000
1000
0000
1000
,  // measure 18
1000
0000
0000
0000
,  // measure 19
0000
0100
0000
0100
,  // measure 20
0100
0000
0000
0000
,  // measure 21
1000
0000
0000
0000
,  // measure 22
0001
0000
0000
0000
,  // measure 23
0100
0000
0000
0000
,  // measure 24
0010
0000
0000
0000
,  // measure 25
1000
0000
0000
0000
,  // measure 26
0001
0000
0000
0000
,  // measure 27
0010
0000
0000
0000
,  // measure 28
0100
0000
0000
0000
,  // measure 29
0010
0000
0000
0010
,  // measure 30
0010
0000
0000
0001
,  // measure 31
0001
0000
0000
1000
,  // measure 32
1000
0000
0000
0000
,  // measure 33
0010
0000
0000
1000
,  // measure 34
1000
0000
0000
0001
,  // measure 35
0001
0000
0000
0100
,  // measure 36
0100
0000
0000
0000
,  // measure 37
0010
0000
0000
0000
,  // measure 38
1000
0000
0000
0000
,  // measure 39
0001
0000
0000
0000
,  // measure 40
0100
0000
0000
0000
,  // measure 41
0001
0000
0000
0000
,  // measure 42
1000
0000
0000
0000
,  // measure 43
0100
0000
0000
0000
,  // measure 44
0010
0000
0000
0000
,  // measure 45
1001
0000
0000
0000
,  // measure 46
0000
0000
0000
0000
,  // measure 47
0100
0000
0000
0000
,  // measure 48
0000
0000
0000
0000
,  // measure 49
0010
0000
0000
0000
,  // measure 50
1000
0000
0000
0000
,  // measure 51
0001
0000
0000
0000
,  // measure 52
0100
0000
0000
0000
,  // measure 53
0001
0000
0000
1000
,  // measure 54
1000
0000
0000
0001
,  // measure 55
0001
0000
0000
0100
,  // measure 56
0100
0000
0000
0010
,  // measure 57
0010
0000
0000
0000
,  // measure 58
0010
0000
0000
0000
,  // measure 59
0100
0000
0000
0000
,  // measure 60
0100
0000
0000
0000
,  // measure 61
0001
0000
0000
0000
,  // measure 62
0001
0000
0000
0000
,  // measure 63
1000
0000
0000
0000
,  // measure 64
0000
1000
0000
0000
,  // measure 65
0000
0001
0000
0000
,  // measure 66
0000
0010
0000
0000
,  // measure 67
0000
0100
0000
0100
,  // measure 68
0000
0000
0000
0010
,  // measure 69
0000
0000
0000
0001
,  // measure 70
0000
0000
0000
1000
,  // measure 71
0000
0000
0000
0010
,  // measure 72
0000
0000
0000
0100
,  // measure 73
0000
0000
0000
0001
,  // measure 74
0000
0001
0000
1000
,  // measure 75
0000
1000
0000
0000
;

//---------------dance-single - ----------------
#NOTES:
     dance-single:
     :
     Easy:
     6:
     0.292,0.413,0.145,0.068,0.000: // measure 1
0000
0000
0000
0000
,  // measure 2
0000
0000
0000
0000
,  // measure 3
0000
0000
0000
0000
,  // measure 4
0000
0000
0000
0000
,  // measure 5
0010
0000
0010
0000
,  // measure 6
1000
0000
1000
0001
,  // measure 7
1000
0000
1000
0000
,  // measure 8
0100
0000
0100
0010
,  // measure 9
0100
0000
0100
0000
,  // measure 10
0010
0000
0010
0001
,  // measure 11
1000
0000
0001
0000
,  // measure 12
1000
1000
0001
0001
,  // measure 13
0100
0000
0110
0000
,  // measure 14
0001
0010
0100
1000
,  // measure 15
0100
0000
0110
0000
,  // measure 16
1000
0100
0010
0001
,  // measure 17
0010
0000
1001
0000
,  // measure 18
0100
0001
1000
0010
,  // measure 19
0100
0000
1001
0000
,  // measure 20
0010
1000
0001
0100
,  // measure 21
0010
0010
0010
0010
,  // measure 22
1000
1000
1000
1000
,  // measure 23
0001
0001
0100
0100
,  // measure 24
0010
1000
0002
0003
,  // measure 25
1000
1000
1000
1000
,  // measure 26
0100
0100
0100
0100
,  // measure 27
0010
0010
0001
0001
,  // measure 28
1000
0001
2000
3000
,  // measure 29
0001
1000
0000
1000
,  // measure 30
0010
0100
0000
0100
,  // measure 31
0001
1000
0000
1000
,  // measure 32
0001
0010
0200
0300
,  // measure 33
0010
0001
0000
0001
,  // measure 34
1000
0010
0000
0010
,  // measure 35
1000
0001
0000
0001
,  // measure 36
1000
0100
0020
0030
,  // measure 37
0001
0000
0001
0000
,  // measure 38
1000
0000
1000
0000
,  // measure 39
0010
0000
0010
0000
,  // measure 40
0200
0000
0000
0300
,  // measure 41
0010
0000
0010
0000
,  // measure 42
1000
0000
1000
0000
,  // measure 43
0001
0000
0001
0000
,  // measure 44
0100
0100
0200
0300
,  // measure 45
0010
0000
0010
0000
,  // measure 46
1000
0000
1000
0000
,  // measure 47
0001
0000
0001
0000
,  // measure 48
0100
0000
0100
0000
,  // measure 49
0010
1000
0001
0100
,  // measure 50
0010
1000
0001
0010
,  // measure 51
0001
0010
0100
1000
,  // measure 52
0100
0100
0100
0100
,  // measure 53
0010
0000
0001
1000
,  // measure 54
0001
0000
1000
0010
,  // measure 55
1000
0000
0001
0100
,  // measure 56
0001
0000
1000
0100
,  // measure 57
0010
0010
0010
0010
,  // measure 58
0001
1000
0001
1000
,  // measure 59
1001
0000
0100
0000
,  // measure 60
0010
1000
0001
0000
,  // measure 61
1000
0000
0100
0000
,  // measure 62
0010
0001
1000
0000
,  // measure 63
0100
0100
0100
0010
,  // measure 64
0010
0010
0010
0001
,  // measure 65
0001
0001
0001
1000
,  // measure 66
1000
1000
1000
0100
,  // measure 67
1000
0002
0003
1001
,  // measure 68
1000
0000
1000
0110
,  // measure 69
0001
0000
0001
0110
,  // measure 70
1000
0000
1000
0110
,  // measure 71
0001
0200
0300
0110
,  // measure 72
0001
0100
1000
0110
,  // measure 73
1000
0100
0001
0110
,  // measure 74
0001
0110
1000
0110
,  // measure 75
1001
0110
1001
0000
;

//---------------dance-single - ----------------
#NOTES:
     dance-single:
     :
     Medium:
     8:
     0.420,0.476,0.230,0.077,0.000: // measure 1
0000
0000
0000
0000
,  // measure 2
0000
0000
0000
0000
,  // measure 3
0000
0000
0000
0000
,  // measure 4
0000
0000
0000
0000
,  // measure 5
0010
0000
0000
0100
0000
0001
1000
0000
,  // measure 6
0001
0000
0000
0010
0000
0100
0000
1000
,  // measure 7
0100
0000
0000
1000
0000
0001
0010
0000
,  // measure 8
0001
0000
0000
1000
0000
0010
0000
0100
,  // measure 9
0010
0000
0000
1000
0000
0001
1000
0000
,  // measure 10
0001
0000
0000
0010
0000
0001
0000
1000
,  // measure 11
0001
0000
0000
0100
0000
0010
0100
0000
,  // measure 12
0010
0000
0000
1000
0000
0001
1000
0001
,  // measure 13
1000
0001
0010
1001
,  // measure 14
0001
0000
1000
0010
1000
0000
0001
0000
,  // measure 15
1000
0001
0100
1001
,  // measure 16
0001
0000
1000
0100
1000
0000
0001
0000
,  // measure 17
0100
0010
1000
0110
,  // measure 18
0001
0000
0010
0100
1000
0000
0001
0000
,  // measure 19
0100
0010
0001
0110
,  // measure 20
1000
0000
0001
1000
0100
0000
1000
0000
,  // measure 21
1010
0100
0000
0100
,  // measure 22
0011
0100
0000
0100
,  // measure 23
1010
0000
0101
0000
,  // measure 24
1100
0000
0001
1000
0002
0000
1003
0000
,  // measure 25
1100
0100
0100
0100
,  // measure 26
0011
0001
0001
0001
,  // measure 27
1001
1000
1001
0001
,  // measure 28
0110
0000
0010
1000
0200
0000
0310
0000
,  // measure 29
1001
0000
0001
1000
0001
0000
0001
0000
,  // measure 30
1000
0000
0010
1000
0010
0000
0010
0000
,  // measure 31
0100
0000
0001
0100
0001
0000
0001
0000
,  // measure 32
1000
0000
0100
0001
0100
0000
1000
0000
,  // measure 33
0001
0000
0100
0001
0100
0000
0100
0000
,  // measure 34
0010
0000
1000
0001
1000
0000
1000
0000
,  // measure 35
0001
0000
0100
0001
0100
0000
0010
0000
,  // measure 36
1000
0000
0010
0001
0010
0000
1000
0000
,  // measure 37
0001
0000
0000
0010
0000
0100
1000
0000
,  // measure 38
1000
0000
0000
0010
0000
0100
0001
0000
,  // measure 39
0001
0000
0000
1000
0000
0001
1000
0000
,  // measure 40
2002
0000
0000
3003
,  // measure 41
1000
0001
0000
0001
1000
0000
0100
0000
,  // measure 42
1000
0010
0000
0010
1000
0000
0001
0000
,  // measure 43
0100
0001
0000
0001
0100
0000
0010
0000
,  // measure 44
0100
0000
0010
0010
0010
0000
0010
0000
,  // measure 45
0120
0000
0000
1030
0000
0000
0000
0000
,  // measure 46
0002
0000
0000
0013
0000
0100
1000
0000
,  // measure 47
0200
0000
0000
0310
0000
0000
0000
0000
,  // measure 48
0002
0000
0000
1003
0000
0001
1000
0000
,  // measure 49
1001
0000
1000
0100
1000
0000
0100
0000
,  // measure 50
0010
0000
0001
1000
0001
0000
1000
0000
,  // measure 51
0010
0000
0100
0010
0100
0000
0010
0000
,  // measure 52
0100
0110
1001
0110
,  // measure 53
1001
0000
0000
0001
0000
0010
0000
0001
,  // measure 54
1000
0000
0000
1000
0000
0010
0000
1000
,  // measure 55
0001
0000
0000
1000
0000
0100
0000
0010
,  // measure 56
0001
0000
0000
0010
0000
0100
0000
1000
,  // measure 57
0100
1000
0001
0010
,  // measure 58
0001
1000
0001
1000
0001
1000
0001
0000
,  // measure 59
1000
0000
0010
0100
0000
0001
0100
0000
,  // measure 60
0001
0010
0000
0100
1000
0000
0100
0000
,  // measure 61
1000
0000
0001
1000
0000
0001
0010
0000
,  // measure 62
0001
0100
0000
0010
0100
0000
0010
0000
,  // measure 63
0100
0000
0001
1000
0001
1000
1001
0000
,  // measure 64
0010
1000
0100
1000
,  // measure 65
0010
0001
0100
0001
,  // measure 66
0010
1000
0100
1000
,  // measure 67
0100
0010
0001
0000
1000
0000
1001
0000
,  // measure 68
0001
0001
0001
0110
,  // measure 69
0100
0100
0100
1010
,  // measure 70
0010
0010
0010
1001
,  // measure 71
1000
0002
0003
1000
,  // measure 72
1000
0100
1000
0000
1000
0000
0001
0000
,  // measure 73
0001
0100
0001
0000
0001
0000
0100
0100
,  // measure 74
0100
0000
0010
0010
0010
0000
1000
1000
,  // measure 75
1000
0000
0001
0001
0001
0000
0000
0000
;

//---------------dance-single - ----------------
#NOTES:
     dance-single:
     :
     Hard:
     11:
     0.560,0.540,0.452,0.077,0.013: // measure 1
0000
0000
0000
0000
,  // measure 2
0000
0000
0000
0000
,  // measure 3
0000
0000
0000
0000
,  // measure 4
0000
0000
0000
0000
,  // measure 5
0010
0000
0010
1000
0100
1000
0010
0000
,  // measure 6
0100
0000
0100
0001
0010
0001
0100
0000
,  // measure 7
0001
0000
0001
1000
0001
0100
0010
0000
,  // measure 8
1000
0000
1000
0001
1000
0100
0010
0000
,  // measure 9
1001
0000
0100
0010
1000
0100
0010
0000
,  // measure 10
0001
0000
0010
0001
0100
0001
1000
0000
,  // measure 11
0010
0000
1000
0001
0100
0010
1000
0000
,  // measure 12
0100
0000
1000
0100
0010
0001
0100
0010
,  // measure 13
1001
0000
0001
0100
0010
0000
1000
0000
,  // measure 14
0001
0100
0010
0100
0001
0100
1000
0000
,  // measure 15
0100
0000
0010
1000
0001
0000
1000
0000
,  // measure 16
0010
1000
0100
1000
0010
0001
0010
0000
,  // measure 17
1001
0000
1000
0100
0010
0000
0001
0000
,  // measure 18
1000
0100
0010
0100
1000
0100
0001
0000
,  // measure 19
0100
0000
0010
0001
1000
0000
0010
0000
,  // measure 20
0100
0001
0010
0001
0010
1000
0010
0000
,  // measure 21
0011
0100
0100
0100
,  // measure 22
1010
0100
0100
0100
,  // measure 23
1010
0001
0011
1000
,  // measure 24
1100
0000
0100
0010
0002
0000
0103
0000
,  // measure 25
0110
0010
0010
0010
,  // measure 26
0110
0100
0100
0100
,  // measure 27
1010
0100
0011
0100
,  // measure 28
1010
0000
0001
1000
0002
0000
1003
0000
,  // measure 29
1001
0000
1000
0100
0010
0000
0110
0000
,  // measure 30
1001
0000
0001
0100
0010
0000
0110
0000
,  // measure 31
1001
0000
0001
1000
0100
0000
1100
0000
,  // measure 32
1001
0000
1000
0001
0200
0000
0310
0000
,  // measure 33
0110
0000
0010
1000
0100
1000
0010
0100
,  // measure 34
0001
0000
0100
0001
0010
0001
1000
0001
,  // measure 35
1000
0000
0001
0100
0001
1000
0100
0010
,  // measure 36
0100
0100
0100
0100
0010
0001
1000
0001
,  // measure 37
1000
0100
0000
0001
0100
0000
1100
0000
,  // measure 38
0001
0100
0000
1000
0100
0000
0101
0000
,  // measure 39
1000
0010
0000
0001
0010
0000
1010
0000
,  // measure 40
0002
0000
2000
3003
,  // measure 41
1000
0100
0001
0100
1000
0000
1100
0000
,  // measure 42
0001
0100
1000
0100
0001
0000
0101
0000
,  // measure 43
1000
0010
0001
0010
1000
0000
1010
0000
,  // measure 44
0001
0010
0010
0010
0200
0000
0310
0000
,  // measure 45
0011
0000
0000
1001
0000
0000
0000
0000
,  // measure 46
1010
0000
0000
1001
0000
0010
0100
0100
,  // measure 47
0010
0000
0000
0110
0000
0000
0000
0000
,  // measure 48
1001
0000
0000
0101
0000
1000
0001
0000
,  // measure 49
1100
0000
1000
0100
0010
0001
0100
0000
,  // measure 50
0101
0000
0001
0100
0010
1000
0001
1000
,  // measure 51
0001
0000
1000
0001
0100
0010
0100
0000
,  // measure 52
0110
1001
0110
1001
,  // measure 53
1100
0000
0001
0010
1000
0010
0100
1000
,  // measure 54
0001
0000
1000
0010
0001
0010
0100
0001
,  // measure 55
1000
0000
0001
0100
1000
0100
0010
1000
,  // measure 56
0001
0000
1000
0100
0001
0100
0010
0001
,  // measure 57
1000
0001
1000
0001
,  // measure 58
0100
0010
0100
0010
0100
0010
0200
0000
,  // measure 59
0310
0000
1000
0010
0000
0001
0010
0000
,  // measure 60
1000
0100
0001
0100
1000
0001
1000
0000
,  // measure 61
0001
0000
1000
0100
0000
0001
0100
0000
,  // measure 62
1000
0001
0100
0010
1000
0100
0001
0000
,  // measure 63
0100
0010
0100
0010
0001
1000
1001
0000
,  // measure 64
0010
0000
0100
0000
0001
0000
0000
0100
0000
0000
0001
0000
1000
0000
0001
0000
,  // measure 65
0010
0000
0001
0000
1000
0000
0000
0100
0000
0000
0010
0000
0100
0000
1000
0000
,  // measure 66
0001
0000
0010
0000
0001
0000
0000
1000
0000
0000
0001
0000
1000
0000
1000
0000
,  // measure 67
0001
0001
0100
0010
1000
0000
1001
0000
,  // measure 68
0010
0000
0010
1000
0100
1000
0110
0000
,  // measure 69
0001
0000
1000
0100
0010
0100
0011
0000
,  // measure 70
1000
0000
0001
0100
0010
0100
1010
0000
,  // measure 71
0001
0000
2002
0000
3003
0000
1000
0100
,  // measure 72
0100
0100
0001
0000
1100
0000
0001
0100
,  // measure 73
0100
0100
1000
0000
0101
0000
1010
0001
,  // measure 74
0100
0000
0011
1000
0100
0000
1100
0001
,  // measure 75
0010
0000
0101
1000
0010
0000
0000
0000
;

//---------------dance-single - ----------------
#NOTES:
     dance-single:
     :
     Challenge:
     16:
     0.900,0.921,0.844,0.085,0.533: // measure 1
0000
0000
0000
0000
,  // measure 2
0000
0000
0000
0000
,  // measure 3
0000
0000
0000
0000
,  // measure 4
0000
0000
0000
0000
,  // measure 5
1000
0000
0010
0000
0010
0000
0100
0000
0001
0000
0001
0000
1000
0100
0000
0100
,  // measure 6
1000
0000
0001
0000
0001
0000
0100
0000
0010
0000
0010
0000
1000
0010
0000
0010
,  // measure 7
1000
0000
0001
0000
0001
0000
0010
0001
1000
0000
0001
0000
0100
0010
0000
0010
,  // measure 8
1000
0000
0001
0000
0001
0000
1000
0100
0010
0000
0100
0000
1000
0001
0000
0001
,  // measure 9
0100
0000
0010
0000
0010
0000
1000
0010
1000
0000
0001
0000
0010
0001
0000
0001
,  // measure 10
0100
0000
0010
0000
0010
0000
1000
0001
0100
0000
0001
0000
0010
0001
0000
0001
,  // measure 11
1000
0000
0001
1000
0100
0000
1000
0000
0010
1000
0010
0000
0100
0001
0100
0001
,  // measure 12
1000
0001
0010
0100
0010
0001
2001
0000
,  // measure 13
3010
0000
1010
0100
1000
0000
0012
0000
,  // measure 14
1003
0000
0100
1000
0100
0000
1000
0000
0001
0000
0100
0000
1010
0000
0000
0000
,  // measure 15
0011
0000
0101
0010
1000
0000
1200
0000
,  // measure 16
0310
0000
0100
1000
0100
0000
1000
0000
0001
0000
0100
0010
1000
0000
0001
0000
,  // measure 17
1001
0000
1100
0100
0010
0000
0021
0000
,  // measure 18
0031
0000
1000
0001
0100
0000
0001
0000
1000
0000
0010
1000
0001
0000
1000
0000
,  // measure 19
1001
0000
0110
0001
1000
0000
1200
0000
,  // measure 20
0310
0000
0100
1000
0001
0000
1000
0000
0001
0100
0001
0100
0010
1000
0010
1000
,  // measure 21
0001
0000
0010
0000
0011
0000
0001
0010
0001
1000
0001
0000
1001
0000
1000
0000
,  // measure 22
1001
0000
1000
0000
1010
0000
1000
0100
1000
0001
1000
0000
1001
0000
1000
0000
,  // measure 23
0110
0000
0100
0000
0101
0000
0100
0001
0100
0010
0100
0000
0110
0000
0100
0000
,  // measure 24
0110
0000
0010
0000
1000
0010
0100
0001
2000
0000
0000
0000
3002
0000
0000
0000
,  // measure 25
1003
0000
0100
0000
1100
0000
0100
1000
0100
0010
0001
0000
0011
0000
0001
0000
,  // measure 26
0101
0000
0100
0000
1001
0000
0100
0001
0100
0010
1000
0000
1010
0000
0010
0000
,  // measure 27
1100
0010
1001
0001
0101
0010
1001
1000
,  // measure 28
1100
0000
1000
0000
0001
1000
0001
0010
0002
0000
0000
0000
2003
0000
0000
0000
,  // measure 29
3010
0100
0101
0001
0010
0100
1100
0000
,  // measure 30
0010
0100
1100
1000
0010
0100
1001
0000
,  // measure 31
0011
0001
1000
0000
1010
1000
0001
0000
,  // measure 32
1100
0000
0000
0000
0110
0000
0001
0000
1000
0001
0100
0000
0001
1000
0100
0000
,  // measure 33
0010
0100
1001
0010
1000
0001
1001
0000
,  // measure 34
0110
0001
0101
0001
0010
1000
1010
0000
,  // measure 35
1100
0001
1000
0000
0101
1000
0001
0000
,  // measure 36
0110
0000
0100
0000
0010
0000
0010
0000
1000
0000
1000
0000
0001
1000
0001
1000
,  // measure 37
0001
0000
0010
0000
0010
0000
0100
1000
0001
0000
1000
0000
0001
0100
0000
0100
,  // measure 38
0001
0000
0010
0000
0010
0000
0100
1000
0001
0000
1000
0000
0010
0100
0000
0100
,  // measure 39
0001
0000
0100
0000
0100
0000
0010
1000
0001
0000
1000
0000
0100
0010
0000
0010
,  // measure 40
0100
1000
0100
0010
0001
1000
1001
0000
,  // measure 41
1010
0000
0010
1000
0010
0000
0100
0001
0100
0001
0000
0001
1000
0000
0001
1000
,  // measure 42
0001
0000
0010
0001
0010
0000
0100
1000
0100
1000
0000
1000
0001
0000
1000
0000
,  // measure 43
0010
0000
0100
0001
0100
0000
0001
1000
0100
1000
0000
1000
0001
0000
1000
0000
,  // measure 44
0010
0100
0100
0100
0010
0100
1010
0000
,  // measure 45
1001
0001
0001
1001
1000
1000
1000
1000
,  // measure 46
0110
0010
0010
0110
0100
0101
1010
1100
,  // measure 47
0011
0001
0001
1001
1000
1000
1000
1000
,  // measure 48
1010
0000
0010
0000
0010
0000
0110
0000
0100
0000
0100
0001
1000
0000
0001
0000
,  // measure 49
1000
0000
0100
1000
0100
0000
0010
0001
1000
0001
0000
0001
0100
0000
0001
0000
,  // measure 50
1000
0000
0010
1000
0010
0000
0100
0010
1000
0010
0000
0010
1000
0000
0001
0000
,  // measure 51
0010
0000
0001
0010
0100
0000
0010
0001
1000
0001
0000
0001
1000
0000
0001
0000
,  // measure 52
0101
1100
0101
1010
,  // measure 53
0011
0000
1100
0010
0001
1000
0001
0100
,  // measure 54
1010
0000
0101
0010
1000
0001
1000
0100
,  // measure 55
0011
0000
0110
0001
1000
0010
0100
0010
,  // measure 56
1001
0000
1000
0100
0001
0100
1000
0010
,  // measure 57
0001
0000
0010
1000
0100
0000
0010
0001
0100
0000
0010
1000
0100
0000
0010
0001
,  // measure 58
1000
0000
1000
0000
0001
0000
0001
0000
1000
0010
1000
0010
0100
0001
0100
0001
,  // measure 59
1000
0000
0100
1000
0100
0000
0010
0001
1000
0000
0001
1000
0100
0000
1000
0000
,  // measure 60
0001
0000
0100
0001
0100
0000
0010
1000
0010
0000
1000
0100
1000
0000
0100
0000
,  // measure 61
0010
0000
0100
1000
0001
0000
1000
0001
0100
0000
0001
1000
0010
0000
0100
0001
,  // measure 62
0100
0000
0001
0010
0100
0000
0010
0100
1000
0000
0010
0100
0001
0000
1000
0000
,  // measure 63
0001
1000
0001
1000
0001
1000
1010
0010
,  // measure 64
0010
0000
0010
0000
0100
0000
0000
0100
0000
0000
0100
0000
0001
0000
0010
0000
,  // measure 65
0010
0000
0010
0000
0100
0000
0000
1000
0000
0100
0000
1000
0010
0000
0100
0000
,  // measure 66
0100
0000
0100
0000
0001
0000
0000
1000
0000
0000
0001
0000
1000
0000
0100
1000
,  // measure 67
0001
0000
0100
0000
0001
0000
1000
0001
0010
0000
0001
0000
1001
0000
0001
0000
,  // measure 68
1001
0000
0001
0000
1001
0000
0001
0000
1001
0000
0001
0010
1100
0000
0100
0000
,  // measure 69
1100
0000
0100
0000
1100
0000
0100
0000
1100
0000
1000
0100
0011
0000
0010
0000
,  // measure 70
0011
0000
0010
0000
0011
0000
0010
0000
0011
0000
0001
1000
1010
0000
0010
0000
,  // measure 71
1010
0010
1010
0200
1000
0300
0110
0100
,  // measure 72
0100
0100
0101
0110
1010
0110
1010
1000
,  // measure 73
1000
0000
1000
0000
1001
0000
1100
0000
1001
0000
0011
0000
0001
0100
0001
1000
,  // measure 74
0001
0010
0001
0000
1000
0100
1000
0001
1000
0010
1000
0000
0010
0100
0001
0100
,  // measure 75
0010
1000
0001
0000
0100
0010
1000
0100
0010
0000
0000
0000
0000
0000
0000
0000
;
