#TITLE:Vertigo;
#ARTIST:Sis Bond Chit;
#BANNER:Vertigo.png;
#BACKGROUND:Vertigo-bg.png;
#JACKET:Vertigo-jacket.png;
#CDTITLE:./CDTITLES/GUITAR FREAKS & DRUMMANIA.PNG;
#MUSIC:Vertigo.ogg;
#OFFSET:-1.283;
#SAMPLESTART:54.225;
#SAMPLELENGTH:15;
#BPMS:0=187;
#BGCHANGES:-4=Vertigo.avi=1=0=0=0;

//---------------dance-single - t7r----------------
#NOTES:
     dance-single:
     t7r:
     Beginner:
     2:
     :
0000
0000
0000
0000
,
0000
0000
0000
0000
,
0000
0000
0000
0000
,
0000
0000
0000
0000
,
1000
0000
0000
0000
,
0000
0000
0000
0000
,
0001
0000
0000
0000
,
0000
0000
0000
0000
,
0100
0000
0000
0000
,
0000
0000
0000
0000
,
0010
0000
0000
0000
,
0000
0000
0000
0000
,
0100
0000
0000
0000
,
0000
0000
0000
0000
,
0010
0000
0000
0000
,
0000
0000
0000
0000
,
1000
0000
0000
0000
,
0000
0000
0000
0000
,
0001
0000
0000
0000
,
0001
0000
0000
0000
,
0100
0000
0000
0000
,
0000
0000
0000
0000
,
1000
0000
0000
0000
,
0000
0000
0000
0000
,
0100
0000
0000
0000
,
0000
0000
0000
0000
,
1000
0000
0000
0000
,
0010
0000
0100
0000
,
1001
0000
0000
0000
,
0000
0000
0000
0000
,
0100
0000
0000
0000
,
0000
0000
0020
0030
,
0100
0000
0000
0000
,
0000
0000
0000
0000
,
0001
0000
0000
0000
,
0000
0000
0000
0000
,
1000
0000
0000
0000
,
0000
0100
0100
0000
,
1000
0000
0000
0000
,
0001
0000
0000
0000
,
0100
0000
0000
0000
,
0000
0000
0000
0000
,
0010
0000
0000
0000
,
1000
0000
0000
0000
,
0001
0000
0000
0000
,
0100
0000
0000
0000
,
0001
0000
0000
0000
,
1000
0000
0000
0000
,
0100
0000
0000
0000
,
0010
0000
0000
0000
,
0001
0000
0000
0000
,
1000
0000
0000
0000
,
0010
0000
0000
0000
,
1000
0000
0000
0000
,
0001
0000
0000
0000
,
0100
0000
0000
0000
,
0010
0000
0000
0000
,
0100
0000
0000
0000
,
0010
0000
0000
0000
,
0000
0000
0000
0000
,
0100
0000
0000
0000
,
0000
0000
0000
0000
,
0001
0000
0000
0000
,
0000
0000
0000
0000
,
1000
0000
0000
0000
,
0000
0000
0000
0000
,
0100
0000
0000
0000
,
1000
0000
0000
0000
,
0001
0000
0000
0000
,
0100
0000
0000
0000
,
0001
0000
0000
0000
,
0001
0000
0000
0000
,
1000
0000
0000
0000
,
0010
0000
1000
0000
,
0000
0001
0000
0000
,
0000
0000
0000
0000
,
0100
0000
0000
0000
;

//---------------dance-single - t7r----------------
#NOTES:
     dance-single:
     t7r:
     Easy:
     7:
     :
0000
0000
0000
0000
,
0000
0000
0000
0000
,
0000
0000
0000
0000
,
0000
0000
0000
0000
,
0100
0000
0010
0000
,
1000
0000
0001
0100
,
0001
0000
1000
0000
,
0010
1000
0100
0010
,
1001
0000
0001
0000
,
0100
0000
0001
0010
,
0100
0000
0000
0000
1000
0000
0000
0100
,
0000
0010
0000
1000
0000
0000
0000
0000
,
1001
0001
0100
0000
,
0001
1000
0001
0010
,
0100
1000
0100
0000
,
1000
0010
1000
0001
,
0100
0001
1000
0000
,
0001
0010
0001
1000
,
0010
0100
0100
0010
,
0100
0100
0010
1000
,
1001
0001
0010
0000
,
0100
1000
0010
1000
,
0001
1000
0100
0000
,
1000
0010
0001
0010
,
1001
1000
0100
0000
,
0010
0100
1000
0100
,
1000
1000
0010
1000
,
1000
0001
0100
0001
,
2000
0000
0000
3000
,
0020
0000
0000
0030
,
0200
0000
0000
0300
,
0002
1000
1003
0000
,
0010
0000
0010
0000
0100
0000
0000
1001
,
0000
0010
1000
0100
,
0001
0001
0001
0001
,
0001
0001
0001
0001
,
0100
0100
0100
0100
,
1000
1000
1000
1000
,
0010
0100
0001
1000
,
0010
0100
0001
1000
,
1001
0000
0000
0110
0000
0000
2002
0000
,
3003
0000
0000
0000
0000
0000
0000
0010
,
0000
0000
0100
0000
0001
0000
0000
1000
,
0000
0000
0010
0000
0100
0000
0000
0010
,
0000
0000
1000
0000
0100
0000
0000
1000
,
0000
0000
0001
0000
0100
0000
0001
1000
,
0000
0000
0010
0000
1000
0000
0000
0001
,
0000
0000
0010
0000
0001
0000
0000
1000
,
0000
0000
0100
0000
0010
0000
0000
0100
,
0000
0000
1000
0000
0001
0000
0000
1001
,
0000
0000
0010
0000
1000
0000
0000
0001
,
0000
0000
0100
0000
0001
0000
0000
1000
,
0000
0000
0100
0000
0010
0000
0000
0100
,
0000
0000
1000
0000
0100
0000
0000
1100
,
0000
0000
0010
0000
0001
0000
0000
0010
,
0000
0000
0001
0000
0100
0000
0000
0001
,
0000
1000
1000
0010
,
0100
0010
1000
0001
,
2000
0001
0001
0001
,
0001
0001
3001
0100
,
0210
0010
0010
0010
,
0010
0010
0310
0100
,
1001
1000
0001
0100
,
0001
1000
0001
0010
,
0100
0000
1000
0000
0010
0000
1000
0001
,
0000
0001
0000
0001
0000
0000
0000
0000
,
1001
0000
0000
0100
0100
0000
0000
0000
,
0010
0100
1000
0001
,
0100
0000
0000
0001
0001
0000
0000
1000
,
0000
0010
0000
1000
0000
0000
0000
0000
,
1001
0000
0000
0010
0010
0000
0000
0000
,
0001
0010
0100
1000
,
0100
0000
0000
0000
1000
0000
0000
0001
,
0000
1000
0000
0001
0000
0000
0010
0000
,
0000
2002
0000
0000
,
0000
0000
0000
3003
,
0110
0000
0000
0000
;

//---------------dance-single - t7r----------------
#NOTES:
     dance-single:
     t7r:
     Medium:
     8:
     :
0000
0000
0000
0000
,
0000
0000
0000
0000
,
0000
0000
0000
0000
,
0000
0000
0000
0100
,
1001
0000
0000
0001
0001
0000
0000
0000
,
1000
0100
1000
0010
,
0100
0000
0000
0010
0010
0000
0000
2000
,
0000
3002
0000
1003
0000
0000
0010
0000
,
1001
0000
0000
0100
0100
0000
0000
0000
,
0010
0100
0001
1000
,
0001
0000
0000
0010
0010
0000
0000
1100
,
0000
1001
0000
2200
0000
0000
3300
0000
,
1001
0000
0000
0010
0010
0000
0000
0000
,
1000
0010
0100
0001
,
1000
0000
0000
0001
0001
0000
0000
0000
,
1000
0100
0010
0001
,
0100
0000
0000
1000
1000
0000
0000
0000
,
0100
0010
1000
0001
,
1000
0001
0001
1000
,
0010
0010
1000
0100
,
1001
0000
0000
0100
0100
0000
0000
0000
,
0010
0001
1000
0010
,
0100
0000
0000
0001
0001
0000
0000
1000
,
0000
1100
0000
1010
0000
0000
0000
0000
,
1001
0000
0000
0010
1000
0000
0000
0000
,
0001
0100
0001
0010
,
0100
0000
0010
0000
0001
0000
1000
0100
,
0000
0010
0000
1000
0001
0100
0010
1000
,
0002
0100
0100
0100
,
0100
0100
0100
0013
,
2000
0100
0100
0100
,
0100
3010
2002
3003
,
0001
0000
1000
0000
1000
0001
0000
1001
,
0000
0000
0010
0000
0100
0001
1000
0000
,
0002
0103
0002
0103
,
0002
0103
0002
0103
,
2000
3100
2000
3100
,
2000
3100
0010
1001
,
0010
0000
1000
0000
0001
0100
0001
0000
,
1000
0000
0100
0000
0010
0001
0100
0000
,
1001
0000
0000
0110
0000
0000
2002
0000
,
3003
0000
0000
0000
0000
0000
0000
1001
,
0000
0010
0100
0000
0010
0000
0000
0100
,
0000
0100
0010
0000
1000
0000
0000
0001
,
0000
0001
1000
0000
0100
0000
0010
0001
,
0000
0001
0010
0000
0001
0000
1000
0100
,
0000
0000
1000
0000
0010
0000
0000
1000
,
0000
1000
0001
0000
0100
0000
0000
0001
,
0000
0001
1000
0000
0001
0000
0010
0100
,
0000
0100
1000
0000
0100
0010
0000
1001
,
0000
0000
0010
0000
1000
0000
0001
0100
,
0000
0100
0001
0000
1000
0000
0000
0100
,
0000
0100
1000
0000
0010
0000
0000
1000
,
0000
1000
0010
0000
1000
0001
0100
0001
,
0000
1000
0100
0000
1000
0000
0001
0100
,
0000
0100
0001
0000
0100
0000
0000
0010
,
0000
1000
0001
0000
1000
0001
0100
0001
,
0020
0100
1000
0130
,
2000
0001
0001
0001
,
0001
0001
3001
0010
,
0210
0010
0010
0010
,
0010
0010
0310
0100
,
1001
0000
1000
0001
0100
0000
0001
0000
,
1000
0000
0001
1000
0010
0000
1000
0000
,
0100
0000
0010
0100
1000
0001
0000
1001
,
0000
0110
0000
2001
0000
0000
3010
0000
,
1001
0000
0001
0100
0100
0000
0010
1000
,
0000
1000
0010
0000
1000
0100
0010
0000
,
0001
0000
0100
0001
0001
0000
1000
0200
,
0000
2300
0000
3001
0000
0000
0100
0000
,
1001
0010
1000
0100
,
0001
0100
1000
0010
,
1000
0000
0100
0010
0001
0000
0100
0001
,
0000
1001
0000
1010
0000
0010
0100
0001
,
0000
2002
0000
0000
,
0000
0000
0000
3003
,
0110
0000
0000
0000
;

//---------------dance-single - t7r----------------
#NOTES:
     dance-single:
     t7r:
     Hard:
     11:
     :
0000
0000
0000
0000
,
0000
0000
0000
0000
,
0000
0000
0000
0000
,
0000
0000
0000
0100
,
1001
0000
0010
0100
0100
0000
0001
1000
,
0000
0001
0010
0000
0100
1000
0010
0000
,
1100
0000
0010
0001
0001
0000
1000
0200
,
0000
2300
0000
3001
0000
0000
0010
0000
,
1001
0000
0001
0100
0100
0000
0010
1000
,
0000
0001
0100
0000
0001
0010
0100
0000
,
1010
0000
0100
0010
1000
0000
0010
0110
,
0000
1001
0000
0220
0000
0000
0330
0000
,
1001
0000
0010
1000
0100
0000
0010
0001
,
0000
1000
0100
0000
1000
0010
0100
0000
,
0010
0000
0100
0001
1000
0000
0001
0100
,
0000
0001
1000
0001
0000
1000
0010
0000
,
1100
0000
1000
0010
0100
0000
0010
1000
,
0000
0100
0001
0000
0100
1000
0010
0100
,
0001
1000
0001
1000
0002
0000
1003
0010
,
1000
0010
0200
0000
0310
1000
0001
1000
,
0001
0000
1000
0010
0001
0000
0010
1000
,
0000
0100
0010
0000
0100
0010
1000
0000
,
0010
0000
0001
0100
0010
0000
0100
0001
,
0000
1001
0000
0202
0000
0000
0303
0000
,
1001
0000
0001
0010
1000
0000
0001
0100
,
0000
0010
1000
0000
0100
0010
1000
0001
,
1000
0000
0010
0100
0100
0000
0010
1000
,
0000
1001
0000
0100
0010
0010
0001
0001
,
1000
0000
0100
1000
0001
0100
0000
0001
,
0000
1000
0000
0000
0010
1000
0000
0001
,
1000
0100
0010
0002
0000
0000
1000
0000
,
0103
0000
1000
0001
1000
0001
0000
0000
,
1001
0000
0010
0100
0001
1000
0000
1001
,
0000
0000
0011
0000
0000
0000
1000
0000
0100
0000
0000
0010
0000
0000
0001
0000
,
1000
0100
1000
0100
1000
0010
1000
0010
,
1000
0100
1000
0010
1000
0100
1000
0010
,
0100
0001
0100
0001
0100
0010
0100
0010
,
0100
0001
0100
0010
1000
0001
0100
0010
,
1000
0000
1001
0000
0001
0100
0010
0000
,
0001
0000
1001
0000
1000
0100
0010
0100
,
1000
0100
0100
1000
0001
0001
0200
0000
,
0300
0000
0000
0000
0000
0000
0000
1001
,
0000
0001
0100
0000
0010
0000
1000
0100
,
0000
0100
1000
0000
0010
0000
1000
0001
,
0000
0100
0001
0000
1000
0000
0010
1000
,
0000
1000
0001
0000
0100
0000
0001
2000
,
0000
0000
3001
0000
0100
0000
0001
0010
,
0000
0010
0001
0000
1000
0000
0100
0010
,
0000
0001
1000
0000
0001
0000
0100
0001
,
0000
1000
0010
0000
1000
0100
0010
0001
,
0000
0001
1000
0000
0010
1000
0010
0100
,
0000
0100
0001
0000
1000
0100
0001
0100
,
0000
0100
1000
0000
1000
0010
0001
0010
,
0000
0010
1000
0000
0010
1000
0001
0100
,
0000
0001
1000
0000
0001
0010
0100
1000
,
0000
0100
0001
0000
0100
1000
0010
0001
,
0000
0010
1000
0010
0100
0001
1000
0001
,
1000
0000
0010
0000
0100
0001
1000
0001
,
2000
0010
0001
0100
,
0010
0100
3001
1001
,
0210
0010
0001
1000
,
0001
0010
0001
1300
,
0010
0000
1000
0001
0100
0000
0001
0000
,
1000
0000
0001
1000
0010
0000
1000
0000
,
0100
0000
0010
0001
0100
0001
0000
1001
,
0000
0110
0000
2001
0000
0000
3010
0000
,
0100
0000
0010
1000
1000
0000
0001
0100
,
0000
0001
1000
0000
0001
0010
0100
1000
,
0100
0000
0010
0001
0001
0000
1000
0100
,
0000
0100
1000
0000
0010
0100
0001
1000
,
0001
0010
0100
1000
0001
0010
0100
1000
,
0001
0010
1000
0010
0001
0100
1000
0100
,
0002
0000
1003
0100
0100
0000
1000
0001
,
0000
1001
0000
0110
0000
0010
0100
0001
,
0000
2002
0000
0000
,
0000
0000
0000
3003
,
0110
0000
0000
0000
;

//---------------dance-single - t7r----------------
#NOTES:
     dance-single:
     t7r:
     Challenge:
     12:
     :
0000
0000
0000
0000
,
0000
0000
0000
0000
,
0000
0000
0000
0000
,
0000
0000
0000
0100
,
1001
0000
0010
0100
MMMM
0000
0001
1000
,
0000
0001
0010
0000
0100
1000
0010
0000
,
1100
0000
0010
0001
MMMM
0000
1000
0200
,
0000
2300
0000
3001
0000
0000
MMMM
0000
,
1001
0000
0001
0100
MMMM
0000
0010
1000
,
0000
0001
0100
0000
0001
0010
0100
0000
,
1010
0000
0100
0010
MMMM
0000
0010
0110
,
0000
1001
0000
0220
0000
0000
0330
0000
,
1001
0000
0010
1000
MMMM
0000
0010
0001
,
0000
1000
0100
0000
1000
0010
0100
0000
,
0010
0000
0100
0001
MMMM
0000
0001
0100
,
0000
0001
1000
0001
0000
1000
0010
0000
,
1100
0000
1000
0010
MMMM
0000
0010
1000
,
0000
0100
0001
0000
0100
1000
0010
0100
,
0001
1000
0001
1000
0002
0000
1003
0010
,
1000
0010
0200
0000
0310
1000
0001
1000
,
0001
0000
1000
0010
MMMM
0000
0010
1000
,
0000
0100
0010
0000
0100
0010
1000
0000
,
0010
0000
0001
0100
MMMM
0000
0100
0001
,
0000
1001
0000
0202
0000
0000
0303
0000
,
1001
0000
0001
0010
MMMM
0000
0001
0100
,
0000
0010
1000
0000
0100
0010
1000
0001
,
1000
0000
0010
0100
MMMM
0000
0010
1000
,
0000
1001
0000
0100
0010
0010
0001
0001
,
1000
0000
0100
1000
0001
0100
0000
0001
,
0000
1000
0000
0000
0010
1000
0000
0001
,
1000
0100
0010
0002
0000
0000
1000
0000
,
0103
0000
1000
0001
1000
MMMM
0000
0000
,
1001
0000
0010
0100
0001
1000
0000
1001
,
0000
0000
0011
0000
0000
0000
1000
0000
0100
0000
0000
0010
0000
0000
0001
0000
,
1000
0100
1000
0100
1000
0010
1000
0010
,
MMMM
0100
1000
0010
1000
0100
1000
0010
,
MMMM
0001
0100
0001
0100
0010
0100
0010
,
MMMM
0001
0100
0010
1000
0001
0100
0010
,
1000
0000
1001
0000
0001
0100
MMMM
0000
,
0001
0000
1001
0000
1000
0100
0010
0100
,
1000
0100
0100
1000
0001
0001
MMMM
0000
,
0000
0000
0000
0000
0000
0000
0000
1001
,
0000
0001
0100
0000
MMMM
0000
1000
0100
,
0000
0100
1000
0000
MMMM
0000
1000
0001
,
0000
0100
0001
0000
MMMM
0000
0010
1000
,
0000
1000
0001
0000
MMMM
0000
0001
2000
,
0000
0000
3001
0000
MMMM
0000
0001
0010
,
0000
0010
0001
0000
MMMM
0000
0100
0010
,
0000
0001
1000
0000
MMMM
0000
0100
0001
,
0000
1000
0010
0000
1000
0100
0010
0001
,
0000
0001
1000
0000
0010
1000
0010
0100
,
0000
0100
MMMM
0000
1000
0100
0001
0100
,
0000
0100
MMMM
0000
1000
0010
0001
0010
,
0000
0010
MMMM
0000
0010
1000
0001
0100
,
0000
0001
MMMM
0000
0001
0010
0100
1000
,
0000
0100
MMMM
0000
0100
1000
0010
0001
,
0000
0010
1000
0010
0100
0001
1000
0001
,
1000
0000
0010
0000
0100
0001
1000
0001
,
2000
0010
0001
0100
,
0010
0100
3001
1001
,
0210
0010
0001
1000
,
0001
0010
0001
1300
,
0010
0000
1000
0001
0100
0000
0001
0000
,
1000
0000
0001
1000
0010
0000
1000
0000
,
0100
0000
0010
0001
0100
0001
0000
1001
,
0000
0110
0000
2001
0000
0000
3010
0000
,
0100
0000
0010
1000
MMMM
0000
0001
0100
,
0000
0001
1000
0000
0001
0010
0100
1000
,
0100
0000
0010
0001
MMMM
0000
1000
0100
,
0000
0100
1000
0000
0010
0100
0001
1000
,
MMMM
0010
0100
1000
0001
0010
0100
1000
,
MMMM
0010
1000
0010
0001
0100
1000
0100
,
0002
0000
1003
0100
MMMM
0000
1000
0001
,
0000
1001
0000
0110
0000
0010
0100
0001
,
0000
2002
0000
0000
,
0000
0000
0000
3003
,
0110
0000
0000
0000
;
