#TITLE:真実~GFDM Ver.~;
#ARTIST:柴田浩之;
#TITLETRANSLIT:SHINJITSU ~GFDM Ver.~;
#ARTISTTRANSLIT:Hiroyuki Shibata;
#BANNER:SHINJITSU ~GFDM Ver.~.png;
#BACKGROUND:SHINJITSU ~GFDM Ver.~-bg.png;
#JACKET:SHINJITSU ~GFDM Ver.~-jacket.png;
#CDTITLE:./CDTITLES/GUITAR FREAKS & DRUMMANIA.PNG;
#MUSIC:SHINJITSU ~GFDM Ver.~.ogg;
#OFFSET:-0.006;
#SAMPLESTART:57.692;
#SAMPLELENGTH:15;
#BPMS:0=130;

//---------------dance-single - t7r----------------
#NOTES:
     dance-single:
     t7r:
     Beginner:
     1:
     :
0000
0000
0000
0000
,
0000
0000
0000
0000
,
0000
0000
0000
0000
,
0000
0000
0000
0000
,
0002
0000
0000
0000
,
0000
0000
0000
0003
,
0000
0000
0000
0000
,
0000
0000
0000
0000
,
0000
0000
0000
0000
,
0000
0000
0000
0000
,
0100
0000
0000
0000
,
0000
0000
0000
0000
,
0000
0000
0000
0000
,
0010
0000
0100
0100
,
0100
0000
0000
0000
,
0001
0000
1000
1000
,
1000
0000
0000
0000
,
0010
0000
0100
0100
,
0100
0000
0000
0000
,
0010
0000
1000
0000
,
0001
0000
1000
0000
,
0001
0000
0100
0100
,
0100
0000
0000
0000
,
0010
0000
0000
0000
,
1000
0000
0100
0000
,
0001
0000
0100
0000
,
1000
0000
0000
0000
,
0001
0000
0000
0000
,
0100
0000
0000
0000
,
0010
0000
0000
0000
,
1000
0000
0000
0000
,
0000
0001
0000
0000
,
0000
0100
0000
0010
,
0000
1000
0000
0000
,
0000
0100
0000
1000
,
0000
0010
0000
0100
,
0000
0001
0000
0000
,
0000
1000
0000
0000
,
0000
0001
0000
0000
,
0000
0010
0000
0000
,
0000
0100
0000
0000
,
0010
0010
0000
0001
,
0000
1000
0000
0100
,
0000
1000
0000
0010
,
0000
0100
0000
0001
,
0000
1000
0000
0100
,
0000
0010
0000
1000
,
0000
0001
0000
0100
,
0000
0010
0000
0001
,
0000
1000
0000
0000
,
0000
0001
0000
0000
,
0000
0100
0000
0000
,
0000
0000
0000
0010
,
0000
0100
0000
0000
;

//---------------dance-single - t7r----------------
#NOTES:
     dance-single:
     t7r:
     Easy:
     4:
     :
0000
0000
0000
0000
,
0000
0000
0000
0000
,
0000
0000
0000
0000
,
0000
0000
0000
0000
,
2000
0000
0000
0000
,
0000
0000
0000
0000
,
0001
0000
0001
0000
,
0001
0000
0001
0000
,
0010
0000
0010
0000
,
0100
0000
0100
0000
,
0001
0000
0001
0000
,
0001
0000
0001
0000
,
0010
0000
0100
0000
,
0001
3000
0010
1001
,
0001
0100
0100
0001
,
1000
0100
0100
1000
,
0010
0001
0001
0010
,
1000
0100
0100
0010
,
1001
0001
1000
1000
,
0001
0100
0010
0010
,
0110
0000
1010
0000
,
1001
0001
0100
0001
,
0020
0000
0000
0030
,
0200
0000
0000
0300
,
0220
0330
2002
3003
,
0020
0000
0000
0030
,
1000
1000
0001
0100
,
0001
0001
2000
3000
,
0001
0001
0010
0100
,
0010
0010
0002
0003
,
0000
0000
0000
0000
,
0000
1100
0100
0100
,
0100
0020
0030
0002
,
0003
1000
0001
1000
,
0100
0011
0001
0001
,
0001
2000
3000
0020
,
0030
0100
0010
1000
,
0001
0100
0010
0100
,
0010
1000
0001
1000
,
0001
0000
1001
0000
0000
0110
0000
0000
,
0000
1001
0010
0010
,
0010
0100
0001
0100
,
0001
1000
0010
1000
,
0010
1000
0100
1000
,
0100
0020
0030
0002
,
0003
1000
0100
1000
,
0100
0001
0100
0001
,
0100
1000
0100
0001
,
0100
1000
0010
0001
,
0010
1001
0010
0100
,
0001
2000
3000
0002
,
0003
0200
0300
0010
,
0000
0000
0000
1000
0000
0000
0001
0000
0000
0000
0000
0000
0100
0000
0000
0100
,
0000
0100
0000
0200
0000
0000
0000
0000
,
0000
0300
0000
0000
;

//---------------dance-single - t7r----------------
#NOTES:
     dance-single:
     t7r:
     Medium:
     8:
     :
0000
0000
0000
0000
,
0000
0000
0000
0000
,
0000
0000
0000
0000
,
0000
0000
0000
0000
,
0002
0000
0000
1000
0000
0000
0000
0000
1000
0000
0000
1000
0000
0000
0000
0000
,
1000
0000
0000
1000
0000
0000
0000
0000
1000
0000
0000
1000
0000
0000
0000
0000
,
1000
0000
0000
1000
0000
0000
0000
0000
1000
0000
0000
1000
0000
0000
0000
0000
,
1000
0000
0000
1000
0000
0000
0000
0000
1000
0000
0000
1000
0000
0000
0000
0000
,
0010
0000
0000
0010
0000
0000
0000
0000
0010
0000
0000
0010
0000
0000
0000
0000
,
0100
0000
0000
0100
0000
0000
0000
0000
0100
0000
0000
0100
0000
0000
0000
0000
,
1000
0000
0000
1000
0000
0000
0000
0000
1000
0000
0000
1000
0000
0000
0000
0000
,
1000
0000
0000
1000
0000
0000
0000
0000
1000
0000
0000
1000
0000
0000
0000
0000
,
0010
0000
0000
0010
0000
0000
0000
0000
0100
0000
0000
0100
0003
0000
0000
0000
,
0010
0100
0010
1001
,
1000
1000
0100
0000
1000
1000
1000
0000
,
0001
0001
0100
0000
0001
0001
0001
0000
,
0010
0001
1000
0100
,
0010
0100
1000
0001
,
0100
0100
0001
0000
0100
0100
0100
0000
,
0010
0010
1000
0000
0010
0010
0010
0000
,
1000
1001
0001
1001
,
0010
0000
0100
0000
0001
1000
0100
0000
,
1000
0001
0002
0000
0003
0000
0010
0000
,
0100
0000
0001
1000
0000
2002
0000
3003
,
0010
0000
0100
0001
0000
1000
0000
0100
,
0010
0000
0001
1000
0000
1000
0001
0000
,
0100
0001
1000
0000
0100
0000
0100
0000
,
1000
0001
0100
0000
1000
0000
1000
0000
,
0010
0001
1000
0000
0010
0000
0010
0000
,
1000
0001
0010
0000
0001
0000
0001
0000
,
1000
0001
0000
0001
1000
0000
0000
0000
,
0000
0000
0000
0000
0010
0000
0100
0000
0010
0000
0000
0100
0000
0000
0100
0000
,
0010
0000
0000
1000
0000
0000
0001
0000
0100
0000
0000
0001
0000
0000
1000
0000
,
0100
0000
0000
0000
0010
0000
0000
0010
0000
0000
2002
0000
0000
0000
3003
0000
,
0000
0000
0000
0000
0001
0000
0100
0000
0001
0000
0000
0100
0000
0000
0001
0000
,
1000
0000
0000
0010
0000
0000
1000
0000
0100
0000
0000
0001
0000
0000
0100
0000
,
1000
0000
0010
0000
0100
0000
0000
0100
0000
0000
0220
0000
0000
0000
0330
0000
,
0000
0000
0000
0000
1001
0000
0000
0000
0001
0000
0000
0001
0000
0000
1000
0000
,
0100
0000
0000
0000
1000
0000
0000
0000
0010
0000
0000
0010
0000
0000
0100
0000
,
0010
0000
1001
0000
0100
1001
0000
0010
,
1000
0101
0000
0000
1001
0000
1000
0001
,
1000
0001
0010
0000
0100
0000
0010
0001
,
0100
0001
1000
0000
0010
0000
1000
0010
,
0100
0010
1000
0000
0100
0000
0010
0001
,
1000
0010
0001
0000
0100
0000
0001
0100
,
0010
0001
1000
0000
0010
0000
1000
0100
,
0010
1000
0001
0000
1000
0000
0100
0010
,
1000
0100
0001
0000
0100
0000
0001
0010
,
1000
0001
0100
0000
0001
0000
1000
0010
,
0100
0000
0010
0000
1000
0000
1000
0000
0001
0000
0000
0100
0000
0000
0001
0000
,
0010
0000
0000
1001
0000
0000
0100
0000
0001
0000
0000
0101
0000
0000
0001
0000
,
1000
0000
0010
0000
0100
0000
0000
0100
0000
0000
0110
0000
0000
0000
0001
0000
,
1000
0000
0000
1000
0000
0000
1001
0000
0000
0000
0010
0000
1000
0000
0000
0001
,
0000
1000
0000
0200
0000
0000
0000
0000
,
0000
0300
0000
0000
;

//---------------dance-single - t7r----------------
#NOTES:
     dance-single:
     t7r:
     Hard:
     13:
     :
0000
0000
0000
0000
,
0000
0000
0000
0000
,
0000
0000
0000
0000
,
0000
0000
0000
0000
,
0001
0000
0000
0001
0100
0000
0000
0000
0100
0000
0000
0100
0010
0000
0000
0000
,
0010
0000
0000
0010
1000
0000
0000
0000
1000
0000
0000
1000
0001
0000
0000
0000
,
0100
0000
0000
0100
0010
0000
0000
0000
0010
0000
0000
0010
1000
0000
0000
0000
,
0001
0000
0000
0001
0010
0000
0000
0000
0010
0000
0000
0010
0001
0000
0000
0000
,
1001
0000
0000
1000
0100
0000
0000
0000
0100
0000
0000
0100
0010
0000
0000
0000
,
0110
0000
0000
0010
0001
0000
0000
0000
0001
0000
0000
0001
1000
0000
0000
0000
,
1000
0000
0000
1000
0100
0000
0000
0000
0001
0000
0000
0001
0100
0000
0000
0000
,
1000
0000
0000
1000
0010
0000
0000
0000
0001
0000
0000
0001
0010
0000
0000
0000
,
1100
0000
0000
0100
1000
0000
0000
0000
0011
0000
0000
0010
0001
0000
0000
0000
,
1001
0000
0000
0001
0100
0000
0010
0000
0100
0001
0000
1000
0001
0000
0100
0000
,
0001
0000
0010
0000
0100
0000
0010
0001
0000
1000
0100
0000
0010
0000
0100
0000
,
1000
0000
0010
0000
1000
0000
0001
0100
0000
0001
1000
0000
0002
0000
0000
0000
,
0013
0000
0100
0000
1000
0000
0000
0100
0000
0100
0010
0000
0100
0000
0000
0000
,
0010
0000
0001
0000
0100
0000
0000
0010
0000
0010
0100
0000
0001
0000
1000
0000
,
1001
0000
0010
0000
1000
0000
0001
0100
0000
0010
1000
0000
0100
0000
0010
0000
,
0100
0000
1000
0000
0001
0000
1000
0010
0000
1000
0100
0000
1000
0000
0001
0000
,
1001
0100
2000
3010
1001
0100
0002
0013
,
0001
0010
0100
1000
0100
0010
0001
1000
,
1010
0000
1010
0000
0100
0000
0000
0000
0100
0010
0000
0100
0010
0000
0000
0000
,
0011
0011
1000
0000
0001
1000
0001
0100
,
0001
0000
0010
0001
0000
0000
1100
0000
0000
0000
1000
0000
0100
0000
1000
0000
,
0010
0000
1000
0000
0010
0000
0110
0000
0000
0000
1000
0001
0000
1000
0001
0000
,
0100
0000
0010
0000
1000
0000
0100
0010
0000
0100
0010
0000
0001
0000
0100
0000
,
0010
0000
1000
0000
0001
0000
0100
0001
0000
0100
0001
0000
1000
0000
0100
0000
,
0010
0000
0100
0000
1000
0000
0010
1000
0000
0010
1000
0000
0001
0000
1001
0000
,
0001
0000
0010
0000
0100
0000
0010
0001
0000
1000
0100
0000
0010
0000
0100
0000
,
1000
0001
1000
0001
0000
0000
0100
0010
0100
0010
0000
0000
0000
0000
0000
0000
,
1000
0001
0000
0000
0001
0100
0000
0001
0000
1000
0000
0010
0000
0000
1000
0000
,
0100
0000
0010
0001
0000
0000
1000
0000
0100
0000
0010
0100
0000
0000
1000
0000
,
0010
0000
0100
0000
0101
0000
0000
1001
0000
0000
2020
0000
0000
0000
0000
0000
,
3030
0000
0000
0000
0010
0000
0100
0010
0000
1000
0000
0001
0000
0000
0100
0000
,
0010
0000
0100
0001
0000
0000
0010
0000
0001
0000
0010
1000
0000
0000
0010
0000
,
0100
0000
1000
0000
1001
0000
0000
0011
0000
0000
2200
0000
0000
0000
0000
0000
,
3300
0000
0000
0000
0110
0000
0000
0000
1001
0000
0000
0001
0100
0000
0001
0000
,
1000
0000
0000
0000
1010
0000
0000
0000
1100
0000
0000
0100
0010
0000
0100
0000
,
1000
0000
0001
0000
1001
0000
0000
0000
0010
0000
1000
0001
0000
0100
0010
0000
,
1001
0000
0110
0000
0000
0000
0000
0000
1010
0000
0000
0000
1000
0001
0000
0100
,
0000
0010
1000
0000
0001
0000
0100
0000
0001
0000
1000
0100
0000
0010
0100
0000
,
1000
0000
0010
0000
1000
0000
0001
0000
0100
0000
0001
0010
0000
0010
0001
0000
,
0100
0010
1000
0010
0100
0001
1000
0100
,
0010
0001
1000
0100
0001
0100
1000
1001
,
0010
0100
0010
0000
1000
0000
0001
0000
0100
0000
0001
0010
0000
1000
0100
0000
,
1000
0000
0010
0000
1000
0000
0100
0000
0010
0000
0001
0100
0000
1000
0010
0000
,
1001
0000
0100
0000
0010
0000
0100
0000
1000
0000
0001
0000
1000
0001
1000
0001
,
0000
0001
0100
0000
0001
0000
1001
0000
1000
0000
1010
0000
0010
0100
0001
0000
,
1000
0000
1100
0000
1001
0000
0010
0000
0100
0001
0000
1000
0000
0000
0100
0000
,
0010
0000
0100
1000
0000
0000
0001
0000
0010
0000
0001
0100
0000
0000
0010
0000
,
1000
0000
0001
1000
0100
0000
0000
1100
0000
0000
0011
0000
0000
0000
1000
0100
,
0010
0000
0000
0110
0000
0000
1100
0000
0000
0000
1000
0001
1000
0001
0000
0100
,
0001
0000
0010
1000
0000
0010
0200
0000
0000
0000
0000
0000
0000
0000
0000
0000
,
0000
0300
0000
0000
;

//---------------dance-single - t7r----------------
#NOTES:
     dance-single:
     t7r:
     Challenge:
     16:
     :
0000
0000
0000
0000
,
0000
0000
0000
0000
,
0000
0000
0000
0000
,
0000
0000
0000
0000
,
0010
0000
0100
0010
0100
0000
0010
0000
1000
0000
0010
1000
0010
0000
1000
0000
,
0001
0000
0010
0001
0010
0000
0001
0000
1000
0000
0010
0100
0010
0000
1000
0000
,
0100
0000
1000
0100
1000
0000
0001
0000
1000
0000
0100
1000
0100
0000
1000
0000
,
0001
0000
0100
0001
0100
0000
0001
0000
1000
0000
0100
1000
0100
0000
1000
0000
,
0010
0000
0100
0010
0100
0000
0010
0000
1000
0000
0010
1000
0010
0000
1000
0000
,
0001
0000
0010
0001
0010
0000
0001
0000
1000
0000
0001
0100
0001
0000
1000
0000
,
0010
0000
1000
0010
1000
0000
0001
0000
0010
0000
0001
0010
0001
0000
1000
0001
,
1000
0000
0001
0100
0001
0000
1000
0000
0001
0000
1000
0100
1000
0000
0010
1000
,
0010
0000
0100
0010
0100
0000
0001
0000
1000
0000
0001
0010
0001
0000
1000
0100
,
1000
0000
0001
0010
0001
0000
0100
0010
1000
0001
0000
0001
1000
0100
1000
0000
,
0110
0000
0010
1000
0002
0000
1003
0010
1000
0000
0001
0010
0002
0000
1003
0100
,
0010
0000
0100
1000
0020
0000
0130
0010
0100
0010
1000
0001
0020
0000
0000
0000
,
0031
0000
0100
0010
2000
0000
3010
0100
0010
0000
0100
0001
0200
0000
0310
1000
,
0001
0000
0010
0100
2000
0000
3100
0010
0001
0100
0001
0100
0020
0000
0000
0000
,
1030
0000
0100
0010
0002
0000
0103
0010
0100
0000
0010
1000
0002
0000
0013
0001
,
0010
0000
0001
0100
0020
0000
1030
0100
0010
0100
1000
0000
0020
0000
0130
0001
,
1000
0002
0023
2030
3010
0002
0203
2300
,
3100
0010
0200
0000
0302
0000
2003
0000
3001
0010
0000
0001
0100
0010
1000
0000
,
0110
0000
0120
0000
1000
0000
0000
0000
0031
1000
0000
0000
0101
0000
0000
0000
,
1100
0000
2100
0000
0010
0000
0000
0000
3100
0000
0010
0001
0100
0001
0010
0000
,
1100
0000
0001
0010
0100
0000
0012
0000
0000
0000
1003
0010
1000
0000
0010
0000
,
0110
0000
0100
0001
1000
0000
2001
0000
0000
0000
3001
0010
0000
0001
1000
0000
,
0010
0000
0100
0000
0001
0000
0100
0001
0010
0000
0100
0000
1000
0000
0010
0000
,
1000
0000
0100
0000
0010
0000
0100
1000
0010
0000
0100
0000
0010
0000
1000
0000
,
0001
0000
0010
0000
0100
0000
0010
0001
1000
0000
0001
0000
1000
0000
1001
0000
,
0001
0000
0100
0000
0010
0000
1000
0100
0010
0000
0100
0000
1000
0000
0001
1000
,
0100
1000
0001
1000
0000
0000
0010
0100
0010
0200
0000
0000
0000
0000
0000
0000
,
0301
1000
0000
0000
0001
0010
0001
0010
0000
0001
0000
0100
0000
0000
0010
0000
,
1000
0000
0100
0020
0000
0000
0130
0000
1000
0000
0001
0200
0000
0000
0310
0000
,
0100
0000
0001
1000
0100
0000
0000
1100
0000
0000
0012
0000
0000
0000
1003
0010
,
0100
0010
0000
0010
1000
0001
0100
0001
0000
1000
0000
0010
1000
0001
1000
0000
,
0100
0000
0010
0200
0000
0000
1300
0000
0010
0000
0100
0002
0000
0000
0013
0000
,
0001
0000
1000
0001
0100
0000
0010
0100
0000
0010
2000
0000
0000
0000
3001
0010
,
0100
0010
0001
1000
0002
0000
1003
0100
1000
0000
0001
0010
0100
0000
0010
0000
,
0001
0000
0100
0000
0020
0000
1030
0010
1000
0000
0010
0100
0001
0000
0100
0000
,
0001
0000
0010
0000
0110
0000
0100
0000
0011
0000
0001
2000
0000
0000
3010
0000
,
0110
0000
2010
0000
0000
0000
0000
0000
3001
0000
0000
0000
0001
1000
0000
0001
,
0000
1000
0001
1000
0020
0000
0000
0000
0000
0000
0130
0001
0100
0000
0001
0010
,
0200
0000
0310
0001
0100
0010
0100
0001
0010
0100
0020
0000
0000
0000
0000
0000
,
0000
0000
0031
1000
0001
0100
1000
0100
0001
0100
1000
0100
0001
0010
1000
0010
,
0001
0010
1000
0010
0001
0010
0100
1000
0001
0010
0100
1000
0001
0000
0110
0000
,
0001
1000
0100
1000
2100
0000
0100
0000
3001
0000
1000
0100
0010
0100
1000
0000
,
0001
0000
1000
0001
0200
0000
0001
0000
0310
0000
0100
0010
1000
0010
0100
0000
,
0010
0000
1000
0001
0100
0010
1000
0000
0001
0010
0100
0010
0001
1000
0001
1000
,
0000
0000
1000
0000
0010
0000
0000
0000
0110
0000
0000
0000
1001
0000
0000
0000
1000
0100
1000
0100
1000
0000
0000
0000
0101
0000
0000
0000
1001
0000
0000
0000
,
0001
0010
0001
0010
0001
0000
0000
0000
1000
0000
0001
0000
0100
0000
0010
0000
1000
0000
0100
0000
0000
0000
0210
0000
0000
0000
0000
0000
0010
0000
0000
0000
,
1300
0000
0010
0002
0000
0000
0100
0000
0013
0000
1000
0200
0000
0000
1000
0000
,
0310
0000
0001
0100
0110
0000
0000
1001
0000
0000
2010
0000
0000
0000
3001
0010
,
0110
0000
0010
0011
0000
0001
1002
0000
0000
0000
0103
0000
0010
0110
0000
1000
,
1001
0000
0010
0011
0000
1000
2200
0000
0000
0000
0000
0000
0000
0000
0000
0000
,
0000
3300
0000
0000
;
