#TITLE:差無来!!;
#ARTIST:Des-ROW・組;
#TITLETRANSLIT:SAMURAI!!;
#ARTISTTRANSLIT:Des-ROW UNITED;
#BANNER:SAMURAI!!.png;
#BACKGROUND:SAMURAI!!-bg.png;
#JACKET:SAMURAI!!-jacket.png;
#CDTITLE:./CDTITLES/GUITAR FREAKS & DRUMMANIA.PNG;
#MUSIC:SAMURAI!!.ogg;
#SAMPLESTART:87.562;
#SAMPLELENGTH:15;
#DISPLAYBPM:168:210;
#BPMS:0=168,133=174,245=190,249=210;
#STOPS:68=0.17857142857142857142857142857143;

//---------------dance-single - t7r----------------
#NOTES:
     dance-single:
     t7r:
     Beginner:
     3:
     :
0000
0000
0000
0000
,
0000
0000
0000
0000
,
0000
0000
0000
0000
,
0000
0000
0000
0000
,
0000
0000
0000
0000
,
0000
0000
0000
0000
,
0000
0010
0000
0000
,
0000
0100
0000
0000
,
0000
0000
0001
0000
,
0000
0000
1000
0000
,
0000
1000
1000
0000
,
0000
0000
0000
0000
,
0000
0000
0000
0000
,
0010
0010
0000
0000
,
0000
0100
0000
0000
,
0000
0000
0001
0000
,
0000
0000
1000
0000
,
1000
0000
0000
0000
,
0000
1000
0000
1000
,
1000
0000
0000
0000
,
0000
0001
0000
0001
,
0001
0000
0000
0000
,
0000
0100
0000
0100
,
0100
0000
0000
0000
,
0000
0010
0000
0010
,
0010
0000
0100
0000
,
0100
0000
0100
0000
,
0100
0000
0010
0000
,
0010
0000
0010
0000
,
0010
0010
0000
0000
,
0000
1000
0000
0000
,
0000
0001
0000
0000
,
0000
1000
0000
0100
,
0000
0010
0000
0000
,
0000
0000
0000
0001
,
0000
0001
0000
0000
,
0000
0000
0000
0100
,
0000
0100
0000
0000
,
0000
0000
0000
0010
,
0000
0010
0000
0000
,
0000
1000
0000
0010
,
0000
1001
0000
0000
,
0000
0000
0000
1000
,
0000
1000
0000
0000
,
0000
0000
0000
0100
,
0000
0100
0000
0010
,
0010
0000
0000
0000
,
0000
0001
0000
0000
,
0000
0001
0000
0001
,
0000
0001
0000
0010
,
0000
0100
0000
1000
,
0000
0001
0000
0010
,
0000
0001
0000
0001
,
0000
1000
0000
0000
,
0000
0100
0000
0000
,
0000
1000
0000
0000
,
0000
0010
0000
0000
,
0000
0100
0000
0000
,
0000
0001
0000
0001
,
0000
0100
0000
0000
,
0000
0010
0000
1000
,
0000
0100
0000
0000
,
0000
1001
0000
0000
,
0000
1000
0000
0000
,
0000
0001
0000
0000
,
0000
0000
0100
0000
,
0100
0000
0000
0000
,
0000
0100
0000
0000
,
0000
0010
0000
0010
,
0000
1000
0000
0000
,
0000
0001
0000
0000
,
0000
1000
0000
0000
,
0000
0100
0000
0000
,
0000
1000
0000
1000
,
0000
0100
0000
0001
,
0000
0100
0000
1000
,
0000
0010
0000
0001
,
0000
0010
0000
1000
,
0000
0100
0000
0000
;

//---------------dance-single - t7r----------------
#NOTES:
     dance-single:
     t7r:
     Easy:
     8:
     :
0000
0000
0000
0000
,
0000
0000
0000
0000
,
0000
0000
0000
0000
,
0000
0000
0000
0000
,
0000
0000
0000
0000
,
0000
0000
0000
0000
,
0100
0001
0000
1000
,
0000
0010
0100
0010
,
0000
1000
0100
0010
,
0000
0001
0010
0100
,
0000
1000
0100
1001
,
0000
0000
0000
0000
,
0000
0000
0000
0000
,
0110
0010
1000
0010
,
0100
0001
1000
0000
,
0001
0010
0100
0000
,
1000
0100
0010
0001
,
1001
0001
0001
1000
,
1000
0001
1000
0001
,
1001
1000
1000
0001
,
0001
1000
0001
1000
,
1001
0010
0010
0100
,
0100
0010
0100
0010
,
0110
0100
0100
0010
,
0010
0100
0010
0100
,
0110
0010
1000
0000
,
1000
0001
0100
0000
,
0100
0001
1000
0000
,
1000
0001
0010
0000
,
0010
0001
0100
0010
,
1000
0010
0100
0001
,
0100
0001
1000
0100
,
1000
0100
0010
0001
,
1000
1001
0000
0000
,
0010
0100
0000
0100
,
0000
0110
0000
0010
,
0000
1000
0000
0001
,
0000
1001
0000
0000
,
1000
0100
0000
1100
,
0000
0011
0000
0000
,
0001
1001
0000
0000
,
0000
0110
0000
0000
,
0010
1000
0000
0101
,
0000
1100
0000
0011
,
0000
1100
0000
1001
,
0000
0110
0000
0010
,
0010
1000
0000
0101
,
0000
1001
0000
0000
,
1000
0100
0000
0110
,
0000
0010
0001
1000
,
0100
1000
0100
0010
,
0001
1000
0010
0100
,
0001
0100
0000
0110
,
1001
1000
0000
0001
,
0001
0100
0000
0010
,
0010
1000
0000
0010
,
0100
0001
0000
1000
,
1001
0110
0000
0010
,
0100
0001
0000
1000
,
0100
0011
0000
1100
,
0000
1000
1000
0001
,
0001
0200
0000
0000
,
0300
0010
0000
0100
,
0100
0100
0010
1000
,
0001
1000
0001
0010
,
0100
1000
0100
0010
,
0011
0101
1001
0000
,
1001
0000
1001
0000
,
1001
1000
1000
0010
,
0100
0001
1000
0100
,
0010
0110
0010
0001
,
0100
0001
1000
0010
,
0100
0001
1000
0001
,
1000
0010
1010
0202
,
0303
1000
1000
0001
,
0001
1000
0001
1000
,
0001
1000
0100
0010
,
0001
1000
0010
0001
,
0010
1000
0000
0000
;

//---------------dance-single - t7r----------------
#NOTES:
     dance-single:
     t7r:
     Medium:
     11:
     :
0000
0000
0000
0000
,
0000
0000
0000
0000
,
0000
0000
0000
0000
,
0000
0000
0000
0000
,
0000
0000
0000
0000
,
0000
0000
0000
0000
,
0001
0000
1001
0000
0010
0100
0000
0100
,
0010
0000
1000
0000
0100
0010
0000
0010
,
0001
0000
1000
0000
0001
0100
0000
0100
,
0010
0000
1000
0000
0010
0100
0000
0100
,
0001
0000
0000
0000
1000
0000
0000
0000
1001
0000
0000
0000
0010
0000
0000
0100
,
0000
0000
0010
0000
0000
1000
0000
0000
0100
0000
0000
0010
0000
0000
0001
0000
,
0000
0010
0000
0000
0100
0000
0000
1000
0000
0000
0100
0000
0000
1000
0000
0000
,
1001
0000
0001
0100
0000
0001
1000
0000
,
0010
0000
1000
0100
0000
1000
0001
0000
,
1001
0000
0010
0100
0000
0100
0010
0000
,
1000
0000
0100
0010
0000
0010
0001
0000
,
1001
0000
0000
0000
0001
0000
0000
0001
0000
0000
0000
0000
1000
0000
0000
1000
,
0000
0000
0010
0000
0100
0001
1000
0000
,
1001
0000
0000
0000
0010
0000
0000
0010
0000
0000
0000
0000
0100
0000
0000
0100
,
0000
0000
0001
0000
1000
0100
0010
0000
,
0110
0000
0000
0000
0010
0000
0000
0001
0000
0000
0000
0000
1000
0000
0000
0100
,
0000
0000
1000
0000
0010
0100
0001
0000
,
1001
0000
0000
0000
0001
0000
0000
0010
0000
0000
0000
0000
0100
0000
0000
1000
,
0000
0000
0100
0010
0001
0000
1001
0000
,
0110
0000
0010
0000
1000
0100
0000
1000
,
0100
1000
0000
0001
0100
0001
0000
1000
,
0100
0000
0010
0000
0001
0100
0000
0001
,
1000
0001
0000
1000
0010
1000
0000
0010
,
0100
0000
0010
0000
1000
0100
0000
0001
,
0100
0001
0000
1000
0100
1000
0000
0001
,
0100
0000
0001
0000
1000
0010
0000
0001
,
0010
1000
0100
0000
0010
0000
0110
0000
,
1001
1000
0001
1000
,
0001
1000
0010
0100
,
0001
0100
0100
0010
,
1000
0100
0010
0001
,
0010
0100
0010
0001
,
0001
0010
1000
0010
,
0001
0100
0100
0010
,
1000
0010
0100
0001
,
1001
1010
0010
0010
,
0100
0001
1000
0100
,
0010
0100
1000
0010
,
0100
0001
1000
0010
,
0100
0010
0100
1001
,
1001
0100
0010
0110
,
0010
0100
0100
0010
,
0001
0100
0010
1000
,
0001
1000
1000
0001
,
0001
0100
0100
0001
,
0001
0000
0000
0000
1000
0000
0010
0000
0100
0000
0000
0000
0010
0000
0000
0100
,
0000
0000
0001
0000
1000
0000
0000
0001
0000
0000
0010
0000
0100
0000
0000
1000
,
0000
0100
1000
0010
0100
0000
0001
0000
,
0001
0000
0100
0001
1000
0000
0001
1000
,
0000
1000
0001
1000
0100
0000
0010
0000
,
0100
0010
0001
0000
0010
0000
0220
0000
,
0330
0000
1001
0000
1000
0100
1000
0000
,
0010
0000
0100
0001
1000
0000
0010
0000
,
1010
0000
0101
0000
0001
0100
0001
1000
,
0001
0000
1000
0100
0010
0000
0010
0100
,
1000
0200
0000
0000
,
0300
1001
0000
1000
,
1000
1000
0001
1000
,
0001
0100
0001
0000
1000
0000
0010
0000
,
0100
0000
0001
0000
1000
0000
0100
0010
,
0001
1000
1001
1100
,
1001
1000
1001
1100
,
1001
0001
1001
0101
,
1001
0010
0010
0010
,
0100
0000
0110
0000
0010
1000
0010
0000
,
0010
1000
0010
0000
0010
1000
0010
0000
,
0001
0100
0001
0000
0001
0100
0001
0000
,
0001
0100
0001
0000
0001
0100
0001
1000
,
0001
0000
1000
0000
0100
0010
0001
0000
,
0100
0010
0001
0000
0100
0010
0001
0000
,
0100
0010
0001
0000
0010
0000
0100
0000
,
1000
0000
0001
0010
0100
1000
0100
0001
,
0100
1000
0010
0000
0000
0000
0000
0000
;

//---------------dance-single - t7r----------------
#NOTES:
     dance-single:
     t7r:
     Hard:
     14:
     :
0000
0000
0000
0000
,
0000
0000
0000
0000
,
0000
0000
0000
0000
,
0000
0000
0000
0000
,
0000
0000
0000
0000
,
0000
0000
0000
0000
,
0001
0000
1001
0000
0010
0100
0000
0100
,
0001
0000
0000
0001
1000
0000
0100
0000
1000
0000
0010
0000
0000
0000
0010
0000
,
1000
0100
0010
0000
0001
0100
0000
0001
,
1000
0000
0000
1000
0010
0000
1000
0000
0100
0000
0010
0000
0000
0000
0010
0000
,
0100
0000
1000
0000
0010
0000
0000
0000
1001
0000
0000
0000
0101
0000
0000
1001
,
0000
0000
1001
0000
0000
1100
0000
0000
1001
0000
0000
1010
0000
0000
0110
0000
,
0000
0101
0000
0000
0011
0000
0000
0101
0000
0000
1010
0000
0000
1100
0000
0000
,
1001
0000
0000
0000
1000
0000
0100
0000
0000
0000
0010
0000
0001
0000
0000
0100
,
0001
1000
0010
0100
0000
0010
0100
0001
,
1000
0000
0000
0000
0001
0000
1000
0000
0000
0000
0001
0000
0010
0000
0000
0010
,
0100
0000
1000
0000
0010
0000
0100
0000
0000
0000
0001
0000
1000
0000
0001
1000
,
0001
0000
0000
0000
1001
0000
0000
0001
1000
0000
0010
0000
1000
0000
0000
0010
,
0100
0000
0001
0000
0100
0000
0000
0001
0010
0000
0100
0000
1000
0000
0100
0000
,
0010
0000
0001
0000
1000
0000
0000
0100
1000
0000
0010
0000
0100
0000
0000
0001
,
0100
0001
0010
0001
0100
0010
1000
0001
,
1000
0000
0100
0000
1000
0000
0000
0100
0010
0000
0100
0000
1000
0000
0000
0010
,
0100
0000
0001
0000
0100
0000
0000
0001
1000
0000
0001
0000
1000
0000
0010
0000
,
1000
0000
0001
0000
0100
0000
0000
0001
0100
0000
0001
0000
0010
0000
0000
0010
,
0100
1000
0100
0100
0010
0010
0001
0001
,
1000
1000
0001
0100
0001
0001
0100
0001
,
1000
0010
1000
0100
0010
0100
1000
1000
,
0001
0000
1000
0100
0010
0010
0100
1000
,
0010
0100
0001
0100
0001
0001
1000
0001
,
1000
0000
0001
1000
0001
0001
1000
0100
,
0010
0100
1000
1000
0100
0010
0001
0100
,
0010
0000
0100
0010
0100
0100
0010
0100
,
0001
0001
1000
0000
1001
0000
0110
0000
,
1001
0000
0001
0100
0001
0100
0001
1000
,
0001
0010
0100
1000
0100
0010
0001
0001
,
0010
0010
0001
0100
0010
1000
0010
0100
,
0001
1000
0100
0010
0100
0100
1000
1000
,
0001
0001
1000
0100
1000
0010
0100
0010
,
0100
0001
1000
0001
1000
0010
1000
1000
,
0100
0100
1000
0100
1000
1000
0001
0001
,
0100
0001
1000
1000
0010
0010
0100
0100
,
0001
0001
1002
0000
0000
0023
0000
0000
,
0230
0000
1300
0010
0100
0001
0100
0100
,
0010
1000
0002
0000
0003
0000
1001
0000
,
0010
1000
0002
0100
0010
0010
1000
0103
,
2000
0010
3002
1000
0100
0010
1003
0000
,
1001
0000
2000
0010
3001
0000
0120
0000
,
1030
0000
0101
0000
0101
0000
0010
0100
,
0001
0000
1000
0001
0000
1000
0001
0100
,
0001
0000
1000
0001
1000
0000
0010
0000
1000
0000
0010
0000
0100
0000
0001
0000
,
0100
0001
1000
0100
0010
0001
1000
0100
,
0001
0000
0100
0000
1000
0000
0010
0000
0001
0000
0010
0000
1000
0000
0000
0101
,
0000
0000
1001
0000
0100
0000
0000
0110
0000
0000
1000
0000
1000
0010
0000
0010
,
0100
0001
1001
0010
0001
0100
0001
0010
,
0100
1000
0100
0010
0001
1000
0010
0100
,
0000
0010
0100
0001
1000
0001
1000
0000
,
1001
0100
0010
1000
0010
0100
0001
0000
,
1001
0000
0011
0001
0010
0100
1000
0100
,
0010
0001
1000
0100
0010
0001
0100
0010
,
1000
0010
1000
0010
0100
0000
0001
0000
1000
0000
0001
0000
0100
0000
0001
0000
,
1000
0000
0010
0100
0001
0000
1000
0100
,
0010
0000
1001
0001
0100
0001
1000
0010
,
0100
0001
0100
0000
0001
1000
0100
1000
,
0001
1000
0001
1000
0010
0100
0001
0100
,
0010
1000
0010
0000
1000
0100
0010
0001
,
1000
0100
0010
0001
1000
0010
0100
0001
,
0100
0000
0000
0001
0100
0000
0000
0001
1000
0000
0000
1000
0010
0000
0000
0010
,
0100
0000
0000
0100
0001
0000
0000
0001
1000
0000
0000
1000
0001
0000
0000
0001
,
0010
0000
0000
0010
0100
0000
0000
0000
0100
0000
0000
0000
0100
0000
0000
0000
,
0100
0000
0010
0001
0100
0001
0010
0000
,
0101
0000
1001
0000
1000
0000
0010
0100
,
0010
0100
0001
1000
0001
1000
0001
0010
,
0001
0010
0100
1000
0100
1000
0100
0010
,
0001
1000
0010
0100
0001
1000
0001
0000
,
1001
0000
1010
0010
0100
0010
0100
0010
,
1000
0010
0100
0001
0100
0001
1000
0001
,
1000
0100
0010
0001
0010
0100
1000
0100
,
1000
0010
0100
0001
1000
0010
0001
0010
,
1000
0100
0001
0000
0000
0000
0000
0000
;

//---------------dance-single - t7r----------------
#NOTES:
     dance-single:
     t7r:
     Challenge:
     17:
     :
0000
0000
0000
0000
,
0000
0000
0000
0000
,
0000
0000
0000
0000
,
0000
0000
0000
0000
,
0000
0000
0000
0000
,
0000
0000
0000
0000
,
0010
0000
0110
0000
0010
0100
0000
0100
,
0001
0000
1000
0001
0100
0000
0001
0000
0010
0000
0200
0000
0000
0000
0310
0000
,
0001
0000
1000
0001
0010
0000
0001
0000
1100
0000
0001
0000
0000
0000
0001
0000
,
0100
0000
0010
1000
0100
0000
1000
0000
0010
0000
0200
0000
0000
0000
0301
1000
,
0100
0000
1000
0001
1000
0001
0000
0000
1001
0000
0000
0000
0110
0000
0000
0101
,
0000
0000
1010
0000
0000
1100
0000
0000
0011
0000
0000
1001
0000
0000
1010
0000
,
0000
0110
0000
0000
0101
0000
0000
0110
0000
0000
1010
0000
0000
1001
0000
0000
,
1100
0000
0001
0000
1000
0000
0001
0000
0010
0000
0100
0010
0001
0000
1000
0100
,
0010
0000
0100
1000
0001
0000
1000
0000
0000
0000
1000
0000
0010
0000
0100
0001
,
0100
0010
1000
0000
0001
0010
0100
0000
0000
0000
0010
0000
0001
0000
1000
0010
,
0100
0000
0010
1000
0001
0000
2000
0000
0000
0000
3001
0000
1000
0000
1000
0000
,
1001
0000
0000
0000
0110
0000
0010
0000
1000
0001
0100
0000
0001
0000
0001
0000
,
0010
0100
1000
0000
0010
0000
0010
0000
0100
0001
1000
0000
0101
0000
0010
0000
,
0101
0000
0010
0000
1100
0000
0100
0000
0010
0100
1000
0000
0010
0000
0010
0000
,
0100
0001
1000
0000
0001
0000
0001
0000
0010
0001
0100
0000
0001
0000
1000
0000
,
0010
1000
0010
1000
0100
0000
0100
0000
1000
0100
0010
0100
1000
0000
1000
0000
,
0001
0100
0010
0100
0001
0000
0001
0000
1000
0010
1000
0001
1000
0000
1000
0000
,
0001
1000
0101
0000
1100
0000
0100
0000
0010
0001
0100
0000
0010
0000
0010
0000
,
1000
0010
0100
0000
0010
0000
0010
0000
0100
0000
0100
0000
0110
0000
0110
0000
,
1001
1001
1100
0001
0010
0001
0100
0001
,
0010
0001
0100
0001
1000
0100
0001
0100
,
1000
0000
0101
1000
0010
1000
0100
1000
,
0001
1000
0100
1000
0010
1000
0100
0001
,
1010
0000
0010
0100
0010
0000
1000
0010
0100
0000
0001
0010
0100
0000
0010
0000
,
0001
0000
1000
0000
0001
0000
1000
0001
0100
0000
0001
1000
0010
0000
1000
0000
,
0100
1000
0100
1000
0010
0000
0100
0001
1000
0000
0001
0010
0100
0000
0010
0001
,
1000
0000
0001
0000
1001
0000
0100
0000
1001
0000
0010
0000
1000
0001
0000
0001
,
1000
0001
1000
0001
1000
0000
0100
0000
1000
0000
0100
0000
0001
0000
0100
0000
,
0001
0000
0100
0000
1000
0000
0010
0000
1000
0000
0010
0000
1000
0001
1000
0000
,
0001
0001
0010
0001
0100
1000
0100
0001
,
0010
0100
0010
0001
1000
0000
0001
0000
0010
0000
0001
0000
1000
0000
0010
0000
,
1000
0000
0100
0000
1000
0000
0010
0000
0001
0000
0010
0000
1000
0001
1000
0001
,
1000
0000
0001
0010
0001
0000
1000
0000
0100
0000
0001
0000
0100
0000
1000
0000
,
0010
0100
0001
0010
0001
0010
1000
0010
,
1000
0000
0010
0001
0100
0000
0010
0000
0100
0000
0010
0000
1000
0000
0100
0000
,
0010
0001
1100
0001
0100
1000
0100
0010
,
1000
0000
0001
0000
0010
0000
0100
0000
1000
0010
0100
0000
0010
0000
0101
0000
,
1000
0001
1100
0001
0010
0100
0110
0001
,
1000
0000
0010
0100
0010
1000
0001
1000
0001
0000
1000
0000
0100
0000
0010
0100
,
0010
0001
1000
0000
0101
0000
0010
0000
1000
0000
1000
0000
1001
0000
0100
0000
,
1001
0010
0010
0100
1001
1000
0101
0001
,
1000
0100
1000
0000
0110
0000
0001
0000
0110
0000
1000
0000
0100
0000
0011
0000
,
0100
0000
1010
0100
0000
0100
1001
0010
,
1001
0000
1000
0001
1000
0100
0001
0000
0100
0000
0100
0000
0100
0000
1000
0000
,
1000
1000
0010
0001
0001
0001
0010
1000
,
1000
0000
1000
0000
1100
0000
0010
0001
0100
0000
0001
0000
0101
0000
0000
1100
,
0000
0000
1010
0000
0011
0000
0000
1100
0000
0000
1001
0000
0001
1000
0000
1000
,
0001
0100
0001
0100
0010
0000
1000
0000
1100
0000
0010
0000
0001
0000
0100
0000
,
1010
0001
0100
0001
0011
0100
1000
0100
,
1000
1000
1001
0100
1010
0001
0100
0001
,
0011
0100
1000
0100
1010
0100
0001
1000
,
1001
0000
1100
0100
0011
0100
1000
0100
,
1010
0100
0001
0100
1010
0001
1000
0001
,
1000
0001
1000
0001
1000
0000
0001
0000
0011
0000
1000
0000
0001
0000
1000
0000
,
0101
0000
1000
0000
0110
0000
0001
0000
0110
0000
1000
0000
0100
0000
0010
0001
,
1000
0000
1000
0000
0001
0100
0001
0000
1000
0100
1000
0000
0001
0010
0001
1000
,
0001
0001
1001
0000
0010
1000
0100
0001
,
0100
1000
0010
0001
0010
1000
0100
0001
,
0100
1000
0010
0000
0100
0001
0010
1000
,
0010
0001
0100
1000
0100
0010
1000
0001
,
1000
0001
1000
0001
1000
0000
0100
0000
0010
0100
1000
0000
0001
0000
0100
0000
,
0010
0100
0001
0000
1000
0000
0001
0000
0010
0001
1000
0000
0001
0000
1000
0000
,
0010
1000
0001
0000
0100
0000
0000
0000
0100
0000
0000
0000
0100
0000
0000
0000
,
0100
0000
0010
0100
0001
1000
0001
0010
,
1100
0000
0000
0000
1010
0000
0000
0000
0001
0000
0100
0000
0001
1000
0001
0000
,
0001
0000
0001
0000
1000
0001
1000
0000
1000
0000
1000
0000
0010
0100
0010
0000
,
0010
0000
0010
0000
0100
0001
0100
0000
0100
0000
0100
0000
0001
0010
0100
0000
,
1000
0000
1000
0000
0100
0010
0001
0000
0100
0000
0100
0000
0010
1000
0001
0000
,
1000
0000
0000
0000
0001
0000
0010
0000
1000
0000
0010
0000
0001
1000
0001
0000
,
1000
0000
1000
0000
0010
0000
1000
0000
0100
0000
1000
0000
0010
0100
0001
0000
,
0010
0000
0010
0000
0001
0100
0001
0100
1000
0100
1000
0100
0001
0010
0001
0010
,
1000
0010
1000
0010
0001
0100
0010
1000
0100
0010
0001
0010
0100
1000
0001
1000
,
0001
1001
0000
0000
;
