#TITLE:MODEL FT2 Miracle Version;
#ARTIST:Mutsuhiko Izumi;
#BANNER:MODEL FT2 Miracle Version.png;
#BACKGROUND:MODEL FT2 Miracle Version-bg.png;
#JACKET:MODEL FT2 Miracle Version-jacket.png;
#CDTITLE:./CDTITLES/GUITAR FREAKS & DRUMMANIA.PNG;
#MUSIC:MODEL FT2 Miracle Version.ogg;
#OFFSET:-0.775;
#SAMPLESTART:13.742;
#SAMPLELENGTH:15;
#SELECTABLE:YES;#BPMS:0=310;
#BGCHANGES:-4=MODEL FT2 Miracle Version.avi=1=0=0=1=====;

//---------------dance-single - t7r----------------
#NOTES:
     dance-single:
     t7r:
     Beginner:
     5:
     :
0000
0000
0000
0000
,
0000
0000
0000
0000
,
0000
0000
0000
0000
,
0000
0000
0000
0000
,
0000
0000
0000
0000
,
0000
0000
0000
0000
,
0000
0000
0000
0000
,
0000
0000
0000
0000
,
0000
0000
0000
0000
,
1000
0000
0100
0000
,
0010
0000
0001
0000
,
0010
0000
0100
0000
,
1000
0000
0100
0000
,
0010
0000
0010
0000
,
0001
0000
1000
0000
,
0001
0000
0100
0000
,
0001
0000
0000
0000
,
0001
0000
0100
0000
,
0001
0000
1000
0000
,
0001
0000
0100
0000
,
0100
0000
0010
0000
,
1000
0000
0010
0000
,
0100
0000
0001
0000
,
1000
0000
0100
0000
,
0010
0000
0010
0000
,
0001
0000
0010
0000
,
0001
0000
1000
0000
,
0001
0000
0100
0000
,
0001
0000
1000
0000
,
0100
0000
0010
0000
,
0001
0000
0010
0000
,
0100
0000
0010
0000
,
0001
0000
0001
0000
,
1000
0000
0000
0000
,
0000
0001
0000
0000
,
1000
0000
0100
0000
,
0010
0000
0001
0000
,
1000
0000
0000
0000
,
0000
0100
0000
0000
,
0010
0000
0001
0000
,
0010
0000
0001
0000
,
1000
0000
0001
0000
,
1000
0000
0001
0000
,
1000
0000
1000
0000
,
1000
0000
0000
0000
,
0001
0000
0100
0000
,
0001
0000
0100
0000
,
0010
0000
0100
0000
,
0010
0000
1000
0000
,
0100
0000
0010
0000
,
1001
0000
0000
0000
,
0001
0000
0100
0000
,
0100
0000
0100
0000
,
0010
0000
1000
0000
,
1000
0000
1000
0000
,
0100
0000
0010
0000
,
0010
0000
0010
0000
,
0001
0000
1000
0000
,
0001
0000
1000
0000
,
0001
0000
0100
0000
,
0001
0000
0100
0000
,
1000
0000
0100
0000
,
1000
0000
0010
0000
,
0100
0000
0001
0000
,
1000
0000
0100
0000
,
0010
0000
0001
0000
,
0010
0000
0100
0000
,
1000
0000
0000
0000
,
0000
0000
0000
0000
,
0001
0000
1001
0000
,
1000
0000
1001
0000
,
0001
0000
0000
0000
,
0000
0000
0000
0000
,
1000
0000
1001
0000
,
0001
0000
1001
0000
,
0010
0000
0000
0000
,
0100
0000
0000
0000
,
0010
0000
0100
0000
,
0010
0000
0000
0000
,
1000
0000
0000
0000
,
0001
0000
0000
0000
,
1000
0000
0001
0000
,
1000
0000
0000
0000
,
0100
0000
0000
0000
,
0010
0000
0000
0000
,
0001
0000
0010
0000
,
0100
0000
0000
0000
,
1000
0000
1000
0000
,
0100
0000
0100
0000
,
1000
0000
1000
0000
,
0001
0000
0000
0000
,
0100
0000
0000
0000
,
0000
0000
0000
0000
,
0000
0000
0000
0000
,
0000
0000
0000
0000
,
0010
0000
0000
0000
,
0000
0000
0000
0000
,
0100
0000
0000
0000
,
1000
0000
1000
0000
,
0001
0000
0000
0000
,
0000
0000
0000
0000
,
0000
0000
0000
0000
,
0001
0000
1000
0000
,
0001
0000
0000
0000
,
0100
0000
0000
0000
,
0001
0000
0001
0000
,
1000
0000
0000
0000
,
0100
0000
0000
0000
,
0010
0000
0000
0000
,
0001
0000
0010
0000
,
0100
0000
0000
0000
,
1000
0000
0000
0000
,
0100
0000
0000
0000
,
0010
0000
0001
0000
,
0100
0000
0000
0000
,
0001
0000
0000
0000
,
1000
0000
0000
0000
,
0001
0000
1000
0000
,
0001
0000
0000
0000
,
1000
0000
0000
0000
,
0100
0000
0000
0000
,
1000
0000
0100
0000
,
0010
0000
0001
0000
,
1000
0000
1000
0000
,
1000
0000
0000
0000
,
0001
0000
0010
0000
,
0100
0000
0000
0000
;

//---------------dance-single - t7r----------------
#NOTES:
     dance-single:
     t7r:
     Easy:
     11:
     :
0000
0000
0000
0000
,
0000
0000
0000
0000
,
0000
0000
0000
0000
,
0000
0000
0000
0000
,
0000
0000
0000
0000
,
0000
0000
0000
0000
,
0000
0000
0000
0000
,
0000
0000
0000
0000
,
0000
0000
0000
0001
,
0100
0010
1000
0001
,
1000
0100
0010
0001
,
0010
0001
1000
0100
,
1000
0010
0100
0001
,
0100
0010
1000
0100
,
0010
0001
0100
0010
,
1000
0100
0010
0001
,
1001
1001
0000
0010
,
1000
0001
0100
0001
,
1000
0010
0100
0001
,
1000
0100
0010
0001
,
1001
0000
0110
0000
,
2002
0000
0000
3003
,
0010
1000
0001
0100
,
0002
0000
0000
0003
,
1000
0000
1001
0010
,
0100
0001
1000
0100
,
0010
0001
1000
0100
,
1000
0010
0100
0010
,
1000
0000
1010
0000
,
0220
0000
0000
0330
,
0001
0010
0001
1000
,
0100
1000
0001
0100
,
1001
0000
1100
0001
,
0100
0001
0010
0001
,
0100
0001
1000
0100
,
0010
0000
0000
1001
0000
0000
0110
0000
,
0000
1001
0000
0000
0010
0000
0100
0000
,
0001
0010
0001
1000
,
0100
1000
0010
0100
,
1000
0000
0000
1100
0000
0000
0101
0000
,
0000
1100
0000
0000
0001
0000
0010
0000
,
0001
0100
0101
0000
,
1000
0100
1100
0010
,
1001
0000
1001
0000
,
0100
0000
0000
0100
0000
0000
0100
0000
,
0010
0001
0010
1000
,
0010
0001
0100
1000
,
0100
0010
1000
0100
,
0001
0100
0010
0001
,
0010
0100
1000
0001
,
2002
0000
0000
3003
,
0010
1000
0001
0100
,
0001
0010
0001
1000
,
0100
1000
0010
1000
,
0001
0100
0001
1000
,
0100
0010
0001
0100
,
0010
0100
1000
0100
,
0001
0100
0010
0001
,
1010
0000
0110
0100
,
0001
1000
0100
1000
,
0001
0100
0001
0010
,
0001
0100
0010
0100
,
0010
1000
0100
0010
,
1001
0010
1000
0001
,
0100
0010
1000
0100
,
0001
0100
1000
0001
,
1001
0000
1001
0000
,
0110
0110
0010
1000
,
0001
0100
0001
1000
,
1100
0000
0101
0000
,
1100
0000
0101
0000
,
0011
0011
0001
0010
,
0001
1000
0100
1000
,
0110
0000
1001
0000
,
0110
0000
1001
0001
,
0100
0001
1000
0010
,
0100
1000
0100
0010
,
0001
0010
1000
0001
,
0100
0001
1000
0100
,
0001
0100
0001
0100
,
1000
0010
1000
0100
,
1000
0001
0100
0010
,
1000
0001
0100
0001
,
0100
0010
0100
0001
,
0001
1000
0100
1000
,
1000
0010
0100
0010
,
0100
0100
1000
0100
,
0001
0100
1000
0100
,
0001
0100
1000
0100
,
0001
0010
0100
1000
,
0100
0220
0000
0330
,
0001
0100
0001
0100
,
0001
1000
0001
0100
,
0001
1000
0100
1000
,
0100
0010
0001
0100
,
0001
1000
0001
0100
,
0001
1000
0001
0100
,
0010
1000
0001
0100
,
0110
0000
0110
0010
,
1000
0001
0010
0001
,
0010
0001
0100
1000
,
0100
0001
0100
1000
,
0100
0001
0100
1000
,
0100
0010
0100
1000
,
0100
0001
1000
0001
,
0010
1000
0010
0001
,
1001
0000
0110
0010
,
1001
1000
0100
1000
,
0001
0100
0001
1000
,
0110
0000
0000
0110
0000
0000
0110
0000
,
0000
1100
0000
0000
0100
0000
1000
0000
,
0001
0100
0001
1000
,
0010
1000
0100
0010
,
1001
0000
0000
1001
0000
0000
1001
0000
,
0000
1001
0000
0000
0100
0000
0010
0000
,
0001
0010
0110
0000
,
1000
0010
0110
0010
,
1001
0000
1001
0000
,
0110
0000
0000
0110
0000
0000
0110
0000
,
0001
0010
0001
0010
,
1000
0010
1000
0010
,
0001
0100
1000
0100
,
0001
0100
0001
0010
,
0100
0010
0001
1000
,
2002
0000
0000
3003
,
0010
0100
1000
0001
,
0220
0000
0000
0330
;

//---------------dance-single - t7r----------------
#NOTES:
     dance-single:
     t7r:
     Medium:
     12:
     :
0000
0000
0000
0000
,
0000
0000
0000
0000
,
0000
0000
0000
0000
,
0000
0000
0000
0000
,
0000
0000
0000
0000
,
0000
0000
0000
0000
,
0000
0000
0000
0000
,
0000
0000
0000
0000
,
0000
0000
0000
1000
,
0010
1000
0010
1000
,
0010
0100
0001
0100
,
0001
0010
0100
1000
,
0100
0010
0001
0010
,
0100
1000
0100
1000
,
0001
0100
0010
1000
,
0010
0000
1000
0010
1000
0000
0001
0000
,
1001
1001
0000
0001
,
0100
0001
1000
0100
,
0010
0001
0010
0100
,
1000
0100
0100
1000
,
0100
0000
0110
0000
,
1001
0001
0100
0001
,
1000
0010
0100
0001
,
0100
0010
1000
0010
,
1010
0000
0101
0001
,
0100
0001
1000
0100
,
0010
0001
0010
0100
,
1000
0100
0010
0001
,
1000
0000
0110
0000
,
0101
0001
0010
0100
,
1000
0100
0010
0001
,
1000
0000
0001
1000
0001
0000
1000
0001
,
1000
0000
1001
0010
,
0101
0001
0100
0010
,
1000
0100
0010
0001
,
0010
0100
0000
0010
0001
0000
0010
0100
,
0000
0010
0001
0000
0010
0000
0100
0000
,
1000
0100
0010
0001
,
1000
0100
0010
0001
,
0010
0100
0000
1000
0100
0000
0010
0100
,
0000
1000
0100
0000
0010
0000
0001
0000
,
1000
0010
0110
0000
,
0010
0100
0101
0000
,
1001
0000
1100
0000
,
1001
0000
0000
1001
0000
0000
1001
0000
,
0001
0100
0001
1000
,
0100
0010
0001
0010
,
0100
0010
0001
0010
,
0100
1000
0100
1000
,
0001
1000
0000
0001
1000
0000
0001
1000
,
0002
0000
0000
0003
,
1000
0010
0100
0001
,
1000
0010
0100
0001
,
1000
0100
0010
0001
,
1000
0100
0010
0001
,
1000
1000
0010
0010
,
0100
0100
0001
0001
,
1000
0100
0010
0001
,
1001
0000
0101
0000
,
0001
0010
0100
1000
,
0001
0010
0100
1000
,
0001
0010
0001
0100
,
0001
0010
0001
0100
,
0001
0001
0010
0010
,
0100
0100
1000
1000
,
0001
0010
0100
1000
,
1001
0000
0110
0010
,
0101
0101
1001
0000
,
1100
0000
1001
0000
,
2200
3300
0220
0330
,
0022
0033
2002
3003
,
0101
0101
0110
0000
,
1010
0000
0110
0000
,
0202
0303
0220
0330
,
2020
3030
2002
3003
,
1000
0100
1000
0001
,
0100
0001
1000
0100
,
0010
0001
1001
0000
,
0001
0100
1010
0000
,
0010
1000
0100
0001
,
0100
1000
0010
0001
,
0010
0100
0110
0000
,
0010
1000
1010
0000
,
0001
0100
1000
0100
,
0001
0100
1000
0100
,
0001
0010
0110
0000
,
0010
0001
0101
0010
,
0110
0000
0101
0000
,
0110
0000
1100
0000
,
0110
0000
1001
0000
,
1100
1100
0010
0001
,
0100
0000
0000
0001
0100
0000
0000
0010
,
1000
0000
0000
0001
1000
0000
0000
1000
,
0100
0000
0000
0100
0010
0000
0000
0010
,
0001
0000
0000
0001
0010
0000
0000
0010
,
0100
0000
0000
0100
1000
0000
0000
1000
,
0100
0000
0000
0100
1000
0000
0000
1000
,
0001
0100
0001
1000
,
1001
0000
1001
0001
,
0100
0000
0000
0100
0001
0000
0000
0001
,
1000
0000
0000
1000
0010
0000
0000
0010
,
1000
0000
0000
1000
0100
0000
0000
0100
,
0010
0000
0000
0010
0001
0000
0000
0001
,
0010
0000
0000
0010
0001
0000
0000
1000
,
0100
0000
0000
0010
0001
0000
0000
1000
,
0100
0010
0001
1000
,
1001
0000
1001
0010
,
1001
0001
0100
0001
,
1000
0100
0010
0001
,
0110
0000
0000
0110
0000
0000
1001
0000
,
0000
0110
0000
0000
0010
0000
0100
0000
,
0001
0100
0010
1000
,
0100
0010
0001
1000
,
0101
0000
0000
1100
0000
0000
0101
0000
,
0000
1100
0000
0000
0001
0000
0010
0000
,
0100
0010
0011
0000
,
0001
0010
1100
0010
,
1001
0000
1001
0000
,
0101
0000
0000
1100
0000
0000
1010
0000
,
0010
0100
0001
1000
,
0100
0010
0001
1000
,
0100
1000
0001
0100
,
0001
1000
0001
0000
1000
0001
1000
0000
,
0001
0100
0000
0010
0100
0000
0010
1000
,
0100
0000
1001
0000
1000
0100
0010
0001
,
0010
0100
0000
1000
0100
0000
0010
0001
,
0020
0000
0000
0030
;

//---------------dance-single - t7r----------------
#NOTES:
     dance-single:
     t7r:
     Hard:
     15:
     :
0000
0000
0000
0000
,
0000
0000
0000
0000
,
0000
0000
0000
0000
,
0000
0000
0000
0000
,
0000
0000
0000
0000
,
0000
0000
0000
0000
,
0000
0000
0000
0000
,
0000
0000
0000
0000
,
0000
0000
0000
0000
0000
0000
0001
0010
,
0100
0000
1000
0100
1000
0000
0001
0000
,
0100
0000
0010
1000
0010
0000
0100
0000
,
0001
0000
1000
0100
0010
0000
0001
0000
,
0010
0000
0001
1000
0001
0000
1000
0000
,
0001
0000
0100
0001
0100
0000
0010
1000
,
0010
0000
1000
0001
1000
0000
0001
0000
,
1000
0100
0010
0001
0010
0100
1000
0001
,
1000
0000
1001
0000
0000
0000
0001
0100
,
0001
1000
0001
0100
,
0001
1000
0000
0001
0100
0000
0001
0000
,
0010
0000
0100
1000
0100
0000
0010
0000
,
0001
0010
0001
0000
0100
1000
0100
0000
,
0010
0000
0001
0000
1000
0100
0000
0100
,
1000
0000
0001
0000
0100
0001
0000
0001
,
0100
0000
0010
1000
0001
0000
1000
0000
,
1001
0000
0000
0000
0110
0000
0010
0100
,
0001
1000
0001
1000
,
0100
0010
0000
0001
0010
0000
0001
0000
,
0010
0000
0100
0010
0001
0000
0010
0000
,
0100
0010
0100
0000
1000
0100
1000
0000
,
0001
0000
0010
0000
0001
0100
0000
0100
,
0001
0000
1000
0000
0010
1000
0000
1000
,
0010
0100
0001
0100
0001
1000
0001
0100
,
0001
0000
1001
0010
,
0110
0000
0010
1000
0001
0000
1000
0100
,
0000
0010
0000
0100
1000
0000
0100
1000
,
0001
0100
0000
0001
1000
0000
0001
0100
,
0000
0001
1000
0000
1001
0000
0001
0010
,
0100
0000
1000
0100
0010
0000
0001
0010
,
0000
0100
0000
1000
0100
0000
0001
0100
,
0001
0010
0000
0100
0010
0000
0001
0010
,
0000
0100
0010
0000
0001
0010
0100
1000
,
0100
0000
1000
0001
0100
0000
0001
0000
,
1001
0000
1000
0010
0100
0000
0010
0000
,
0110
0000
1001
0000
,
0101
0000
0000
1010
0000
0000
0101
0000
,
0001
0100
0000
1000
0100
0000
0001
0100
,
0000
1000
0100
0000
0001
0100
0001
1000
,
0010
0100
0010
1000
0010
0100
0010
0001
,
0010
0100
0010
1000
0010
1000
0001
0100
,
0001
1000
0000
1000
0001
0000
1000
0001
,
2002
0000
0000
3003
,
0101
0000
0001
1000
0100
0000
1000
0100
,
0000
0010
0000
0001
0010
0000
0001
0010
,
0100
0000
1000
0100
1000
0000
0001
0100
,
0000
0001
0000
1000
0010
0000
0100
0010
,
1000
0010
0100
0000
0010
0100
0001
0000
,
0100
0010
1000
0000
0010
0100
0001
0000
,
1000
0000
0001
1000
0100
0000
0010
0000
,
0110
0000
1001
0010
,
0101
0000
0001
0100
0001
0000
1000
0100
,
0000
1000
0000
0001
0100
0000
0001
0100
,
0010
0000
1000
0010
1000
0000
0100
0010
,
0000
0001
0000
0010
0100
0000
1000
0000
,
1001
0000
0010
0100
0001
0000
0100
0001
,
0000
1000
0000
0001
0100
0000
0001
0010
,
0100
0000
1000
0100
0010
0000
0001
0010
,
0110
0000
1001
0000
,
0101
0000
0101
0000
1000
0001
1000
0000
,
0001
0100
0001
0000
1000
0010
0100
0000
,
0110
0000
1010
0000
,
0110
0000
0101
0000
,
1100
0000
1100
0000
0001
0010
0001
0000
,
1000
0100
1000
0000
0010
0001
0010
0000
,
1100
0000
0011
0000
,
0110
0000
1001
0000
,
0101
0000
0010
0100
0010
0000
1000
0010
,
0000
0100
0000
0001
0100
0000
0001
0000
,
1001
0000
0001
1000
0100
0000
0010
0000
,
0110
0000
0010
0100
0001
0000
0100
0000
,
0101
0000
0001
0100
1000
0000
1000
0010
,
0000
0100
0000
0001
1000
0000
1001
0000
,
0110
0000
1000
0010
1000
0000
0001
0000
,
0101
0000
0001
1000
0100
0000
0010
0000
,
0001
0010
0100
0000
1000
0100
0010
0000
,
0001
0010
0001
0000
1000
0100
1000
0000
,
0110
0000
0001
1000
0100
0000
1000
0000
,
1001
0000
1000
0001
0100
0000
1001
0000
,
0100
0000
0001
0100
0001
0000
1000
0100
,
1000
0000
0001
1000
0001
0000
0001
0100
,
1000
0000
1000
0100
0001
0000
0001
0100
,
0001
0000
2002
0000
3003
0000
0010
0100
,
0010
0000
0000
0100
0001
0000
0000
0001
,
1000
0000
0000
1000
0100
0000
0000
0100
,
0010
0000
0000
0010
0001
0000
0000
0001
,
0010
0000
0000
0010
0100
0000
0000
0100
,
1000
0000
0100
1000
0100
0000
1000
0000
,
0100
0000
0010
0001
0010
0000
0001
0000
,
0010
0000
0100
0010
0001
0000
0010
0000
,
1001
0000
0000
0000
0110
0000
0010
0100
,
0010
0000
0000
1000
0010
0000
0000
0010
,
0100
0000
0000
0100
0001
0000
0000
0001
,
1000
0000
0000
1000
0100
0000
0000
0100
,
0010
0000
0000
0010
0001
0000
0000
0001
,
0010
0000
0001
0010
0001
0000
1000
0000
,
0100
0000
0010
0001
0010
0000
0001
0000
,
0010
0100
1000
0100
0010
0001
1000
0001
,
0100
0000
0101
0000
,
1010
0000
0010
1000
0001
0000
1000
0100
,
0000
0010
0000
0100
1000
0000
0100
0010
,
0001
0010
0000
0001
0100
0000
0001
0010
,
0000
0001
0100
0000
0110
0000
0010
1000
,
0001
0000
1000
0001
0100
0000
0001
1000
,
0000
0100
0000
1000
0010
0000
1000
0100
,
1000
0001
0000
0100
0001
0000
1000
0010
,
0000
0100
0001
0000
1001
0000
0001
0010
,
0100
0000
0010
0001
0100
0000
0001
0000
,
1001
0000
0010
1000
0100
0000
0010
0000
,
0110
0000
0000
0000
1010
0000
0000
0100
,
0101
0000
0000
1100
0000
0000
0101
0000
,
0001
1000
0000
0001
0100
0000
0001
1000
,
0000
0001
0010
0000
0100
0000
0110
0000
,
0010
0001
0100
0001
0010
0001
0100
0001
,
0010
0001
0010
0100
1000
0100
0010
0001
,
1000
0001
0000
0001
1000
0000
0001
0100
,
0001
0000
1010
0000
0010
0100
0001
0100
,
0010
1000
0000
1000
0010
0000
0100
0001
,
0200
0000
0000
0300
;

//---------------dance-single - t7r----------------
#NOTES:
     dance-single:
     t7r:
     Challenge:
     17:
     :
0000
0000
0000
0000
,
0000
0000
0000
0000
,
0000
0000
0000
0000
,
0000
0000
0000
0000
,
0000
0000
0000
0000
0000
0000
0001
0010
,
0200
0000
0000
0300
,
0000
0000
1000
0100
,
0220
0000
0000
0330
,
2002
0000
0000
0000
3003
0000
0001
0100
,
0001
0000
1000
0010
0100
0001
0100
0010
,
1000
0000
0001
1000
0001
0100
0001
1000
,
0100
0000
0010
0001
0010
0100
1000
0100
,
1000
0000
0001
1000
0001
0100
0001
1000
,
0010
0100
0010
1000
0010
0100
0010
0001
,
0010
0100
0010
1000
0010
1000
0001
0100
,
0001
0010
0100
1000
0100
0000
0010
0001
,
0101
0000
2002
0000
3003
0000
0001
0010
,
0110
0000
0010
0001
1000
0000
0001
0100
,
0010
1000
0000
0001
1000
0000
0001
0100
,
0001
0000
1000
0100
0010
0000
0001
0100
,
0202
0303
2002
3003
,
1100
0000
0100
0010
0001
0000
0010
0000
,
0110
0000
0010
0100
1000
0000
0100
0000
,
0010
0001
0100
0001
0010
0001
0100
0001
,
2002
0000
3003
0000
1200
0000
1300
0100
,
0010
0000
0100
0010
0001
0000
0010
0001
,
1000
0100
0000
1000
0010
0000
0100
0010
,
1000
0000
0010
0100
0001
0000
0001
0100
,
0220
0330
2020
3030
,
0110
0000
0010
1000
0001
0000
0100
0000
,
0101
0000
0001
1000
0100
0000
0110
0000
,
0010
0001
0010
0001
1000
0100
1000
0100
,
0220
0000
0330
0000
2001
0000
3001
0100
,
0101
0000
0001
1000
0100
0000
0010
0001
,
0000
0011
0000
0001
0010
0000
0100
1000
,
0100
2000
0000
3001
2000
0000
3001
0200
,
0000
0310
2000
0000
3010
0000
0100
0010
,
1000
0000
0010
0100
0001
0000
0001
0100
,
0000
1001
0000
0001
0010
0000
0100
0010
,
0001
0020
0000
0031
0020
0000
0130
2000
,
0000
3100
2000
0000
3001
0000
1000
0010
,
0100
0000
0110
0000
1001
0000
0001
0100
,
0010
0000
0110
0000
1010
0000
0010
1000
,
2002
3003
0202
0303
,
2002
0000
3003
2200
0000
3300
1002
0000
,
1003
0010
0100
0001
0100
0010
1000
0010
,
0100
0001
0100
0001
0100
0010
0100
0010
,
1000
0010
0100
0010
1000
0010
1000
0100
,
0010
0001
0010
0100
1000
0100
0010
0001
,
1000
0002
0000
1003
0002
0000
1003
0001
,
2000
0000
3001
0000
1000
0010
0100
0001
,
2000
3002
2003
3002
,
1003
0010
1000
0100
0010
0001
0010
0100
,
1000
0100
1000
0001
0100
0001
1000
0010
,
1000
0010
0100
0001
1000
0010
0100
0001
,
1000
0010
0100
0010
1000
0010
0100
0010
,
1000
0010
0100
0010
1000
0010
0100
0010
,
1000
0010
1000
0100
0010
0001
0010
0100
,
1000
1100
0011
1100
,
0002
2003
3002
2003
,
3001
0100
0010
0100
0010
1000
0100
0010
,
0001
0010
0100
1000
0001
0100
0001
1000
,
0001
0100
0010
1000
0001
1000
0001
0100
,
0010
1000
0010
1000
0001
0100
0001
0100
,
0010
1000
0001
1000
0100
0010
0001
0010
,
0100
1000
0100
1000
0001
0100
0010
1000
,
1010
0101
1010
1001
,
0101
0000
0101
0000
0010
0100
0010
1000
,
0010
0100
0010
0001
0010
0100
0010
1000
,
2010
3100
0012
0103
,
2010
3001
0102
1003
,
1100
0000
1100
0000
0001
0010
0100
1000
,
0001
0010
0100
1000
0001
0010
0100
1000
,
2100
3010
0120
1030
,
1002
1003
2100
3001
,
1100
0000
0010
0001
0100
0000
0101
0000
,
1010
0000
0010
1000
0001
0000
1001
0000
,
0220
0330
2002
3003
,
0202
0303
2020
3030
,
1010
0000
0010
1000
0001
0000
0101
0000
,
1100
0000
1000
0100
0010
0000
0011
0000
,
0202
0303
2002
3003
,
2200
3300
0220
0330
,
0001
1000
0001
0100
0001
1000
0001
0100
,
0001
0010
0100
1000
0001
0010
0100
1000
,
2200
3300
0220
0330
,
0022
0033
1001
0010
,
0101
0000
0001
0100
0101
0000
0001
1000
,
1001
0000
1000
0100
1100
0000
0010
0001
,
0011
0000
0001
0010
0110
0000
0010
0100
,
1001
0000
1001
0000
0001
0100
0001
1000
,
0002
0000
0103
0001
0200
0000
0310
1000
,
0020
0000
1030
0100
0020
0000
0031
0010
,
0200
0000
1300
0001
2000
0000
3001
0100
,
0002
0000
1003
0010
2000
0000
3001
0100
,
0020
0000
1030
0010
0200
0000
0320
0000
,
1030
0010
0100
0001
1000
0010
0100
0010
,
1000
0000
0001
1000
0001
0000
1000
0000
,
2002
0000
3003
0000
0102
0000
0013
0100
,
0010
0000
1000
0010
0200
0000
0301
0100
,
0002
0000
1003
0100
2000
0000
3100
0010
,
0002
0000
0013
0100
0020
0000
0031
0010
,
0200
0000
1300
0100
2000
0000
3001
0100
,
0002
0000
1003
0010
0100
0000
1001
0000
,
0001
0100
0001
1000
0100
0010
0001
0010
,
0100
0010
0001
0010
0100
1000
0100
1000
,
2002
0000
3003
0000
0120
0000
1030
0010
,
0101
0000
0001
1000
0200
0000
1300
0200
,
0000
0320
0000
0130
1000
0000
1000
0100
,
1000
0020
0000
0130
0002
0000
1003
0200
,
0000
0310
0001
0000
0011
0000
0001
0100
,
0010
0000
1000
0010
0200
0000
0301
0200
,
0000
0302
0000
1003
0002
0000
1003
0001
,
0100
0002
0000
0103
0020
0000
0130
0002
,
0000
0000
0103
0000
0020
0000
0030
0000
1020
0000
0000
0030
2010
0000
0000
3000
,
1001
0000
0000
0000
0001
0000
0100
0000
2020
0000
0000
3030
0100
0000
0000
0000
,
0011
0000
0000
0000
1000
0000
0100
0000
0022
0000
0000
0033
0001
0000
1000
0000
,
1001
0000
0001
0100
1001
0000
1000
0100
,
0220
0000
0330
2002
0000
3003
0210
0000
,
0310
2000
0000
3001
0200
0000
0310
2000
,
0000
3001
1000
0000
1001
0000
0110
0000
,
1000
0100
0001
0100
1000
0100
0001
0100
,
1000
0010
0001
0010
1000
0010
0001
0010
,
1000
1100
0000
0010
0011
0000
0001
1000
,
2001
0000
3010
0000
0010
0100
0010
0100
,
0101
0202
0303
1001
2002
3003
1100
1100
,
2002
0000
0000
3003
;
