#TITLE:MODEL DD7;
#ARTIST:Mutsuhiko Izumi;
#BANNER:MODEL DD7.png;
#BACKGROUND:MODEL DD7-bg.png;
#JACKET:MODEL DD7-jacket.png;
#CDTITLE:./CDTITLES/GUITAR FREAKS & DRUMMANIA.PNG;
#MUSIC:MODEL DD7.ogg;
#OFFSET:-1.457;
#SAMPLESTART:68.364;
#SAMPLELENGTH:15;
#SELECTABLE:YES;#BPMS:0=165;

//---------------dance-single - t7r----------------
#NOTES:
     dance-single:
     t7r:
     Beginner:
     1:
     :
0000
0000
0000
0000
,
0000
0000
0000
0000
,
1000
0000
0000
0000
,
0001
0000
0100
0000
,
0001
0000
0000
0000
,
1000
0000
0000
0000
,
0010
0000
0000
0000
,
0100
0000
0010
0000
,
0100
0000
0000
0000
,
0001
0000
0000
0000
,
0000
1000
0000
0000
,
0000
0001
0000
0000
,
0100
0000
0000
0000
,
0010
0000
1000
0000
,
0100
0000
0000
0000
,
0001
0000
0000
0000
,
1000
0000
0000
0000
,
0010
0000
0000
0000
,
0100
0000
0000
0000
,
0001
0000
0000
0000
,
1000
0000
0010
0000
,
0001
0000
0000
0000
,
0000
0100
0000
0000
,
0000
0010
0000
0000
,
1000
0000
1000
0000
,
0001
0000
0000
0000
,
0001
0000
0001
0000
,
0100
0000
0000
0000
,
0010
0000
0000
0000
,
1000
0000
0000
0100
,
0100
0000
0000
0000
,
1000
0000
0000
0000
,
0010
0000
0000
0000
,
0100
0000
0000
0000
,
0001
0000
0000
0000
,
1000
0000
0000
0000
,
0010
0000
0000
0000
,
1000
0000
0000
0000
,
0001
0000
0001
0000
,
0001
0000
0000
0000
,
1000
0000
1000
0000
,
1000
0000
0000
0000
,
0010
0000
0000
0000
,
0100
0000
0000
0000
,
0001
0000
1000
0000
,
1001
0000
0000
0000
,
0010
0000
0000
0000
,
0100
0000
0000
0000
,
0000
0010
0000
0000
,
0000
0100
0000
0000
,
0001
0000
1000
0000
,
0001
0000
0100
0000
,
0010
0000
0000
0000
,
1000
0000
0000
0000
,
0100
0000
0000
0000
,
0001
0000
0000
0000
,
0100
0000
0000
0000
,
1000
0000
0000
0000
,
0010
0000
0001
0000
,
1001
0000
0000
0000
,
0000
1000
0000
0000
,
0000
0001
0000
0000
,
1000
0000
1000
0000
,
1000
0000
0000
0000
,
0001
0000
0001
0000
,
0001
0000
0000
0000
,
0100
0000
0000
0000
,
0010
0000
0100
0000
,
0010
0000
0000
0000
,
1000
0000
0000
0000
0000
0000
0000
0000
0000
0000
0000
0000
0000
1001
0000
0000
;

//---------------dance-single - t7r----------------
#NOTES:
     dance-single:
     t7r:
     Easy:
     5:
     :
0000
0000
0000
0000
,
0000
0000
0000
0000
,
2000
3000
0000
0000
,
0002
0003
0000
0100
,
0020
0030
0000
0000
,
2000
3000
0000
0100
,
0020
0030
0000
0000
,
0200
0300
2002
3003
,
0010
0000
0010
0000
,
0100
0100
0100
0000
,
0000
1001
0000
0000
,
0000
0110
0000
0000
,
2000
3000
0002
0003
,
1000
0100
0010
0001
,
0200
0300
0000
0000
,
0020
0030
0000
0000
,
2000
3000
0000
0000
,
0002
0003
0000
1000
,
0002
0003
0000
0000
,
2000
3000
0000
0100
,
0100
0000
0010
0000
,
2002
0000
0000
3003
,
0000
0110
0000
0000
,
0000
1001
0000
0000
,
1000
0000
1000
0000
,
0100
0000
0010
0000
,
0001
0000
0001
0000
,
0100
0000
0010
0000
,
2002
0000
0000
3003
,
0100
0100
0100
0100
,
0020
0000
0000
0030
,
1000
0000
1000
0000
,
0002
0000
0000
0003
,
0100
0000
0100
0000
,
0020
0000
0000
0030
,
0100
0000
0100
0000
,
2000
0000
0000
3000
,
0001
0000
0001
0000
,
0100
0000
0010
0000
,
0100
0000
0100
0000
,
0010
0000
1000
0000
,
0001
0000
0001
0000
,
1000
0000
0100
0000
,
0001
0000
0100
0000
,
1000
0100
0010
0001
,
2002
0000
0000
3003
,
0010
0000
0010
0000
,
0100
0100
0200
0300
,
0000
0110
0000
0000
,
0000
1001
0000
0000
,
2000
3000
2002
3003
,
0001
0100
0010
1000
,
0010
0010
0020
0030
,
0100
0100
0200
0300
,
0001
0001
0002
0003
,
1000
1000
2000
3000
,
0100
0100
0200
0300
,
1000
1000
2000
3000
,
0001
0001
0002
0003
,
0220
0000
0000
0330
,
0000
1001
0000
0000
,
0000
0110
0000
0000
,
1000
0000
1000
0000
,
0100
0000
0010
0000
,
0001
0000
0001
0000
,
0100
0000
0010
0000
,
2002
0000
0000
3003
,
1000
0000
0001
0000
,
0100
0100
0020
0030
,
1000
0000
0000
0000
0000
0000
0000
0000
0000
0000
1001
0000
;

//---------------dance-single - t7r----------------
#NOTES:
     dance-single:
     t7r:
     Medium:
     10:
     :
0000
0000
0000
0000
,
0000
0000
0000
0000
,
1000
0100
0000
0000
0000
0000
0000
0000
,
0001
0100
0000
0000
1001
0000
0100
0000
,
0010
0001
0000
0000
0000
0000
0000
0000
,
1000
0010
0000
0000
0000
0110
0000
0000
,
1000
0001
0000
0000
0000
0000
0000
0000
,
0100
0010
0000
0000
0220
0000
0330
0000
,
0010
1000
0000
0001
0100
0001
0000
1000
,
0100
0100
0010
0010
0002
0000
0003
0000
,
0000
1000
1000
1000
0001
0000
0000
0001
,
0000
0100
0100
0100
0010
0000
0000
0010
,
0200
0300
0220
0330
,
0010
1000
0001
0100
0010
1000
0001
0100
,
0001
0001
1000
0000
0001
0000
1001
0000
,
1000
1000
0001
0000
0100
0000
0110
0000
,
0010
0010
0100
0000
0001
0000
1001
0000
,
1000
1000
0100
0000
0010
0000
0011
0000
,
0100
0100
0010
0000
0100
0000
0101
0000
,
1000
1000
0001
0000
1000
0000
0010
0100
,
0001
0000
0000
1000
0000
0000
0001
0000
0000
0100
0000
0000
0001
0000
0000
0000
,
1000
0010
0100
0010
1000
0010
0100
0010
,
0000
1000
1000
1000
0100
0000
0000
0100
,
0000
0010
0010
0010
0001
0000
0000
0001
,
0100
0000
0000
0100
0000
0000
0100
0000
0010
0000
0000
1000
0000
0000
0001
0000
,
0100
0000
0000
0001
0000
0000
1000
0000
0010
0000
0000
0100
0000
0000
0110
0000
,
0010
0000
0000
1000
0000
0000
0100
0000
0001
0000
0000
0100
0000
0000
1000
0000
,
0010
0000
0000
0001
0000
0000
0010
0000
1000
0000
0000
0100
0000
0000
0010
0000
,
2002
0000
0000
3003
,
0001
0100
0001
0100
0001
1000
0001
1000
,
0010
0000
0100
0001
0000
1000
0100
0000
,
1000
0000
1100
0000
0100
0010
0001
0000
,
0100
0000
0010
0100
0000
0001
1000
0000
,
0001
0000
0101
0000
0001
0100
0010
0000
,
1001
0000
0010
1000
0000
0010
0100
0000
,
0001
0000
1001
0000
1000
0010
0001
0000
,
0100
0000
0010
0100
0000
0001
1000
0000
,
0001
0000
1100
0000
1000
0100
0001
0000
,
1000
1000
0100
1000
1000
0010
0000
0010
,
0100
0000
1001
0000
0001
1000
0100
0000
,
0001
0001
0010
0001
0001
1000
0000
0001
,
0100
0000
0110
0000
0010
0100
0001
1000
,
0001
0100
0001
0100
0010
0100
0000
1000
,
0100
0010
0100
1000
0010
0100
0000
0010
,
0100
0001
1000
0001
1000
0010
0000
0010
,
0220
0000
0000
0330
,
1000
0001
0000
0001
1000
0100
0000
0100
,
1000
0010
0100
0001
0100
0010
1000
0001
,
0000
1000
1000
1000
0001
0000
0000
0100
,
0000
0001
0001
0001
1000
0000
0000
0100
,
2000
3000
0220
0330
,
0010
0100
0001
0100
0010
0100
1000
0100
,
0010
0010
0010
0010
1000
0001
0000
0001
,
1000
1000
1000
1000
0100
0010
0000
0010
,
0100
0100
0100
0100
1000
0010
0000
0010
,
0001
0001
0001
0001
0010
1000
0000
1000
,
0100
0100
0010
0100
1000
0001
0000
0001
,
0100
0100
0001
1000
0010
0100
0000
0100
,
0010
0010
1000
0001
0100
0001
0000
1000
,
2002
0000
0000
3003
,
0000
1000
0100
1000
0010
0000
0000
0100
,
0000
0001
0100
0001
0010
0000
0000
1000
,
0010
0000
0000
0001
0000
0000
0100
0000
0010
0000
0000
1000
0000
0000
0010
0000
,
0100
0000
0000
0001
0000
0000
1000
0000
0100
0000
0000
0010
0000
0000
0100
0000
,
1000
0000
0000
1001
0000
0000
1000
0000
0010
0000
0000
0110
0000
0000
0001
0000
,
0010
0000
0000
1001
0000
0000
1000
0000
0100
0000
0000
0011
0000
0000
0100
0000
,
2002
0000
0000
3003
,
1000
0100
0100
0100
0010
0001
0001
0001
,
1000
0001
2002
3003
,
0001
0000
1000
0000
0000
0000
0001
1000
0001
0000
1001
0000
;

//---------------dance-single - t7r----------------
#NOTES:
     dance-single:
     t7r:
     Hard:
     15:
     :
0000
0000
0000
0000
,
0000
0000
0000
0000
,
0010
1010
0000
0000
0000
0000
0000
0000
,
0001
0000
1001
0000
0000
0000
0000
0000
0120
0000
0000
0000
1030
0001
1000
0001
,
0100
0101
0000
0000
0000
0000
0000
0000
,
0001
0011
0000
0000
0000
1001
0000
0000
,
0100
0110
0000
0000
0000
0000
0000
0000
,
1010
1010
0000
0000
2002
0000
3003
0000
,
0001
0000
0100
0000
0001
1000
0000
1000
0001
0000
0010
0000
0001
0100
0000
0100
,
0001
0000
1001
0000
1000
0000
1001
0000
0010
0000
0100
0001
0000
0001
1000
0000
,
0000
0000
0100
0000
0100
0000
0100
0000
1000
0100
1000
0100
0000
0001
0100
0001
,
0000
0000
0010
0000
0010
0000
0010
0000
0001
0010
0001
0010
0000
1000
0010
1000
,
0002
0003
2200
3300
,
1000
0000
0001
0000
0100
0000
0010
0000
1000
0001
1000
0001
0100
0010
0100
0010
,
1000
1001
0010
0100
0001
1000
1001
0000
,
0001
0011
0100
0010
0001
0100
0010
1000
,
0010
0110
1000
0001
0100
0001
1001
0000
,
0100
0000
0110
0000
0010
0000
0100
0000
1000
0000
0010
0000
0100
0001
0100
0001
,
1000
1100
0010
0001
0100
0010
1001
0000
,
0100
0000
0101
0000
0010
0000
0100
0000
0001
0000
1000
0000
0001
0010
0001
0010
,
0100
0000
0100
1000
0000
1000
0010
0000
0010
0001
0000
0000
1010
0000
0000
0000
,
0001
0000
1000
0000
0010
0000
1000
0000
0001
1000
0001
1000
0010
1000
0010
1000
,
0000
0000
0100
0000
0100
0000
0100
0000
0001
0010
0001
0010
0000
0100
0010
0100
,
0000
0000
0010
0000
0010
0000
0010
0000
1000
0001
1000
0001
0000
0001
1000
0001
,
1000
0000
0010
0000
1010
0000
0100
0000
0001
0000
1000
0000
0000
1001
0000
0000
,
0110
0000
0010
0000
1000
0000
0001
0000
0100
0000
0001
0000
0010
0100
0000
0100
,
0010
0000
0001
0000
0101
0000
0001
0000
1000
0000
0001
0000
0000
1100
0000
0000
,
0101
0000
0001
0000
1000
0000
0010
0000
0100
0000
0001
0000
1000
0001
1000
0000
,
2002
0000
0000
3003
,
0100
0000
0100
0000
0100
0000
0100
0000
0100
0010
0100
0010
0100
0010
0100
0000
,
1001
0000
0010
0000
0100
0000
1100
0000
0000
0000
1001
0000
0000
0011
0000
0000
,
1001
0000
0001
0000
0100
0000
0010
0000
1000
0001
0000
0001
1000
0000
0001
0000
,
0101
0000
0010
0000
0001
0000
0011
0000
0000
0000
1100
0000
0000
1010
0000
0000
,
1100
0000
0100
0000
0010
0000
0001
0000
0100
0001
0000
0100
0010
0000
0100
0000
,
1001
0000
0010
0000
0100
0000
0110
0000
0000
0000
1001
0000
0000
0101
0000
0000
,
1001
0000
1000
0000
0100
0000
0001
0000
0100
1000
0000
1000
0010
0000
0100
0000
,
1010
0000
0001
0000
0100
0000
1001
0000
0000
0000
0011
0000
0000
1001
0000
0000
,
0101
0000
0001
0000
0100
0000
0001
0000
1000
0000
0100
0010
0001
0000
0100
0000
,
0010
0010
1001
0100
0100
1001
0000
0010
,
0110
0000
0000
0000
1001
0000
0000
0001
1000
0100
0000
0000
1001
0000
0000
0000
,
0100
0100
1001
0100
0100
0011
0000
1000
,
1100
0000
0000
0000
0011
0000
0000
0100
0010
0000
1000
0000
1001
0000
0000
0000
,
0001
0000
0100
0000
0001
1000
0000
1000
0001
0000
1000
0000
0100
0010
0000
0010
,
0100
0000
1000
0000
0010
1000
0000
1000
0010
0000
0100
0000
0001
1000
0000
0100
,
0001
0000
0100
0000
1000
0010
0000
0001
0010
0000
0100
0000
0001
1000
0000
1000
,
2002
0000
0000
3003
,
0110
0000
0110
0000
0001
1000
0001
1000
0100
0000
1100
0000
0010
0001
0010
0001
,
0100
0000
0110
0000
0001
0000
1001
0000
1010
0000
0100
0001
0000
0001
0100
0000
,
0000
0000
1010
0000
1010
0000
1010
0000
0001
1000
0001
1000
0000
0100
0010
0100
,
0000
0000
0011
0000
0011
0000
0011
0000
1000
0100
1000
0100
0000
0001
1000
0001
,
2000
3000
0220
0330
,
0010
0000
1000
0000
0001
0000
0100
0000
0010
1000
0010
1000
0001
0100
0001
0100
,
0001
0000
0010
0000
0100
1000
0000
1000
0100
0000
0010
0000
0001
0000
1000
0000
,
0001
0000
0100
0000
0010
0100
0000
0100
0010
0000
1000
0000
0001
0000
0100
0000
,
0001
0000
0010
0000
1000
0010
0000
0010
1000
0000
0010
0000
0001
0000
0010
0000
,
1000
0000
0100
0000
0001
0100
0000
0100
0001
0000
0100
0000
1000
0000
0010
0000
,
0100
0000
0001
0000
1000
0001
0000
0100
0001
0000
0010
0000
0001
0000
0100
0000
,
0001
0000
1000
0000
0010
1000
0000
0001
1000
0000
0100
0000
0010
0000
0001
0000
,
0100
0000
0010
0000
1000
0010
0000
0100
0010
0000
0100
0000
0010
0000
1000
0000
,
2002
0000
0000
3003
,
0000
0000
0011
0000
0011
0000
0011
0000
1000
0001
0100
0001
0000
1000
0010
1000
,
0000
0000
1100
0000
1100
0000
1100
0000
0001
1000
0010
1000
0000
0001
0100
0001
,
1000
0000
0001
0000
1001
0000
0010
0000
0100
0000
1100
0000
0000
0110
0000
0000
,
1100
0000
0100
0000
0010
0000
0001
0000
0100
0000
0000
0010
0100
0000
0001
0000
,
1001
0000
0010
0000
1000
0000
0001
0000
0100
0000
0101
0000
0000
1010
0000
0000
,
0101
0000
0001
0000
1000
0000
0100
0000
0010
0000
0100
0000
1000
0001
0100
0000
,
2002
0000
0000
3003
,
1000
0010
0010
0010
0100
0001
0001
0001
,
0100
0110
2002
3003
,
1001
0000
1001
0000
0000
0000
1000
0001
1000
0000
1001
0000
;

//---------------dance-single - t7r----------------
#NOTES:
     dance-single:
     t7r:
     Challenge:
     16:
     :
0000
0000
0000
0000
,
0000
0000
0000
0000
,
1001
1100
0000
0000
0000
0000
0000
0000
,
0011
0000
0110
0000
0000
0000
0000
0000
1200
0000
0000
0000
1300
0010
1000
0010
,
0110
0101
0000
0000
0000
0000
0000
0000
,
1010
0110
0000
0000
0000
1001
0000
0000
,
0110
0101
0000
0000
0000
0000
0000
0000
,
1100
1001
0000
0000
0220
0000
0330
0000
,
0010
0000
1001
0000
0001
0100
0001
0100
0001
0000
1001
0000
1000
0010
0100
0010
,
1000
0000
1100
0000
0010
0000
0011
0000
1001
0000
0001
0100
0000
0100
0001
0000
,
0000
0000
1001
0000
1001
0000
1001
0000
0010
0100
0010
0100
0000
1000
0001
1000
,
0000
0000
0101
0000
0101
0000
0101
0000
0001
0010
0001
0010
0000
0100
1000
0100
,
2200
3300
0022
0033
,
1000
0001
1000
0001
0100
0000
0110
0000
0010
0100
0010
0100
0001
0000
1001
0000
,
0101
0101
0010
1000
0100
0010
1100
0000
,
1001
0000
1001
0000
0010
0000
0100
0000
0001
0000
1000
0000
0100
1000
0000
1000
,
0010
0110
0010
1000
0001
0100
1001
0000
,
1010
0000
1010
0000
1000
0000
0100
0000
0010
0000
0001
0000
0100
0001
0000
0001
,
1000
0011
1000
0100
0010
0100
1100
0000
,
0011
0000
1010
0000
0010
0000
0100
0000
0001
0000
1000
0000
0010
1000
0000
1000
,
0010
0000
0100
0010
0000
1000
0001
0000
0100
0001
0000
0000
1001
0000
0000
0000
,
0001
0100
0001
0100
0010
1000
0010
0000
1000
0100
1000
0100
0010
0001
1000
0000
,
0000
0000
1001
0000
0101
0000
0101
0000
0010
0100
0001
1000
0000
0010
0100
0001
,
0000
0000
1001
0000
1100
0000
1100
0000
0100
0010
0001
1000
0000
0100
0010
0001
,
1001
0000
0001
1000
0100
0000
1000
0000
0010
0000
0110
0000
0000
1001
0000
0000
,
0101
0000
0001
0000
0100
0000
0010
0000
1000
0000
0100
0010
0001
0000
1000
0000
,
1100
0000
0010
0000
0100
0000
1000
0000
0100
0000
1100
0000
0000
1001
0000
0000
,
0011
0000
0001
0000
1000
0000
0010
0000
0100
0000
0010
1000
0001
0000
1001
0000
,
0220
0000
0000
0330
,
1000
0001
1000
0001
1000
0001
1000
0001
0100
0010
0100
0010
0100
0010
0100
0010
,
1000
0000
0010
0100
0001
0000
1001
0000
0000
0000
0101
0000
0000
1001
0000
0000
,
1100
0000
0100
1000
0010
0000
0100
0000
0001
0000
1000
0001
0100
0000
0001
0000
,
0010
0000
0001
0010
0100
0000
1100
0000
0000
0000
0011
0000
0000
1001
0000
0000
,
1010
0000
0100
0010
1000
0000
0010
0000
0101
0000
0001
0100
0001
0000
1000
0000
,
0110
0000
0010
1000
0001
0000
0101
0000
0000
0000
1100
0000
0000
1001
0000
0000
,
1010
0000
0010
1000
0001
0000
0100
0000
0001
0000
1000
0100
1000
0000
0000
0000
,
1100
0000
1000
0100
0010
0000
0100
0000
0000
0000
0110
0000
0000
1001
0000
0000
,
0101
0000
0001
0100
0010
0000
1000
0000
0100
0000
0010
0100
1000
0000
0001
0000
,
1001
0010
0010
0100
0110
1001
0001
0100
,
0001
0000
1000
0001
0010
0000
0001
0100
0001
1000
0000
1000
0010
0000
0100
0000
,
0110
1000
1001
0001
0100
1001
0010
0001
,
1000
0100
0000
0100
0010
0000
0100
0000
1000
0100
0000
0100
0010
0000
0100
0000
,
1000
0000
0001
0000
0100
0001
0100
0001
0100
0000
0010
0000
0100
0001
0000
0001
,
1000
0000
0010
0000
1000
0100
1000
0100
1000
0000
0010
0000
1000
0001
0000
0001
,
0100
0000
0010
0000
0100
0010
0100
0010
1000
0000
0010
0000
0100
0001
0000
0001
,
2002
0000
0000
3003
,
1000
0000
1100
0000
0010
0001
0010
0001
0100
0000
0101
0000
0010
0100
0010
0100
,
0001
0000
1001
0000
1000
0000
1001
0000
0110
0000
0010
0100
0000
0100
0001
0000
,
0000
0000
1100
0000
1010
0000
1001
0000
1000
0100
0010
0100
0000
1000
0001
0100
,
0000
0000
0101
0000
0011
0000
1001
0000
0001
0100
0010
0100
0000
0001
1000
0100
,
0220
0330
2002
3003
,
1000
0100
1000
0100
0010
0000
0110
0000
1000
0100
1000
0100
0001
0000
1001
0000
,
0110
0000
1001
0000
0001
0100
0000
0100
0001
0000
1000
0000
0010
0000
0100
0000
,
0110
0000
1100
0000
1000
0010
0000
0010
0100
0000
0010
0000
1000
0000
0001
0000
,
1001
0000
0101
0000
0001
0100
0000
0100
0010
0000
0100
0000
0001
0000
1000
0000
,
1010
0000
1100
0000
0010
0001
0000
0001
0100
0000
0001
0000
1000
0000
0010
0000
,
0110
0000
1001
0000
0001
0100
0000
0001
1000
0000
0010
0000
1000
0000
0100
0000
,
1001
0000
1010
0000
0100
0001
0000
1000
0010
0000
0100
0000
0010
0000
1000
0000
,
0101
0000
0011
0000
1000
0100
0000
0010
1000
0000
0010
0000
0001
0000
0100
0000
,
0010
0000
0100
0010
1000
0001
1000
0000
0010
0000
0100
0010
1000
0001
1000
0000
,
0000
0000
1001
0000
0110
0000
1001
0000
0001
0100
0010
1000
0000
0001
0100
0010
,
0000
0000
0110
0000
1001
0000
0110
0000
1000
0100
0010
0001
0000
1000
0100
0010
,
0011
0000
0101
0000
1001
0000
1100
0000
1001
0000
1000
0100
0000
0100
0010
0000
,
1100
0000
1010
0000
1001
0000
0101
0000
0110
0000
0001
0100
0000
0001
1000
0000
,
0110
0000
1001
0000
0011
0000
1010
0000
0110
0000
1000
0100
0000
0010
0100
0000
,
1100
0000
0011
0000
1010
0000
0110
0000
0101
0000
0001
1000
0000
0010
0100
0001
,
2000
0000
0000
3000
,
0001
1000
0001
1000
0010
0100
0001
1000
0010
0100
0001
1000
0010
1000
0100
0010
,
0100
0110
2002
3003
,
1001
0000
1001
0000
0000
0000
1000
0001
1001
0000
1001
0000
;
