#TITLE:A Blast Beat;
#ARTIST:DĂșnĂ©;
#ARTISTTRANSLIT:Dune;
#BANNER:A Blast Beat.png;
#BACKGROUND:A Blast Beat-bg.png;
#JACKET:A Blast Beat-jacket.png;
#CDTITLE:./CDTITLES/NONE.PNG;
#MUSIC:A Blast Beat.ogg;
#SAMPLESTART:80.506;
#SAMPLELENGTH:15;
#BPMS:0=158;

//---------------dance-single - t7r----------------
#NOTES:
     dance-single:
     t7r:
     Beginner:
     2:
     :
0000
0000
0000
0000
,
0000
0000
0000
0000
,
0000
0000
0000
0000
,
0000
0000
0000
0000
,
0000
0000
0000
0000
,
0010
0000
0010
0000
,
0100
0000
0100
0000
,
0001
0000
0001
0000
,
1000
0000
1000
0000
,
0010
0000
0000
0000
,
1000
0000
0000
0000
,
0001
0000
0000
0000
,
0100
0000
0000
0000
,
0000
0001
0000
0001
,
0000
1000
0000
1000
,
0000
0010
0000
0010
,
0000
0100
0000
0100
,
0000
0001
0000
0100
,
0000
0010
0000
1000
,
0000
0010
0000
0100
,
0000
0001
0000
1000
,
1000
0000
0100
0000
,
0010
0000
0001
0000
,
1000
0000
0100
0000
,
0010
0000
0001
0000
,
1000
0000
0001
0000
,
1000
0000
0001
0000
,
0100
0000
0010
0000
,
0100
0000
0010
0000
,
1000
0000
0000
0000
,
0001
0000
0000
0000
,
0100
0000
0000
0000
,
0001
0000
0000
0000
,
1000
0000
0000
0000
,
0010
0000
0000
0000
,
0100
0000
0000
0000
,
0010
0000
0000
0000
,
1000
0000
0100
0000
,
0010
0000
0100
0000
,
1000
0000
0100
0000
,
0010
0000
0001
0000
,
0001
0000
0100
0000
,
0010
0000
0100
0000
,
0001
0000
0100
0000
,
0010
0000
1000
0000
,
0001
0000
0000
0000
,
0001
0000
0000
0000
,
1000
0000
0000
0000
,
1000
0000
0000
0000
,
0010
0000
0000
0000
,
0010
0000
0000
0000
,
0100
0000
0100
0000
,
0010
0000
0100
0000
,
1001
0000
0000
0000
,
0001
0000
0000
0000
,
1000
0000
0000
0000
,
0010
0000
0100
0000
,
0001
0000
0000
0000
,
1000
0000
0000
0000
,
0100
0000
0000
0000
,
0010
0000
0001
0000
,
0010
0000
0000
0000
,
1000
0000
0000
0000
,
0100
0000
0000
0000
,
0001
0000
0010
0000
,
1000
0000
0000
0000
,
0100
0000
0000
0000
,
1000
0000
0000
0000
,
0010
0000
0001
0000
,
0100
0000
0000
0000
;

//---------------dance-single - t7r----------------
#NOTES:
     dance-single:
     t7r:
     Easy:
     6:
     :
0000
0000
0000
0000
,
0000
0000
0000
0000
,
0000
0000
0000
0000
,
0000
0000
0000
0000
,
0000
0000
0000
0000
,
0100
0100
0100
0100
,
1000
1000
1000
1000
,
0010
0010
0010
0010
,
0001
0001
0001
0000
,
0000
1000
0000
1000
,
0000
0010
0000
0100
,
0100
0000
0001
0000
,
0010
0100
1000
0100
,
0010
0000
0001
0000
,
1000
0000
1000
0000
,
0001
0000
0100
0000
,
0010
0000
1000
0000
,
0001
0001
1000
0000
,
1000
1000
0001
0000
,
0100
0100
0010
0000
,
1000
1000
0100
0000
,
0010
0100
1000
0100
,
0010
0100
1000
0100
,
0010
0100
0001
0100
,
0010
0100
0001
0100
,
1000
0000
1000
0000
,
0001
0000
0001
0000
,
1000
0100
0010
0001
,
1000
0100
1000
0000
,
1001
0000
0001
0000
,
0100
0000
0010
0000
,
1000
0000
0010
0000
,
0100
0001
0100
0010
,
1000
0000
0100
0000
,
0010
0000
0100
0000
,
1000
0000
0001
0000
,
0010
0001
0010
0100
,
1100
0000
1000
0000
,
0001
0100
0001
1000
,
0010
0000
0100
0000
,
0010
0100
0001
1000
,
0100
0000
1000
0000
,
0010
1000
0010
0001
,
0010
0000
1000
0000
,
0100
0001
0100
1000
,
0010
0001
0010
1000
,
0010
0001
0010
1000
,
0100
0001
0100
1000
,
0100
0001
0100
1000
,
0010
0001
0100
1000
,
0010
0001
0100
1000
,
0100
0001
0010
1000
,
0100
0010
0001
1000
,
1001
0000
0001
0000
,
0100
0100
0010
1000
,
0100
0000
0010
0000
,
0001
0010
0100
1000
,
1001
0000
0100
0000
,
0010
1000
0010
0100
,
0001
0000
0100
0000
,
0001
0100
0010
1000
,
0001
0001
0010
0010
,
0100
0100
1000
1000
,
0100
0100
0010
0010
,
0001
0001
1000
1000
,
0100
0100
0001
0001
,
0010
0010
1000
1000
,
0100
0100
0001
0001
,
0010
0010
1000
1000
,
1001
0000
0000
0000
;

//---------------dance-single - t7r----------------
#NOTES:
     dance-single:
     t7r:
     Medium:
     7:
     :
0000
0000
0000
0000
,
0000
0000
0000
0000
,
0000
0000
0000
0000
,
0000
0000
0000
0000
,
0000
0000
0000
0000
,
1000
1000
0001
0001
,
0100
0100
0010
0010
,
1000
1000
0001
0001
,
1000
0000
0100
0000
0010
0100
0000
0100
,
1000
0010
0100
0001
,
1000
0000
0010
0000
0000
0100
0001
0000
,
1000
0100
0010
0001
,
1000
0000
0100
0000
0000
1000
0001
1000
,
0001
0100
0100
0010
,
1000
0000
0010
0100
0000
0000
0001
0000
,
1000
0100
0100
0010
,
0100
0000
1000
0100
0000
0000
1000
0000
,
0010
0100
0001
1000
,
0001
0000
0010
0001
0000
0000
1000
0000
,
0010
0001
0010
1000
,
0100
0000
0010
0100
0000
0000
1000
0000
,
0001
1000
0001
1000
,
0001
0000
0100
0000
0001
0100
0001
0000
,
1000
0001
1000
0001
,
1000
0000
0100
0000
1000
0100
1000
0000
,
0010
0100
0010
0100
,
0010
0000
0100
0000
0001
1000
0100
0000
,
1000
0100
1000
0100
,
0010
0000
0100
0000
1000
0001
0000
0001
,
0100
0000
0001
0000
1000
0000
0010
1000
,
0000
0001
0100
0001
,
0010
0000
0100
0000
0010
0000
0001
0010
,
0000
1000
0100
0010
,
1001
0000
0100
0000
0010
0000
1000
0100
,
0000
1000
0010
0100
,
0001
0000
0010
0000
0001
0000
0100
0001
,
0000
0010
1000
0100
,
1001
0100
0010
0100
,
0001
0000
1000
0100
0000
0000
0010
0000
,
0100
1000
0010
0100
,
0001
0000
1000
0001
0000
0000
0010
0000
,
0001
1000
0010
0100
,
0001
0000
1000
0001
0000
0000
0010
0000
,
0001
1000
0100
1000
,
0010
0000
0100
0010
0000
0000
0100
0000
,
0001
0000
0100
0000
0001
0100
0001
0000
,
1000
0000
0100
0000
1000
0100
1000
0000
,
0010
0000
0100
0000
0010
0100
0010
0000
,
0001
0000
1000
0000
0001
1000
0100
0000
,
1000
0000
0001
0000
1000
0001
0010
0000
,
0001
0000
0100
0000
0010
1000
0100
0000
,
0010
0000
0001
0000
0100
0010
1000
0000
,
0010
0100
0001
1000
,
1001
0000
0001
0000
0100
0000
0010
1000
,
0000
0001
0100
0001
,
1000
0000
0100
0000
0010
0000
0100
1000
,
0000
0001
1000
0010
,
0100
0000
0001
0000
1000
0000
0001
0100
,
0000
0010
1000
0100
,
0010
0000
0100
0000
1000
0000
0100
0010
,
0000
0100
1000
0010
,
1001
0000
0001
0000
0100
0000
0001
0100
,
0000
0001
1000
0000
0010
0000
1000
0000
,
0100
0000
0010
0000
0100
0000
1000
0100
,
0000
1000
0001
0000
1000
0000
0010
0000
,
1001
0000
0100
0000
0010
0000
1000
0010
,
0000
0010
0100
0000
0001
0000
1000
0000
,
0100
0000
0010
0000
0001
0000
0010
0001
,
0000
0001
0100
0000
0010
0000
1000
0000
,
1001
0000
0000
0000
;

//---------------dance-single - t7r----------------
#NOTES:
     dance-single:
     t7r:
     Hard:
     9:
     :
0000
0000
0000
0000
,
0000
0000
0000
0000
,
0000
0000
0000
0000
,
0000
0000
0000
0000
,
0000
0000
0000
0000
,
0010
1000
0010
0000
0010
1000
0010
0000
,
0100
0001
0100
0000
0100
0001
0100
0000
,
0001
1000
0001
0000
0001
1000
0001
0000
,
1000
0001
0100
0010
1000
1000
0000
1000
,
0001
0000
0010
0100
1000
0000
0100
1000
,
0000
0000
1001
0000
0010
0100
0001
0000
,
0101
0000
0001
0100
0010
0000
1000
0100
,
0000
0000
1001
0000
0001
1000
0001
1000
,
0010
0000
0100
0000
0001
0000
1000
0100
,
0000
0000
1000
0000
0010
1000
0001
0000
,
1000
0000
0100
0000
0010
0000
0100
1000
,
0000
0000
0001
0000
0100
0001
0010
0000
,
0100
0000
0010
0000
0001
0000
1000
0001
,
0000
0000
0100
0000
0010
0100
0001
0000
,
1000
0000
0100
0000
1000
0000
0001
1000
,
0000
0000
0001
0000
0010
0100
1000
0001
,
1000
0100
0010
0000
0100
1000
0001
0000
,
1000
0010
0100
0000
0001
1000
0100
0000
,
1000
0100
0010
0000
0100
1000
0001
0000
,
1000
0010
0100
0000
0001
1000
0100
0000
,
0010
0001
0100
0000
0010
1000
0100
0000
,
1000
0001
0010
0000
0100
1000
0001
0000
,
1000
0100
0001
0000
0001
0100
1000
0000
,
1000
0100
1000
0000
0001
1000
0000
1000
,
0001
0000
1000
0000
1001
0000
0010
0100
,
0000
0000
0001
0000
0100
0001
1000
0000
,
0010
0000
0100
0000
0110
0000
0010
1000
,
0000
0000
0100
0000
0010
0100
1000
0000
,
0011
0000
0100
0000
1000
0000
0001
0010
,
0000
0000
0100
0000
0010
0001
1000
0000
,
0010
0000
0100
0000
1010
0000
0010
1000
,
0000
1000
0001
0100
0010
1000
0010
0100
,
0001
0000
1000
0000
1001
0000
0001
0100
,
0000
0000
0010
0000
0100
0001
1000
0000
,
0100
0000
0010
0000
0110
0000
0010
0100
,
0000
0000
1000
0000
0100
1000
0010
0000
,
0100
0000
0001
0000
1001
0000
0100
0001
,
0000
0000
0101
0000
0001
1000
0100
0000
,
0010
0000
0001
0000
1100
0000
0001
0010
,
0000
0000
0110
0000
0010
0001
1000
0100
,
1000
0000
1001
0000
0110
0000
0100
0001
,
0000
0000
1100
0000
0010
0100
1000
0000
,
0001
0000
1001
0000
0110
0000
0010
1000
,
0000
0000
0101
0000
1000
0100
0010
0100
,
1000
0100
0010
0000
1000
0100
0001
0000
,
1000
0100
0010
0000
1000
0100
0001
0000
,
0001
0100
0010
0000
0001
0100
1000
0000
,
0001
0100
0010
0100
0001
1000
0100
1000
,
1001
0000
0010
0100
0001
0000
1000
0100
,
0000
0000
1001
0000
0010
1000
0001
0000
,
0101
0000
0010
1000
0010
0000
0100
0001
,
0000
0000
1100
0000
0010
0100
1000
0000
,
0011
0000
1000
0100
0001
0000
1000
0100
,
0000
0000
0110
0000
0010
0100
1000
0000
,
1001
0000
1000
0001
0100
0000
0001
1000
,
0000
0000
1001
0000
0010
1000
0001
0100
,
0001
0000
0100
0001
0010
0000
0100
0010
,
0000
0001
1000
0000
0010
1000
0010
0100
,
0001
0000
1000
0100
0010
0000
0100
1000
,
0000
0010
1000
0001
0100
0001
1000
0000
,
1001
0000
0010
1000
0001
0000
0100
0010
,
0000
0100
0001
0000
1000
0100
0001
0100
,
1000
0000
0010
1000
0001
0000
0100
0010
,
0000
1000
0010
0100
0001
1000
0100
0010
,
1001
0000
0000
0000
;

//---------------dance-single - t7r----------------
#NOTES:
     dance-single:
     t7r:
     Challenge:
     14:
     :
0000
0000
0000
0000
,
0000
0000
0000
0000
,
0000
0000
0000
0000
,
0000
0000
0000
0000
,
0000
0000
0000
0000
,
0001
0010
0100
1000
0001
0010
0100
1000
,
0001
0010
0100
1000
0001
0010
0100
1000
,
0001
0100
0010
1000
0001
0100
0010
1000
,
0001
0000
0100
0000
0010
0000
1000
0000
0001
0000
0001
0000
0000
0000
1000
0100
,
1000
0000
1010
0000
0100
0000
0010
0100
,
0001
0000
0011
0000
0001
0010
0100
0000
,
0010
0000
0001
0000
0011
0000
0001
0100
,
0010
0000
0000
0000
0100
0000
0000
0000
0001
0000
1000
0000
0001
0000
1000
0001
,
0010
0100
1000
0100
0010
0100
1000
1100
,
0100
0010
0100
1000
0100
0010
0001
1000
,
0001
0100
0001
0010
0100
0010
0001
0011
,
0001
0100
0010
0100
0001
0010
0100
1000
,
0010
0100
0001
0100
0010
1000
0010
0110
,
0010
1000
0100
0010
0100
1000
0010
0100
,
0001
0010
0100
0010
0001
0100
0010
0110
,
0100
0000
0001
0000
1000
0000
0010
0000
0100
0000
0001
0000
1000
0000
0001
0010
,
0001
0100
1000
0100
0001
0100
1000
0100
,
0001
0100
0010
1000
0001
0100
0010
1000
,
0001
0010
1000
0010
0001
0010
1000
0010
,
0001
0010
0100
1000
0001
0010
0100
1000
,
0010
1000
0100
1000
0010
0001
0100
0001
,
0010
1000
0100
1000
0010
0001
0100
0001
,
0010
0100
1000
0100
0010
0001
0100
0001
,
0010
0000
0010
0000
0100
0000
0100
0000
1000
0000
0001
0000
0000
0000
1000
0001
,
1000
0000
1001
0010
0100
0000
0110
0001
,
0100
0000
1010
0000
0001
0100
1010
0000
,
1100
0000
0011
0100
0001
0000
0110
1000
,
0001
0000
0000
0000
1010
0000
0000
0000
0001
0000
0100
0000
1010
0000
0001
1000
,
0100
0000
0110
1000
0100
0000
0101
0010
,
1000
0000
0110
0000
0001
0100
1010
0000
,
1100
0000
0110
1000
0001
0000
0011
0100
,
1000
0000
0000
0000
0110
0000
0001
0000
1000
0000
0001
0000
0001
0000
0100
0010
,
1000
0100
0010
0100
1000
0100
0010
0110
,
0100
1000
0010
0100
0001
0011
1001
1000
,
0100
1000
0010
0100
0001
0010
0100
0110
,
0010
0001
1000
0001
0100
0101
1001
1000
,
0100
0010
0001
0010
0100
0010
0001
1001
,
0001
0100
0010
1000
0100
1100
1001
1000
,
0100
1000
0010
0100
0010
1000
0100
0110
,
0010
0000
0001
0000
0100
0000
1000
0000
0100
0000
0001
0000
1001
0000
1000
0001
,
1000
0100
0010
0001
1000
0100
0010
0001
,
1000
0010
0001
0010
1000
0100
0001
0100
,
1000
0010
0100
0001
1000
0010
0100
0001
,
1000
0100
0001
0010
1000
0100
0001
0010
,
0001
0010
0100
1000
0001
0010
0100
1000
,
0001
0100
0010
1000
0001
0100
0010
1000
,
0001
0010
1000
0100
0001
0010
1000
0100
,
0001
0010
0001
0010
0100
1000
0001
1000
0010
0100
0010
0100
0001
1000
0001
1000
,
0001
0000
1001
0100
0010
0000
1010
0001
,
0100
0000
0011
0000
1000
0100
0011
0000
,
0110
0000
1100
0010
0100
0000
0101
0010
,
1000
0000
0110
0000
0001
1000
0011
0000
,
1001
0000
0110
1000
0100
0000
0011
0100
,
1000
0000
1001
0000
1010
0100
0001
0000
,
0110
0000
0011
0100
1000
0000
0110
0001
,
1000
0000
0000
0000
0110
0000
0000
0000
0100
0000
0100
0000
0010
1000
0001
1000
,
0001
0010
0100
1100
0001
0010
0100
1100
,
0001
0100
0010
1010
0001
0100
0010
1010
,
0001
0010
1000
1010
0010
0001
0100
0101
,
0001
0100
1000
1100
1000
0100
0001
0101
,
1000
0100
0010
0011
1000
0100
0010
0011
,
1000
0010
0100
0101
1000
0010
0100
0101
,
1000
0100
0001
0011
1000
0100
0001
0011
,
0100
0000
0010
0000
1000
0000
1001
0000
0100
0000
0010
0000
0001
0000
1000
0001
,
0100
0000
0000
0000
;
