#TITLE:灼熱Beach Side Bunny;
#SUBTITLE:;
#ARTIST:DJ Mass MAD Izm*;
#TITLETRANSLIT:Shakunetsu Beach Side Bunny;
#SUBTITLETRANSLIT:;
#ARTISTTRANSLIT:;
#GENRE:;
#CREDIT:;
#MENUCOLOR:;
#METERTYPE:DDR;
#BANNER:Shakunetsu Beach Side Bunny.png;
#BACKGROUND:Shakunetsu Beach Side Bunny-bg.png;
#LYRICSPATH:;
#CDTITLE:./CDTITLES/BEATMANIA IIDX.PNG;
#MUSIC:Shakunetsu Beach Side Bunny.ogg;
#OFFSET:0.000;
#SAMPLESTART:83.137;
#SAMPLELENGTH:15.000;
#SELECTABLE:YES;
#LISTSORT:;
#BPMS:0.000=153.000;
#STOPS:;
#BGCHANGES:0.000=Shakunetsu Beach Side Bunny.avi=1.000=0=0=0,
99999=-nosongbg-=1.000=0=0=0 // don't automatically add -songbackground-
;
#ATTACKS:;

//---------------dance-single - ----------------
#NOTES:
     dance-single:
     :
     Beginner:
     2:
     0.128,0.218,0.024,0.000,0.000: // measure 1
0000
0000
0000
0000
,  // measure 2
0000
0000
0000
0000
,  // measure 3
0000
0000
0000
0000
,  // measure 4
0000
0000
0000
0000
,  // measure 5
0000
0000
0000
0000
,  // measure 6
0010
0000
0000
0000
,  // measure 7
0100
0000
0000
0000
,  // measure 8
0001
0000
0000
0000
,  // measure 9
1000
0000
0000
0000
,  // measure 10
0001
0000
0001
0000
,  // measure 11
1000
0000
0000
0000
,  // measure 12
1000
0000
1000
0000
,  // measure 13
0001
0000
0000
0000
,  // measure 14
0010
0000
0000
0000
,  // measure 15
0100
0000
0000
0000
,  // measure 16
0001
0000
0000
0000
,  // measure 17
1000
0000
0000
0000
,  // measure 18
0001
0000
0010
0000
,  // measure 19
0100
0000
0000
0000
,  // measure 20
1000
0000
0010
0000
,  // measure 21
0100
0000
0000
0000
,  // measure 22
0010
0000
1000
0000
,  // measure 23
0001
0000
0000
0000
,  // measure 24
1000
0000
0001
0000
,  // measure 25
0100
0000
0000
0000
,  // measure 26
0110
0000
0001
0000
,  // measure 27
1000
0000
0000
0000
,  // measure 28
0010
0000
1000
0000
,  // measure 29
0001
0000
0000
0000
,  // measure 30
1000
0000
0000
0000
,  // measure 31
1000
0000
0000
0000
,  // measure 32
0001
0000
0000
0000
,  // measure 33
0001
0000
0000
0000
,  // measure 34
0010
0000
0000
0000
,  // measure 35
0010
0000
0000
0000
,  // measure 36
0100
0000
0100
0000
,  // measure 37
0100
0000
0000
0000
,  // measure 38
1001
0000
1000
0000
,  // measure 39
0001
0000
0000
0000
,  // measure 40
0001
0000
0001
0000
,  // measure 41
1000
0000
0000
0000
,  // measure 42
0010
0010
0010
0000
,  // measure 43
0100
0100
0100
0000
,  // measure 44
0001
0001
0001
0000
,  // measure 45
1000
1000
1000
0000
,  // measure 46
0001
0000
0000
0000
,  // measure 47
0010
0000
0000
0000
,  // measure 48
0100
0000
0000
0000
,  // measure 49
1000
0000
0000
0000
,  // measure 50
0010
0000
1000
0000
,  // measure 51
0001
0000
0000
0000
,  // measure 52
0010
0000
0001
0000
,  // measure 53
1000
0000
0000
0000
,  // measure 54
1001
0000
0000
0000
,  // measure 55
0010
0000
0000
0000
,  // measure 56
0100
0000
0000
0000
,  // measure 57
0001
0000
0000
0000
,  // measure 58
0010
0000
0000
0000
,  // measure 59
0100
0000
0000
0000
,  // measure 60
1000
0000
0000
0000
,  // measure 61
0010
0000
0100
0000
,  // measure 62
0001
0000
0000
0000
,  // measure 63
1000
0000
0000
0000
,  // measure 64
0001
0000
0000
0000
,  // measure 65
1000
0000
1000
0000
,  // measure 66
0010
0000
0000
0000
,  // measure 67
0100
0000
0000
0000
,  // measure 68
0001
0000
0000
0000
,  // measure 69
1000
0000
0000
0000
,  // measure 70
0010
0010
0010
0000
,  // measure 71
0100
0000
0100
0000
,  // measure 72
0001
0001
0001
0000
,  // measure 73
1000
0000
1000
0000
,  // measure 74
0001
0001
0001
0000
,  // measure 75
0010
0000
0100
0000
,  // measure 76
1000
1000
1000
0000
,  // measure 77
0010
0000
0100
0000
;

//---------------dance-single - ----------------
#NOTES:
     dance-single:
     :
     Easy:
     6:
     0.326,0.343,0.147,0.073,0.033: // measure 1
0000
0000
0000
0000
,  // measure 2
0000
0000
0000
0000
,  // measure 3
0000
0000
0000
0000
,  // measure 4
0000
0000
0000
0000
,  // measure 5
0000
0000
0000
0000
,  // measure 6
2000
3010
0000
0000
,  // measure 7
0002
0103
0000
0000
,  // measure 8
2000
3001
0000
0000
,  // measure 9
0200
0310
0000
0000
,  // measure 10
1000
0010
0100
0000
,  // measure 11
0001
0010
0100
0000
,  // measure 12
2000
3000
0002
0003
,  // measure 13
1000
0001
1000
2001
,  // measure 14
3010
0010
0010
0000
,  // measure 15
0100
0100
0100
0000
,  // measure 16
0001
0001
0001
0000
,  // measure 17
1000
1000
1000
0000
,  // measure 18
0001
0010
0100
1000
,  // measure 19
0100
0100
0010
0001
,  // measure 20
1000
0010
0100
0010
,  // measure 21
1000
1000
0010
0100
,  // measure 22
1001
0010
1000
0001
,  // measure 23
0100
0100
0001
1000
,  // measure 24
0001
0010
0100
1000
,  // measure 25
0100
0100
0010
0001
,  // measure 26
1100
0001
0100
0001
,  // measure 27
1000
1000
0010
1000
,  // measure 28
0001
0100
0001
1000
,  // measure 29
0001
0001
0010
0110
,  // measure 30
0010
0010
0010
0010
,  // measure 31
0100
0100
0100
0100
,  // measure 32
1000
1000
1000
1000
,  // measure 33
0010
0010
0010
0010
,  // measure 34
0100
0100
0100
0100
,  // measure 35
0001
0001
0001
0001
,  // measure 36
1000
1000
1000
1000
,  // measure 37
0001
1000
0001
1001
,  // measure 38
0010
0010
0010
0000
,  // measure 39
0100
0100
0100
0000
,  // measure 40
0001
0001
0001
0000
,  // measure 41
1000
1000
1000
0000
,  // measure 42
0001
1000
1001
0000
,  // measure 43
1000
0001
1001
0000
,  // measure 44
0010
0100
0010
0010
,  // measure 45
0100
0001
2000
3001
,  // measure 46
1000
0100
1000
1100
,  // measure 47
0001
0100
0001
0101
,  // measure 48
1000
0010
1000
1010
,  // measure 49
0001
0010
0001
0011
,  // measure 50
1000
0100
0001
1001
,  // measure 51
0001
0100
1000
1001
,  // measure 52
1000
0010
0001
1001
,  // measure 53
0001
0010
1000
0110
,  // measure 54
1001
0001
1000
0000
,  // measure 55
0010
0100
0001
0000
,  // measure 56
1000
0010
0100
0000
,  // measure 57
0010
1000
0100
0000
,  // measure 58
0001
0010
1000
0100
,  // measure 59
0001
0010
1000
0000
,  // measure 60
1000
0010
0001
0100
,  // measure 61
1000
0010
0001
0000
,  // measure 62
1000
0001
0100
0100
,  // measure 63
0001
1000
0010
0010
,  // measure 64
1000
0001
1000
1000
,  // measure 65
0001
1000
0010
0010
,  // measure 66
0000
0000
0000
0000
,  // measure 67
0000
0000
0000
0000
,  // measure 68
0000
0000
0000
0000
,  // measure 69
0000
1001
0000
0210
,  // measure 70
0310
0000
0000
0000
0010
0000
0000
0000
0010
0000
0000
0010
0000
0000
0010
0000
,  // measure 71
0100
0000
0000
0000
0100
0000
0000
0000
0100
0000
0000
0100
0000
0000
0100
0000
,  // measure 72
0001
0000
0000
0000
0001
0000
0000
0000
0001
0000
0000
0001
0000
0000
0001
0000
,  // measure 73
1000
0000
0000
0000
1000
0000
0000
0000
1000
0000
0000
1000
0000
0000
1000
0000
,  // measure 74
0001
0000
0000
0000
0001
0000
0000
0000
0010
0000
0000
0010
0000
0000
0010
0000
,  // measure 75
0001
0000
0000
0000
0001
0000
0000
0000
1000
0000
0000
1000
0000
0000
1000
0000
,  // measure 76
0010
0000
0000
0000
0010
0000
0000
0000
0100
0000
0000
0100
0000
0000
0100
0000
,  // measure 77
0001
0000
0000
0000
1000
0000
0000
0000
0001
0000
0000
1000
0000
0000
0000
0000
;

//---------------dance-single - ----------------
#NOTES:
     dance-single:
     :
     Medium:
     11:
     0.550,0.531,0.244,0.073,0.244: // measure 1
0000
0000
0000
0000
,  // measure 2
0000
0000
0000
0000
,  // measure 3
0000
0000
0000
0000
,  // measure 4
0000
0000
0000
0000
,  // measure 5
0000
0000
0000
0000
,  // measure 6
0002
0000
0000
0000
0103
0000
0000
0000
0001
0000
0000
0001
0000
0000
0001
0000
,  // measure 7
0020
0000
0000
0000
0031
0000
0000
0000
1000
0000
0000
1000
0000
0000
0100
0000
,  // measure 8
2000
0000
0000
0000
3010
0000
0000
0000
0100
0000
0000
0100
0000
0000
0100
0000
,  // measure 9
0002
0000
0000
0000
0013
0000
0000
0000
1000
0000
0000
1000
0000
0000
1000
0000
,  // measure 10
0001
0000
1000
0000
0100
0000
1000
0000
0010
0000
0000
0010
0000
0000
0010
0000
,  // measure 11
0100
0000
0001
0000
1000
0000
0001
0000
0010
0000
0000
0001
0000
0000
1000
0000
,  // measure 12
0100
1000
0100
1000
0000
0000
0001
0100
0001
0100
0000
0000
,  // measure 13
1000
0010
1000
0010
1000
0010
1000
0010
1000
0002
0000
0000
,  // measure 14
1003
0000
0000
0000
0100
0000
0000
0000
0010
0000
0000
0001
0000
0000
0010
0000
,  // measure 15
0001
0000
0000
0000
0100
0000
0000
0000
0010
0000
0000
1000
0000
0000
0010
0000
,  // measure 16
1000
0000
0000
0000
0100
0000
0000
0000
0010
0000
0000
0100
0000
0000
1000
0000
,  // measure 17
0010
0000
0000
0000
0100
0000
0001
0000
1000
0000
0000
0001
0000
0000
1000
0000
,  // measure 18
0001
0000
0000
0000
1001
0000
0000
0000
0001
0000
0000
1000
0000
0000
0001
0000
,  // measure 19
0100
0000
0100
0000
0100
0000
0000
0000
0010
0000
0000
0100
0000
0000
0000
0000
,  // measure 20
0010
0000
0000
0000
1000
0000
0010
0000
1000
0000
0000
1000
0000
0000
0100
0000
,  // measure 21
0010
0000
0100
0000
1000
0000
0100
0000
0010
0000
0000
0010
0000
0000
0100
0000
,  // measure 22
1001
0000
0000
0000
0001
0000
0000
0000
0100
0000
0000
0100
0000
0000
0100
0000
,  // measure 23
0001
0000
0001
0000
0001
0000
0000
0000
0010
0000
0000
0001
0000
0000
1000
0000
,  // measure 24
0100
0000
0000
0000
0100
0000
1000
0000
0100
0000
0000
0100
0000
0000
0100
0000
,  // measure 25
0010
0000
0100
0000
1000
0000
0001
0000
0100
0000
0000
0100
0000
0000
0100
0000
,  // measure 26
0010
0000
0000
0000
1000
0000
0000
0000
0001
0000
0000
1000
0000
0000
0001
0000
,  // measure 27
0010
0000
0010
0000
0010
0000
0000
0000
0001
0000
0000
0100
0000
0000
0010
0000
,  // measure 28
0100
0000
0000
0000
0010
0000
1000
0000
0100
0000
0000
0100
0000
0000
1000
0000
,  // measure 29
0010
1000
0001
0100
0001
0001
2000
0000
,  // measure 30
3001
0001
0001
0000
0010
0000
0110
0000
,  // measure 31
1000
1000
1000
0000
0010
0000
0101
0000
,  // measure 32
0010
0010
0010
0000
0100
0000
1001
0000
,  // measure 33
0100
0100
0100
0000
0010
0100
1001
0000
,  // measure 34
1000
0100
0100
0000
1000
0000
0011
0000
,  // measure 35
0001
0100
0100
0000
1000
0000
1010
0000
,  // measure 36
0010
0100
0100
0000
0001
0000
1001
0000
,  // measure 37
0100
0010
0100
0010
0100
0000
0110
0000
,  // measure 38
0001
0000
0000
0000
1000
0000
0000
0000
0001
0000
0000
0001
0000
0000
0001
0000
,  // measure 39
0100
0000
0000
0000
0100
0000
0000
0000
0010
0000
0000
0010
0000
0000
0010
0000
,  // measure 40
1000
0000
0000
0000
0100
0000
0000
0000
1000
0000
0000
1000
0000
0000
1000
0000
,  // measure 41
0010
0000
1000
0000
0001
0000
0100
0000
0001
0000
0000
0001
0000
0000
1000
0000
,  // measure 42
0001
0000
1000
0000
0001
0000
1000
0000
0001
0000
0000
1001
0000
0000
0010
0000
,  // measure 43
0100
0000
0000
0000
0110
0000
0000
0000
0100
0000
0000
0100
0000
0000
0010
0000
,  // measure 44
0100
0000
0001
0000
0001
0000
0010
0000
1000
0000
0000
1000
0000
0000
0010
0000
,  // measure 45
0001
0100
1000
0100
0001
0000
1002
0000
,  // measure 46
1003
0100
0100
1000
0010
0010
0000
0001
,  // measure 47
0100
0001
0001
0010
0001
0001
0000
1000
,  // measure 48
0100
1000
1000
0010
0100
0100
0000
0010
,  // measure 49
1000
0001
0001
1000
0001
1000
0000
0001
,  // measure 50
0010
0001
0001
0010
1000
1000
0000
0100
,  // measure 51
0001
1000
1000
0100
0010
0010
0000
1000
,  // measure 52
0001
0100
0100
0001
1000
1000
0000
0010
,  // measure 53
1000
0001
0001
0100
0010
0010
0000
0100
,  // measure 54
1001
0000
0000
0000
0001
0000
0000
0000
1000
0000
0000
0100
0000
0000
1000
0000
,  // measure 55
0001
0000
0000
0000
0100
0000
0000
0000
0010
0000
0000
1000
0000
0000
0001
0000
,  // measure 56
0010
0000
0000
0000
0001
0000
0000
0000
0100
0000
0000
0010
0000
0000
0100
0000
,  // measure 57
0010
0000
0000
0000
1000
0000
0100
0000
0010
0000
0000
0010
0000
0000
0001
0000
,  // measure 58
1000
0000
0000
0000
0010
0000
0000
0000
0100
0000
0000
0101
0000
0000
0001
0000
,  // measure 59
1000
0000
0000
0000
0001
0000
0000
0000
1000
0000
0000
1100
0000
0000
0100
0000
,  // measure 60
1000
0000
0000
0000
0010
0000
0000
0000
0100
0000
0000
0110
0000
0000
0010
0000
,  // measure 61
0100
0000
0001
0010
0100
1000
0002
0000
,  // measure 62
1003
0000
1000
0000
1000
0000
0000
0000
0100
0000
0000
1000
0000
0000
0001
0000
,  // measure 63
0100
0000
0100
0000
0100
0000
0000
0000
0010
0000
0000
1000
0000
0000
0001
0000
,  // measure 64
0010
0000
0010
0000
0010
0000
0000
0000
0001
0000
0000
1000
0000
0000
0010
0000
,  // measure 65
0001
0000
0001
0000
0001
0000
0000
0000
0010
0000
0000
1000
0000
0000
0100
0000
,  // measure 66
0010
0000
0100
0000
1000
0000
0100
0000
0001
0000
0000
1100
0000
0000
0001
0000
,  // measure 67
0100
0000
1000
0000
0100
0000
0001
0000
1000
0000
0000
0101
0000
0000
0001
0000
,  // measure 68
0010
0000
0100
0000
0010
0000
0001
0000
1000
0000
0000
1010
0000
0000
0100
0000
,  // measure 69
0010
1000
0001
0100
0001
0000
1002
0000
,  // measure 70
1003
0000
0000
0000
1100
0000
0000
0000
0001
0000
0000
0101
0000
0000
0001
0000
,  // measure 71
1000
0000
1000
0000
1000
0000
1000
0000
0010
0000
0000
0110
0000
0000
0001
0000
,  // measure 72
0100
0000
0000
0000
0101
0000
0000
0000
1000
0000
0000
1010
0000
0000
1000
0000
,  // measure 73
0001
0000
0001
0000
0001
0000
0001
0000
0010
0000
0000
0110
0000
0000
0001
0000
,  // measure 74
1000
0000
0100
0000
0010
0000
0001
0000
1000
0000
0000
1010
0000
0000
0100
0000
,  // measure 75
0010
0000
0100
0000
0001
0000
1000
0000
0001
0000
0000
0011
0000
0000
1000
0000
,  // measure 76
0100
0000
1000
0000
0001
0000
0100
0000
0001
0000
0000
1001
0000
0000
0010
0000
,  // measure 77
1000
0000
0010
0000
0100
0000
0001
0000
1000
0000
0100
1000
0000
0000
0000
0000
;

//---------------dance-single - ----------------
#NOTES:
     dance-single:
     :
     Hard:
     14:
     0.722,0.718,0.472,0.236,0.525: // measure 1
0000
0000
0000
0000
,  // measure 2
0000
0000
0000
0000
,  // measure 3
0000
0000
0000
0000
,  // measure 4
0000
0000
0000
0000
,  // measure 5
0000
0000
0000
0000
,  // measure 6
2010
0000
0000
0000
3001
0000
0000
0000
0100
0000
0000
0100
0000
0000
0100
0000
,  // measure 7
0120
0000
0000
0000
1030
0000
0000
0000
0001
0000
0000
0001
0000
0000
0001
0000
,  // measure 8
2001
0000
0000
0000
3010
0000
0000
0000
0100
0000
0000
0100
0000
0000
0100
0000
,  // measure 9
1002
0000
0000
0000
0013
0000
1000
0000
0100
0000
0000
0100
0000
0000
0010
0000
,  // measure 10
1001
0000
0010
0000
1100
0000
0010
0000
0100
0000
0000
0101
0000
0000
1100
0000
,  // measure 11
1001
0000
0010
0000
0101
0000
0010
0000
1000
0000
0000
1010
0000
0000
0011
0000
,  // measure 12
1000
0010
1000
0002
0000
0000
0103
0001
0100
0020
0000
0000
,  // measure 13
1030
0100
1000
0001
0100
0001
1000
0010
1000
0002
0000
0000
,  // measure 14
1003
0000
0000
0000
1010
0000
0000
0000
0100
0000
0000
0100
0000
0100
0010
0000
,  // measure 15
0001
0000
0000
0000
0011
0000
0000
0000
0100
0000
0000
0100
0000
0100
0010
0000
,  // measure 16
1000
0000
0000
0000
1001
0000
0000
0000
0001
0000
0000
0001
0000
0001
1000
0000
,  // measure 17
0001
0000
1000
0000
0100
0000
0010
0000
0110
0000
0000
1001
0000
1000
0001
0000
,  // measure 18
1000
0000
0100
1000
0100
0000
1000
0000
0001
0000
0000
0101
0000
0000
0010
0000
,  // measure 19
1000
0000
0001
0000
1001
0000
0000
0000
0010
0000
0000
0110
0000
0000
0010
0000
,  // measure 20
1000
0000
0100
0010
0001
0000
0100
0000
0010
0000
0010
1000
0000
0000
0100
0000
,  // measure 21
0010
0000
0001
0000
1000
0000
0001
0000
1000
0000
0000
1001
0000
0000
0110
0000
,  // measure 22
0001
0000
1000
0000
0001
0010
0000
0001
0100
0000
0001
0010
0000
0001
1000
0000
,  // measure 23
0010
0000
0100
0000
0010
1000
0000
0010
0100
0000
0010
1000
0000
0001
0010
0000
,  // measure 24
0100
0000
0010
0000
0001
0010
0000
0100
1000
0000
0100
0010
0000
0001
1000
0000
,  // measure 25
0010
0000
0100
0000
0001
0000
1000
0000
0001
0000
0000
1001
0000
0000
0110
0000
,  // measure 26
1001
0000
0010
0000
0001
0010
0000
0010
0100
0000
0100
1000
0000
1000
0100
0000
,  // measure 27
1000
0000
0010
0000
0100
0010
0000
0010
1000
0000
1000
0001
0000
0001
1000
0000
,  // measure 28
0001
0000
0010
0000
0001
0010
0000
0010
0001
0000
0001
1000
0000
1000
0010
0000
,  // measure 29
1000
0010
0100
0010
0110
0010
2000
0000
,  // measure 30
3001
0000
0010
0100
1000
0000
0100
0000
0010
0000
0001
0000
1002
0000
0000
0000
,  // measure 31
1003
0000
0010
0100
0001
0000
0100
0000
0010
0000
1000
0000
1020
0000
0000
0000
,  // measure 32
1030
0000
0010
0100
0001
0000
1000
0000
0001
0000
0010
0000
0012
0000
0000
0000
,  // measure 33
0013
0000
0001
0010
0001
0000
1000
0000
0010
0000
0110
0000
0120
0000
0000
0000
,  // measure 34
1030
0000
0001
1000
0100
0000
1000
0000
0001
1000
0001
0000
1002
0000
0000
0000
,  // measure 35
1003
0000
0001
0010
0100
0000
1000
0000
0001
0100
0010
0000
2001
0000
0000
0000
,  // measure 36
3010
0000
0100
0010
1000
0000
0010
0000
0100
0010
0001
0000
0120
0000
0000
0000
,  // measure 37
0130
0000
0100
0000
0010
0000
0010
0000
1000
0001
1000
0000
1001
0000
0100
0000
,  // measure 38
2001
0000
0000
0000
0010
0000
0000
0000
3010
0000
0000
0010
0000
0010
0100
0000
,  // measure 39
0002
0000
0000
0000
0010
0000
0000
0000
0013
0000
0000
0010
0000
0010
0100
0000
,  // measure 40
0020
0000
0000
0000
0100
0000
0000
0000
0130
0000
0000
0001
0000
0001
1000
0000
,  // measure 41
0001
0000
0100
0000
0100
0000
0001
0000
1000
0000
0000
0010
0000
0010
1000
0000
,  // measure 42
0001
0000
0100
0010
1000
0000
0010
0000
0110
0000
0000
1001
0000
0000
0110
0000
,  // measure 43
0001
0000
0000
0000
1001
0000
0000
0000
0110
0000
0000
1001
0000
0000
0110
0000
,  // measure 44
1000
0000
0010
0100
0010
0000
1000
0000
0001
0000
1000
0100
0000
0100
1000
0000
,  // measure 45
0001
0100
0010
1000
0001
0010
0200
0000
,  // measure 46
0310
0000
0000
0001
0100
0000
0100
0000
0010
0000
1000
0000
0000
0000
0000
1000
,  // measure 47
0001
1000
0100
0100
0010
0001
0000
0000
,  // measure 48
0001
0000
1000
0010
0100
0000
0100
0000
0010
0000
1000
0000
0000
0000
1000
0000
,  // measure 49
0010
0000
0000
1000
0100
0000
0100
0000
0010
0000
0001
0000
0000
0000
0001
0000
,  // measure 50
0100
0000
0000
0001
1000
0000
1000
0000
0001
0000
0010
0000
0000
0000
0001
0000
,  // measure 51
1000
0000
0000
0010
1000
0000
1000
0000
0001
0000
0100
0000
0000
0000
0001
0000
,  // measure 52
0010
0000
0000
0100
1000
0000
1000
0000
0010
0000
0100
0000
0000
0000
0010
0000
,  // measure 53
1000
0000
0000
0010
0001
0000
0001
0000
0010
0000
1000
0000
0000
0000
0001
0000
,  // measure 54
1002
0000
0000
0000
0100
0000
0000
0000
1003
0000
0000
0001
0000
0001
0010
0000
,  // measure 55
0200
0000
0000
0000
1000
0000
0000
0000
0310
0000
0000
1000
0000
1000
0010
0000
,  // measure 56
2000
0000
0000
0000
0001
0000
0000
0000
3010
0000
0000
0001
0000
0001
0010
0000
,  // measure 57
0001
0000
0100
0000
0010
0000
1000
0000
0001
0000
0000
1001
0000
0000
0110
0000
,  // measure 58
0002
0000
0000
0000
1000
0000
0000
0000
0103
0000
0000
1000
0000
0010
1000
0000
,  // measure 59
0020
0000
0000
0000
1000
0000
0000
0000
0031
0000
0000
1000
0000
0001
1000
0000
,  // measure 60
0200
0000
0000
0000
0010
0000
0000
0000
1300
0000
0000
0001
0000
0010
0100
0000
,  // measure 61
0010
0000
1000
0100
0010
0000
0210
0000
,  // measure 62
0310
0000
0001
0000
1000
0000
0010
0000
0100
0000
0001
0100
0000
0100
0001
0000
,  // measure 63
1000
0000
0010
0000
0100
0000
0010
0000
1000
0000
0001
0010
0000
0010
0001
0000
,  // measure 64
1000
0000
0100
0000
0010
0000
0001
0000
1000
0000
0010
1000
0000
1000
0001
0000
,  // measure 65
0100
0000
0010
0000
1000
0000
0010
0000
0100
0000
0010
0100
0000
0100
0001
0000
,  // measure 66
2000
0000
0000
0000
0100
0000
0000
0000
0010
0000
0000
0100
0000
0000
3100
0000
,  // measure 67
0002
0000
0000
0000
1000
0000
0000
0000
0010
0000
0000
0100
0000
0000
0103
0000
,  // measure 68
0020
0000
0000
0000
0100
0000
0000
0000
0001
0000
0000
1000
0000
0000
1030
0000
,  // measure 69
0001
0010
0100
1000
0001
0000
1001
0000
,  // measure 70
0110
0000
0000
0000
1001
0000
0000
0000
0110
0000
0000
0101
0000
0000
1100
0000
,  // measure 71
0001
0000
0010
0000
0100
0000
1000
0000
0001
0000
0010
0100
0000
0100
1000
0000
,  // measure 72
0110
0000
0000
0000
1001
0000
0000
0000
0110
0000
0000
1001
0000
0000
0110
0000
,  // measure 73
1000
0000
0010
0000
0100
0000
0001
0000
1000
0000
0010
0100
0000
0100
0001
0000
,  // measure 74
1000
0000
0100
0010
0001
0000
0010
0000
0100
0000
1000
0100
0000
0100
1000
0000
,  // measure 75
0001
0000
0100
0010
1000
0000
0010
0000
0100
0000
0001
1000
0000
1000
0001
0000
,  // measure 76
1000
0000
0001
1000
0100
0000
1000
0000
0001
0000
0010
0001
0000
0001
1000
0000
,  // measure 77
0001
0000
0010
0001
1000
0000
0010
0000
0100
0000
0001
0100
0000
0000
0000
0000
;

//---------------dance-single - ----------------
#NOTES:
     dance-single:
     :
     Challenge:
     18:
     0.972,1.000,0.887,0.147,1.000: // measure 1
0000
0000
0000
0000
,  // measure 2
0000
0000
0000
0000
,  // measure 3
0000
0000
0000
0000
,  // measure 4
0000
0000
0000
0000
,  // measure 5
0000
0000
0220
0330
,  // measure 6
1001
0000
0000
0000
0101
0000
0000
0000
1100
0000
0000
1100
0000
0000
1010
0000
,  // measure 7
0101
0000
0000
0000
1100
0000
0000
0000
0011
0000
0000
0011
0000
0000
0101
0000
,  // measure 8
1001
0000
0000
0000
0110
0000
0000
0000
1010
0000
0000
1010
0000
0000
0110
0000
,  // measure 9
0101
0000
0000
0000
1100
0000
0010
0000
1100
0000
0000
1100
0000
0000
0101
0000
,  // measure 10
1001
0000
0001
0000
1000
0100
0000
1000
0010
0000
1000
0100
0000
1000
0010
0000
,  // measure 11
0100
0000
0101
0000
0100
0001
0000
0100
0010
0000
0100
0001
0000
0100
0001
0000
,  // measure 12
1000
0100
1000
0020
0000
0000
0130
0001
0100
0002
0000
0000
,  // measure 13
1003
1000
1000
0001
0001
0001
0100
0100
0100
0120
0000
0000
,  // measure 14
1030
0000
0000
0000
1010
0000
0000
0000
0101
0000
0000
0100
0000
0000
0100
0000
,  // measure 15
0011
0000
0000
0000
0011
0000
0000
0000
0010
0000
0000
0010
0000
0000
0100
0000
,  // measure 16
1100
0000
0000
0000
1100
0000
0000
0000
1000
0000
0000
1000
0000
0000
0100
0000
,  // measure 17
1001
0000
0000
0000
1010
0000
0001
0000
0101
0000
0000
0101
0000
0000
1001
0000
,  // measure 18
0110
0000
0010
0100
0010
0100
0010
0100
0001
0000
0100
0001
0000
0001
1000
0000
,  // measure 19
0001
0000
0010
0100
0010
0100
0010
0100
0010
0000
0100
1000
0000
1000
0001
0000
,  // measure 20
1000
0000
0010
1000
0010
1000
0010
1000
0010
0000
0100
0001
0000
0001
0100
0000
,  // measure 21
0001
0000
1000
0001
1000
0001
1000
0001
1000
0000
0010
1000
0000
1000
0001
0000
,  // measure 22
0110
0000
0001
0000
1000
0100
0000
1000
0010
0000
0100
0001
0000
0010
0001
1000
,  // measure 23
0001
0000
1000
0000
0001
0100
0000
0010
1000
0000
0100
0010
0000
0100
1000
0010
,  // measure 24
0100
0000
0010
0000
1000
0010
0000
0100
0001
0000
1000
0100
0000
1000
0001
0100
,  // measure 25
0010
0000
0100
0000
0001
1000
0000
0001
0010
0000
0100
1000
0000
0100
1000
0001
,  // measure 26
0100
0000
0010
0000
0100
0010
0000
0010
1000
0000
1000
0001
0000
0001
1000
0100
,  // measure 27
1000
0000
0100
0000
1000
0100
0000
0100
0010
0000
0010
0001
0000
0001
0010
0100
,  // measure 28
0010
0000
0001
0000
1000
0010
0000
0010
0100
0000
0100
0001
0000
0001
1000
0001
,  // measure 29
0100
0000
0010
0000
1000
0000
0001
0000
0110
0000
0000
0100
0020
0000
0000
0000
,  // measure 30
1030
0010
1000
0010
1000
0010
1000
0010
1000
0100
1000
0100
1000
0010
1000
0010
,  // measure 31
1000
0001
1000
0001
1000
0001
1000
0001
0100
0010
0100
0010
0100
0001
0100
0001
,  // measure 32
0010
0001
0010
0001
0010
0001
0010
0001
0010
0100
0010
0100
0010
0001
0010
0001
,  // measure 33
1000
0010
1000
0010
0100
0010
0100
0010
1000
0100
1000
0100
1000
0100
1000
0100
,  // measure 34
1000
0001
1000
0001
1000
0001
1000
0001
1000
0100
1000
0100
1000
0100
1000
0100
,  // measure 35
0010
0100
0010
0100
0010
0100
0010
0100
1000
0100
1000
0100
1000
0010
1000
0010
,  // measure 36
0100
0001
0100
0001
0100
0001
0100
0001
1000
0001
1000
0001
1000
0010
1000
0010
,  // measure 37
0100
0000
0100
0000
0110
0000
0110
0000
0001
1000
0001
1000
0200
0000
0000
0000
,  // measure 38
1300
0000
0000
0000
1010
0000
0000
0000
0011
0000
0000
0011
0000
0000
0101
0000
,  // measure 39
1001
0000
0000
0000
1100
0000
0000
0000
0110
0000
0000
0110
0000
0000
1010
0000
,  // measure 40
1001
0000
0000
0000
0101
0000
0000
0000
0011
0000
0000
0011
0000
0000
1100
0000
,  // measure 41
1001
0000
0000
0000
0110
0000
0010
0000
0110
0000
0000
0110
0000
0000
1100
0000
,  // measure 42
1001
0000
1001
0000
1001
0000
1001
0000
0110
0000
0000
0110
0000
0000
0110
0000
,  // measure 43
0101
0000
0000
0000
1100
0000
0000
0000
1001
0000
0000
0110
0000
0000
1100
0000
,  // measure 44
1001
0000
1000
0001
0100
0000
0001
0000
1000
0000
0100
0010
0000
0010
0100
0000
,  // measure 45
1000
0000
1010
0000
1000
0000
1010
0000
0101
0000
0000
0001
0200
0000
0000
0000
,  // measure 46
0301
0000
1000
0001
1000
0001
1000
0000
0001
0000
0021
0000
0000
0000
0000
0031
,  // measure 47
1000
0010
1000
0010
0100
0000
0010
1000
0001
0100
0020
0000
0000
0000
0000
0000
,  // measure 48
1030
0010
1000
0010
0100
0000
0001
0000
1001
0000
1200
0000
0000
0000
1300
0000
,  // measure 49
1001
0000
0010
0100
0001
0100
0010
0000
0001
0000
0102
0000
0000
0000
0000
0000
,  // measure 50
1003
0010
1000
0010
0100
0000
0010
1000
0001
1000
0200
0000
0000
0000
1300
0000
,  // measure 51
0001
0100
0010
0100
0001
0000
1000
0001
0100
0000
2001
0000
0000
0000
3001
0000
,  // measure 52
1001
0000
0010
0001
0010
0001
0010
0000
0100
0000
0210
0000
0000
0000
0000
0310
,  // measure 53
0100
0000
0001
1000
0001
1000
0001
0000
1000
0010
0200
0000
0000
0000
0310
0000
,  // measure 54
1001
0000
1000
0000
0001
0100
0000
0001
0010
0000
0001
1000
0000
0010
1000
0010
,  // measure 55
0100
0000
0010
0000
1000
0100
0000
0010
0100
0000
1000
0001
0000
0100
0010
1000
,  // measure 56
0010
0000
0100
0000
0001
1000
0000
0001
0100
0000
0001
0010
0000
0001
0010
0100
,  // measure 57
1000
0000
0100
0000
1000
0010
0000
0100
0001
0000
1000
0010
0000
0100
0010
1000
,  // measure 58
0100
0000
0010
0000
0100
1000
0000
0001
0100
0000
0010
1000
0000
0001
0010
0001
,  // measure 59
1000
0000
0010
0000
1000
0100
0000
1000
0001
0000
0100
0010
0000
1000
0010
1000
,  // measure 60
0001
0000
1000
0000
0100
1000
0000
0001
0100
0000
0010
1000
0000
0001
0010
0001
,  // measure 61
0100
0000
0010
0000
0100
0001
0000
1000
0001
0000
0000
0100
0010
0000
0100
0000
,  // measure 62
0010
1000
0010
1000
0010
0000
1000
0100
1000
0000
0001
0100
0000
0100
0001
0100
,  // measure 63
0001
0010
0001
0010
0001
0000
1000
0010
1000
0000
0001
0100
0000
0001
0010
0100
,  // measure 64
0010
0100
0010
0100
0010
0000
0001
0010
0001
0000
1000
0010
0000
1000
0100
1000
,  // measure 65
0010
1000
0010
1000
0010
0000
0100
0010
0100
0000
0010
1000
0000
0001
1000
0100
,  // measure 66
1000
0000
0001
0000
1000
0000
0001
0000
1001
0000
0001
0100
0000
0100
0001
0000
,  // measure 67
0100
0000
0010
0000
0100
0000
0010
0000
0110
0000
0010
1000
0000
1000
0010
0000
,  // measure 68
1000
0000
0100
0000
0010
0000
0001
0000
1100
0000
0001
0100
0000
0100
0001
0000
,  // measure 69
0100
0010
2001
0000
3010
0000
0210
0000
,  // measure 70
0301
0000
0000
0000
0101
0000
0000
0000
1100
0000
0000
0101
0000
0000
1100
0000
,  // measure 71
0101
0000
0000
0000
1010
0000
0000
0000
0011
0000
0000
1010
0000
0000
0011
0000
,  // measure 72
0101
0000
0000
0000
1001
0000
0000
0000
0110
0000
0000
1100
0000
0000
0011
0000
,  // measure 73
1100
0000
0000
0000
1001
0000
0010
0000
0110
0000
0000
0110
0000
0000
0101
0000
,  // measure 74
1000
0100
1000
0100
1000
0100
1000
0100
1000
0010
1000
0010
0100
0001
0100
0001
,  // measure 75
0010
0100
0010
0100
0010
0100
0010
0100
0010
0001
0010
0001
1000
0010
1000
0010
,  // measure 76
0100
0001
0100
0001
0100
0001
0100
0001
0100
0010
0100
0010
1000
0100
0010
0001
,  // measure 77
1000
0001
0100
0001
1000
0001
0010
0001
1000
0000
0000
1001
0000
0000
0000
0000
;
