#TITLE:Sakura Luminance;
#SUBTITLE:;
#ARTIST:Ryu☆;
#TITLETRANSLIT:;
#SUBTITLETRANSLIT:;
#ARTISTTRANSLIT:;
#GENRE:;
#CREDIT:;
#MENUCOLOR:;
#METERTYPE:DDR;
#BANNER:Sakura Luminance.png;
#BACKGROUND:Sakura Luminance-bg.png;
#LYRICSPATH:;
#CDTITLE:./CDTITLES/NONE.PNG;
#MUSIC:Sakura Luminance.mp3;
#OFFSET:-0.120;
#SAMPLESTART:90.280;
#SAMPLELENGTH:15.000;
#SELECTABLE:YES;
#LISTSORT:;
#BPMS:0.000=181.000;
#STOPS:;
#BGCHANGES:;
#ATTACKS:;

//---------------dance-single - ----------------
#NOTES:
     dance-single:
     :
     Beginner:
     3:
     0.112,0.181,0.026,0.000,0.000:
0000
0000
0000
0000
,
0000
0000
0000
0000
,
0000
0000
0000
0000
,
0000
0000
0000
0000
,
0000
0000
0000
0000
,
1000
0000
0000
0000
,
0001
0000
0000
0000
,
0100
0000
0000
0000
,
0010
0000
0000
0000
,
0000
0000
0000
0000
,
1000
0000
1000
0000
,
0001
0000
0000
0000
,
0001
0000
0001
0000
,
1000
0000
0000
0000
,
0010
0000
0010
0000
,
0100
0000
0000
0000
,
0100
0000
0100
0000
,
0010
0000
0000
0000
,
0000
1000
0000
1000
,
0000
0000
0000
0000
,
0000
0001
0000
0001
,
0000
0000
0000
0000
,
0000
0010
0000
0010
,
0000
0000
0000
0000
,
0100
0000
0000
0100
,
0000
0000
0000
0000
,
0000
1000
0000
1000
,
0000
0001
0000
0001
,
0001
0000
0000
0000
,
1000
0000
0000
0000
,
0000
0010
0000
0010
,
0000
0100
0000
0100
,
0100
0000
0000
0000
,
0010
0000
0000
0000
,
1000
0000
0001
0000
,
1000
0000
0000
0000
,
0001
0000
1000
0000
,
0001
0000
0000
0000
,
0110
0000
0000
0000
,
0000
0000
0000
0000
,
0100
0000
0000
0000
,
0010
0000
0000
0000
,
1001
0000
0000
0000
,
0000
0000
0000
0000
,
0000
0000
0000
0000
,
0000
0000
0000
0000
,
0000
0000
0000
0000
,
0000
0000
0000
0000
,
0000
0000
0000
0000
,
0000
0000
0000
0000
,
0000
1000
0000
1000
,
0000
0001
0000
0000
,
0000
0001
0000
0001
,
0000
1000
0000
0000
,
0010
0000
0000
0000
,
0100
0000
0000
0000
,
0001
0000
1000
0000
,
0000
0001
0001
0000
,
0000
0000
0000
0000
,
1000
0000
0000
0000
,
0000
0000
0000
0000
,
0001
0000
0000
0000
,
0100
0000
0010
0000
,
1000
0000
0001
0000
,
1000
0000
0001
0000
,
1000
0000
0000
0000
,
0000
0000
0000
0000
,
0000
0000
0000
0000
,
0000
0001
0000
0001
,
0000
1000
0000
0000
,
0000
1000
0000
1000
,
0000
0001
0000
0000
,
0000
0010
0000
0010
,
0000
0100
0000
0000
,
0000
0100
0000
0100
,
0100
0000
0000
0000
,
0010
0000
0000
0010
,
0000
0000
0000
0000
,
0010
0000
0000
0010
,
0000
0000
0000
0000
,
1000
0000
0000
1000
,
0000
0000
0000
0000
,
0001
0000
0000
0001
,
0000
0000
0000
0000
,
1001
0000
0000
0000
;

//---------------dance-single - ----------------
#NOTES:
     dance-single:
     :
     Easy:
     5:
     0.307,0.361,0.086,0.301,0.000: // measure 1
0000
0000
0000
0000
,  // measure 2
0000
0000
0000
0000
,  // measure 3
0000
0000
0000
0000
,  // measure 4
0000
0000
0000
0000
,  // measure 5
0000
0000
0000
0000
,  // measure 6
2000
0000
0000
3000
,  // measure 7
0002
0000
0000
0003
,  // measure 8
0200
0000
0000
0300
,  // measure 9
0020
0000
0000
0030
,  // measure 10
1000
0000
0000
1001
,  // measure 11
0100
0100
0010
0010
,  // measure 12
1000
0000
0002
0003
,  // measure 13
0010
0010
0100
0100
,  // measure 14
1000
0000
0020
0030
,  // measure 15
0100
0100
0010
0010
,  // measure 16
1000
0000
0002
0003
,  // measure 17
1000
1000
0100
0100
,  // measure 18
0010
0000
2002
3003
,  // measure 19
0100
0100
0100
0010
,  // measure 20
0010
0010
1000
1000
,  // measure 21
0001
0001
0001
0020
,  // measure 22
0000
0000
0000
0030
,  // measure 23
0100
0100
0100
0010
,  // measure 24
0010
0010
0001
0001
,  // measure 25
1000
1000
0001
2000
,  // measure 26
0000
0001
0002
3003
,  // measure 27
0100
0210
0000
0001
,  // measure 28
0000
0001
0000
0301
,  // measure 29
0010
0010
1000
1000
,  // measure 30
0001
0001
0100
0000
,  // measure 31
0010
0120
0000
1000
,  // measure 32
0000
1000
0000
1030
,  // measure 33
0010
0010
1000
1000
,  // measure 34
0001
0001
0100
0000
,  // measure 35
0001
0010
0100
1000
,  // measure 36
0001
0010
0100
1000
,  // measure 37
0002
0000
0000
0003
,  // measure 38
2000
0000
0000
3000
,  // measure 39
0020
0100
0000
0100
,  // measure 40
0000
0100
0000
0130
,  // measure 41
0200
0000
0000
0300
,  // measure 42
2002
0000
0000
3003
,  // measure 43
2000
0000
0000
3000
,  // measure 44
0000
0000
0000
0000
,  // measure 45
0000
0000
0000
0000
,  // measure 46
0000
0000
0000
0000
,  // measure 47
0002
0000
0000
0003
,  // measure 48
0000
0000
0000
0000
,  // measure 49
0000
0000
0000
0000
,  // measure 50
0000
0000
0000
0000
,  // measure 51
1001
0000
0020
0030
,  // measure 52
1000
1000
0001
0100
,  // measure 53
0001
0000
0020
0030
,  // measure 54
0100
0010
0002
0003
,  // measure 55
1000
0000
0200
0300
,  // measure 56
1000
1000
0010
0100
,  // measure 57
0001
0000
0200
0300
,  // measure 58
0001
1000
0002
0003
,  // measure 59
1000
0010
1000
0010
,  // measure 60
0100
0100
0001
0000
,  // measure 61
0001
0010
0001
0010
,  // measure 62
0100
0100
1000
0000
,  // measure 63
0110
0000
0000
0000
,  // measure 64
1001
0000
0000
0000
,  // measure 65
1000
0000
0001
0000
,  // measure 66
2002
0000
0000
3003
,  // measure 67
0010
0010
0100
0200
,  // measure 68
0000
0000
0300
0100
,  // measure 69
0001
0001
1000
1000
,  // measure 70
0001
0010
0100
1000
,  // measure 71
0001
0001
1000
1000
,  // measure 72
0001
0100
0002
0003
,  // measure 73
1000
1000
0001
0001
,  // measure 74
1000
0100
0010
0001
,  // measure 75
1000
1000
0001
0001
,  // measure 76
0100
0010
2000
3000
,  // measure 77
0010
0010
0010
0100
,  // measure 78
0100
0100
0001
0001
,  // measure 79
1000
1000
0001
0020
,  // measure 80
0000
0001
0031
1000
,  // measure 81
0001
0001
0001
1000
,  // measure 82
1000
1000
0010
0010
,  // measure 83
0100
0100
0100
0020
,  // measure 84
0000
0100
0130
0000
,  // measure 85
1001
0000
0000
0000
;

//---------------dance-single - ----------------
#NOTES:
     dance-single:
     :
     Medium:
     8:
     0.461,0.578,0.344,0.335,0.000: // measure 1
0000
0000
0000
0000
,  // measure 2
0000
0000
0000
0000
,  // measure 3
0000
0000
0000
0000
,  // measure 4
0000
0000
0000
0000
,  // measure 5
0000
0000
0000
0000
,  // measure 6
2000
0000
0000
3000
,  // measure 7
0002
0000
0000
0003
,  // measure 8
0200
0000
0000
0300
,  // measure 9
0020
0000
0000
0030
,  // measure 10
1000
0000
0000
1001
,  // measure 11
0010
0000
0010
0000
0010
0100
0000
0001
,  // measure 12
0000
1000
0000
0001
2000
0000
3001
0000
,  // measure 13
1000
0000
1000
0000
0100
0010
0000
0001
,  // measure 14
0000
0100
0010
0000
0200
0000
0301
0000
,  // measure 15
1000
0000
0100
0000
0010
0100
0000
1000
,  // measure 16
0000
0100
0000
0010
0002
0000
0103
0000
,  // measure 17
0001
0000
0100
0000
0010
1000
0000
0002
,  // measure 18
0000
1003
0001
0000
1000
0000
1001
0000
,  // measure 19
0010
0000
0010
0100
0010
0000
1001
0000
,  // measure 20
0010
0100
0010
0000
1001
0000
0110
0000
,  // measure 21
1001
0000
0010
0100
0010
0000
2000
0000
,  // measure 22
0001
3001
0100
0001
,  // measure 23
0010
0000
0010
0100
0010
0000
1001
0000
,  // measure 24
0010
0100
0010
0000
1001
0000
0110
0000
,  // measure 25
1001
0000
0010
0100
0010
0000
0200
0000
,  // measure 26
0000
0001
0301
0000
1000
0000
1001
0000
,  // measure 27
0010
0020
1000
1000
,  // measure 28
0000
1000
0000
1030
,  // measure 29
0002
0010
0000
0013
,  // measure 30
0200
1000
0000
1300
,  // measure 31
0010
0020
0001
0001
,  // measure 32
0000
0001
0000
0031
,  // measure 33
1001
0100
0010
0001
,  // measure 34
1000
0010
0100
0010
,  // measure 35
1000
0000
1100
0000
0001
0100
1000
0000
,  // measure 36
0010
0000
0011
0000
0001
0010
1000
0000
,  // measure 37
0002
0203
0320
2030
,  // measure 38
3002
0010
0000
1003
,  // measure 39
0200
0010
0000
0310
,  // measure 40
2000
0001
0000
3001
,  // measure 41
1000
0100
0010
0001
,  // measure 42
1000
0001
0100
0000
0010
0000
0110
0000
,  // measure 43
2002
0000
0000
0000
,  // measure 44
0000
0000
0000
0000
,  // measure 45
0000
0000
0000
0000
,  // measure 46
0000
0000
0000
3003
,  // measure 47
2000
0000
0000
0000
,  // measure 48
0000
0000
0000
0000
,  // measure 49
0002
0000
0000
0000
,  // measure 50
0000
0000
0000
3003
,  // measure 51
0010
0000
0010
0000
0020
0000
0000
1000
,  // measure 52
0000
0001
0000
1030
0100
0000
1000
0000
,  // measure 53
0001
0000
0001
0000
0002
0000
0000
1000
,  // measure 54
0000
0010
0000
1003
0200
0000
0300
0000
,  // measure 55
1000
0000
1000
0000
2000
0000
0000
0001
,  // measure 56
0000
0010
0000
0001
3100
0000
0001
0000
,  // measure 57
0100
0000
0100
0000
0200
0000
0000
0010
,  // measure 58
0000
0010
0000
1300
0002
0000
0003
0000
,  // measure 59
1000
0000
0100
0000
0010
0100
0000
1000
,  // measure 60
0000
0001
0000
0100
0001
1000
0001
0000
,  // measure 61
0001
0000
0010
0000
0100
1000
0000
0100
,  // measure 62
0000
0010
0000
0100
2000
0000
3000
0000
,  // measure 63
0001
0000
1001
0000
0001
1000
0000
0001
,  // measure 64
0000
0100
0000
0010
1000
0010
0100
0000
,  // measure 65
1000
0000
1001
0000
1000
0100
0000
0010
,  // measure 66
0000
0010
0001
1000
0002
0000
1003
0000
,  // measure 67
0010
0010
0010
0000
0100
0000
0200
0000
,  // measure 68
0000
0000
0300
0110
,  // measure 69
1000
0000
1001
0000
0001
0100
0000
0001
,  // measure 70
0000
0010
0100
1000
0100
0000
0110
0000
,  // measure 71
0001
0000
1001
0000
1000
0010
0000
0110
,  // measure 72
0000
1001
0000
0100
0020
0000
0130
0000
,  // measure 73
1000
0000
1010
0000
0001
0100
0000
0001
,  // measure 74
0000
0011
0000
0001
0010
0100
1000
0000
,  // measure 75
0100
0000
0110
0000
1000
0010
0000
0110
,  // measure 76
0000
1001
0000
0010
0200
0000
0301
0000
,  // measure 77
0010
0000
0010
0100
0010
0000
1001
0000
,  // measure 78
0010
0100
0010
0000
1001
0000
0110
0000
,  // measure 79
1001
0000
0010
0100
0010
0001
2000
0000
,  // measure 80
3001
0000
1000
0001
0200
0000
0301
0000
,  // measure 81
1001
0000
0010
0100
0010
0000
1001
0000
,  // measure 82
0010
0100
0010
0000
1001
0000
0110
0000
,  // measure 83
1001
0000
0010
0100
0010
0010
2001
0000
,  // measure 84
0000
3001
0001
1000
1000
0000
0001
0000
,  // measure 85
1001
0000
0000
0000
;

//---------------dance-single - ----------------
#NOTES:
     dance-single:
     :
     Hard:
     11:
     0.564,0.650,0.378,0.335,0.000: // measure 1
0000
0000
0000
0000
,  // measure 2
0000
0000
0000
0000
,  // measure 3
0000
0000
0000
0000
,  // measure 4
0000
0000
0000
0000
,  // measure 5
0000
0000
0000
0000
,  // measure 6
2000
0010
0200
3300
,  // measure 7
0002
0010
2000
3003
,  // measure 8
0200
0010
2000
3300
,  // measure 9
0020
0130
0220
0330
,  // measure 10
0001
1000
0001
1001
,  // measure 11
0010
0000
0110
0000
0010
1000
0001
2000
,  // measure 12
0000
3001
0010
0100
1000
0100
0010
0001
,  // measure 13
0100
0000
0110
0000
1000
0010
0100
0020
,  // measure 14
0000
1030
0010
0100
0002
0000
0103
0000
,  // measure 15
1000
0000
1100
0000
1000
0010
0100
0002
,  // measure 16
0000
1003
0100
0010
0100
1000
0010
0100
,  // measure 17
0001
0000
0101
0000
0001
0100
0010
2000
,  // measure 18
0000
3001
1000
0001
1000
0000
1001
0000
,  // measure 19
0010
1000
0010
0100
0001
0000
1010
0100
,  // measure 20
0001
1000
0001
0000
0001
0010
0001
0100
,  // measure 21
0001
0010
0100
1000
0001
1000
0002
0000
,  // measure 22
0000
0013
0001
0100
0020
0000
1030
0000
,  // measure 23
1000
0010
0100
0001
1000
0000
1010
0100
,  // measure 24
0001
1000
0001
0000
0001
0010
0001
0100
,  // measure 25
0001
0010
0100
1000
0001
1000
0002
0000
,  // measure 26
0000
0013
0001
1000
0002
0000
1003
0000
,  // measure 27
0010
1020
0100
0100
,  // measure 28
0100
0100
0001
0130
,  // measure 29
0010
1000
0001
0100
,  // measure 30
0001
0000
0010
0000
0100
1000
0100
0000
,  // measure 31
0010
0021
0100
0100
,  // measure 32
0100
0100
1000
0031
,  // measure 33
1001
1000
0001
0100
,  // measure 34
0010
0000
1000
0000
0001
0100
0001
0000
,  // measure 35
1000
1020
1000
0031
,  // measure 36
0100
0000
0010
0000
1000
0001
0100
0000
,  // measure 37
0010
1000
0100
0000
0010
0001
1000
0000
,  // measure 38
0010
1000
0100
0010
0100
1000
0001
0000
,  // measure 39
0100
0210
0000
0010
,  // measure 40
0000
1000
0000
0301
,  // measure 41
1000
0100
1000
0000
0001
0100
0001
0000
,  // measure 42
1000
0010
0100
0001
1000
0000
1001
0000
,  // measure 43
0220
0000
0000
0000
,  // measure 44
0000
0000
0000
0000
,  // measure 45
0000
0000
0000
0000
,  // measure 46
0000
0000
0000
0330
,  // measure 47
2000
0000
0000
0000
,  // measure 48
0000
0000
0000
3000
,  // measure 49
0002
0000
0000
0003
,  // measure 50
0200
0000
0000
0300
,  // measure 51
0010
0000
0010
0000
0001
1000
0000
0110
,  // measure 52
0000
1000
0010
0100
0001
1000
0001
0000
,  // measure 53
0010
0000
0010
0000
0100
0010
0000
0110
,  // measure 54
0000
0001
0010
0100
2000
0000
3001
0000
,  // measure 55
0100
0000
0100
0000
0010
0100
0000
0110
,  // measure 56
0000
0010
1000
0001
1000
0001
0100
0000
,  // measure 57
0010
0000
1010
0000
0001
0100
0000
0101
,  // measure 58
0000
1000
0010
0100
0002
0000
1003
0000
,  // measure 59
0101
1000
0020
0030
,  // measure 60
1000
0100
0000
0100
1000
0010
0100
0001
,  // measure 61
0100
0001
0020
0030
,  // measure 62
0010
0100
1000
0001
0200
0000
0300
0000
,  // measure 63
1000
0000
0010
0000
1000
0001
0000
0110
,  // measure 64
0000
0001
0100
0010
1000
0001
1000
0000
,  // measure 65
0001
0000
0010
0000
0001
1000
0000
0110
,  // measure 66
0000
0010
0100
0001
2002
0000
3003
0000
,  // measure 67
0010
0010
0010
0000
0100
0000
0200
0000
,  // measure 68
0000
0000
0300
0110
,  // measure 69
1001
0000
1010
0000
0001
0100
0000
0101
,  // measure 70
0000
0001
0010
0100
1000
0100
0010
0001
,  // measure 71
0010
0000
0011
0000
0001
1000
0000
1001
,  // measure 72
0000
1000
0010
0100
0020
0000
0130
0000
,  // measure 73
1010
0000
1100
0000
0001
0010
0000
0101
,  // measure 74
0000
0010
1000
0001
0100
0001
0010
0100
,  // measure 75
0010
0000
0110
0000
0001
1000
0000
0011
,  // measure 76
0000
1000
0100
0010
0002
0000
1003
0000
,  // measure 77
1000
0010
0100
0001
0100
0000
1010
0100
,  // measure 78
0001
1000
0100
0000
0001
0010
0001
0100
,  // measure 79
1001
0010
0100
1000
0100
0010
0002
0000
,  // measure 80
0000
1003
0010
0100
0001
0000
0110
0000
,  // measure 81
1010
0100
0001
1000
0001
0000
1010
0100
,  // measure 82
0001
1000
0001
0000
0001
0010
0001
0100
,  // measure 83
1001
0010
0100
0010
0001
1000
0002
0000
,  // measure 84
0000
0103
0100
0010
0010
0000
0110
0000
,  // measure 85
1001
0000
0000
0000
;

//---------------dance-single - ----------------
#NOTES:
     dance-single:
     :
     Challenge:
     14:
     0.753,0.867,0.688,0.439,0.344: // measure 1
0000
0000
0000
0000
,  // measure 2
0000
0000
0000
0000
,  // measure 3
0000
0000
0000
0000
,  // measure 4
0000
0000
0000
0000
,  // measure 5
0000
0000
0000
0000
,  // measure 6
0020
0000
0000
0000
0130
0000
0000
0000
0001
0100
0000
0001
0000
1000
0000
0010
,  // measure 7
1000
0100
0010
0001
1000
0100
0010
0001
,  // measure 8
2000
0000
0000
0000
3001
0000
0000
0000
0100
0010
0000
1000
0000
0001
0000
0100
,  // measure 9
0001
1000
0010
0100
0002
0000
1003
0000
,  // measure 10
1000
0001
2000
0000
3000
0000
1001
0000
,  // measure 11
0101
0000
0011
0000
0101
0010
1000
0200
,  // measure 12
1000
0310
1000
0001
0100
0010
1000
0001
,  // measure 13
1100
0000
1010
0000
1100
0010
1000
0002
,  // measure 14
0100
0013
1000
0001
0200
0000
0301
0000
,  // measure 15
0101
0000
0011
0000
0101
0010
1000
0002
,  // measure 16
0100
1003
0010
0001
1000
0100
0001
0100
,  // measure 17
1100
0000
1010
0000
1100
0010
1000
0020
,  // measure 18
0100
0031
0001
1000
2000
0000
3001
0000
,  // measure 19
1010
0100
0001
1000
0001
0000
1010
0100
,  // measure 20
0001
1000
0001
0000
1010
0100
1010
0100
,  // measure 21
1010
0100
0001
1000
0001
0010
0002
0000
,  // measure 22
0000
0013
0001
0010
0200
0000
1300
0000
,  // measure 23
1010
0100
0001
1000
0001
0000
1010
0100
,  // measure 24
0001
1000
0001
0000
1010
0100
1010
0100
,  // measure 25
1010
0100
0001
1000
0001
1000
0002
0000
,  // measure 26
0000
1003
1000
0001
0001
0000
1001
0000
,  // measure 27
1010
0000
0000
0010
2000
0000
0000
0000
3001
0000
0000
0000
0101
0000
0000
0000
,  // measure 28
0001
0000
0000
0001
0010
0000
0000
0010
0100
0000
0000
0100
1000
0000
0000
0000
,  // measure 29
0010
0000
0000
0010
1000
0000
0000
1000
0100
0000
0000
0100
0001
0000
0000
0001
,  // measure 30
0100
0000
0000
0100
1000
0000
0000
1000
0010
0000
0100
0000
0001
0000
0000
0000
,  // measure 31
0110
0000
0000
0001
0200
0000
0000
0000
0301
0000
0000
0000
0101
0000
0000
0000
,  // measure 32
1000
0000
0000
1000
0010
0000
0000
0010
0100
0000
0000
0100
0001
0000
0000
0000
,  // measure 33
1000
0000
0000
1000
0100
0000
0000
0100
0001
0000
0000
0001
0010
0000
0000
0010
,  // measure 34
1000
0000
0000
1000
0001
0000
0000
0001
0100
0000
0001
0000
1000
0000
0000
0000
,  // measure 35
0110
0000
0000
0001
0020
0000
0000
0000
0032
0000
1000
0000
0103
0000
0000
0000
,  // measure 36
1010
0000
0000
1000
0020
0000
0000
0000
2030
0000
0001
0000
3100
0000
0000
0000
,  // measure 37
0010
2000
0001
3100
0010
0002
1000
0103
,  // measure 38
0010
0200
0010
0301
0100
0010
1000
0000
,  // measure 39
0110
0000
0000
0001
0020
0000
0000
0000
0032
0000
1000
0000
0013
0000
0000
0000
,  // measure 40
1100
0000
0000
0100
2000
0000
0000
0000
3020
0000
0100
0000
0031
0000
0000
0000
,  // measure 41
0100
0010
1001
0010
0100
0010
1100
0001
,  // measure 42
0010
0100
0011
1000
0010
0100
1001
0000
,  // measure 43
0220
0000
0000
0000
,  // measure 44
0000
0000
0000
0330
,  // measure 45
0020
0000
0000
0000
,  // measure 46
0200
0000
0000
0330
,  // measure 47
0002
0000
0000
0000
,  // measure 48
0000
0000
0000
0000
,  // measure 49
2000
0000
0000
0000
,  // measure 50
0000
0000
0000
3003
,  // measure 51
0002
0000
0000
0000
0103
0000
0000
0000
0010
1000
0000
0001
0000
1000
0000
0001
,  // measure 52
1000
0001
0010
0100
0010
0001
0100
0001
,  // measure 53
2000
0000
0000
0000
3100
0000
0000
0000
0010
0001
0000
1000
0000
0001
0000
0100
,  // measure 54
0010
0100
0001
0010
0200
0000
0310
0000
,  // measure 55
2000
0000
0000
0000
3001
0000
0000
0000
0100
0010
0000
1000
0000
0001
0000
0100
,  // measure 56
0001
1000
0010
0100
0001
0010
0100
1000
,  // measure 57
0011
0000
0000
0000
1100
0000
0000
0000
1000
0100
0000
1000
0000
0001
0000
0100
,  // measure 58
0001
1000
0010
0001
2000
0000
3100
0000
,  // measure 59
0110
0000
0000
0000
1001
0000
0000
0000
0100
0001
0000
1000
0000
0100
0000
0001
,  // measure 60
0100
1000
0010
0001
0100
0001
1000
0010
,  // measure 61
0110
0000
0000
0000
1001
0000
0000
0000
0100
1000
0000
0010
0000
0001
0000
1000
,  // measure 62
0100
0010
1000
0100
0002
0000
0103
0000
,  // measure 63
0110
0000
0000
0000
1001
0000
0000
0000
0001
0010
0000
1000
0000
0001
0000
0100
,  // measure 64
0001
0010
0100
0001
0010
0100
1000
0010
,  // measure 65
0110
0000
0000
0000
1010
0000
0000
0000
0100
0010
0000
0001
0000
0100
0000
1000
,  // measure 66
0010
0100
0001
1000
0002
0000
1003
0000
,  // measure 67
0010
0010
0010
0100
0020
0000
0130
0000
,  // measure 68
2002
0000
3003
0110
,  // measure 69
1020
0000
0000
0000
0130
0000
0001
0000
1000
0100
0000
0010
0000
0100
0000
1000
,  // measure 70
0010
0100
0001
0010
0100
1000
0001
0010
,  // measure 71
0012
0000
0000
0000
0103
0000
0001
0000
1000
0010
0000
0100
0000
0010
0000
1000
,  // measure 72
0100
0010
0100
1000
0020
0000
0130
0000
,  // measure 73
0210
0000
0000
0000
0301
0000
0100
0000
1000
0100
0000
0001
0000
0100
0000
1000
,  // measure 74
0010
0100
1000
0010
0100
0001
0010
0100
,  // measure 75
0012
0000
0000
0000
1003
0000
0010
0000
0100
0001
0000
1000
0000
0100
0000
0010
,  // measure 76
0100
0110
1001
0011
1002
0000
1003
0000
,  // measure 77
1010
0100
0001
1000
0001
0000
1010
0100
,  // measure 78
0001
1000
0001
0000
1010
0100
1010
0100
,  // measure 79
1010
0100
0001
1000
0001
0010
1002
0000
,  // measure 80
0000
0013
0100
1000
0200
0000
1300
0000
,  // measure 81
1010
0100
0001
1000
0110
0000
1010
0100
,  // measure 82
1001
0001
0110
0000
1010
0100
1010
0100
,  // measure 83
1010
0100
0001
0110
1100
0110
0012
0000
,  // measure 84
0000
1003
1001
0110
1001
0000
0110
0000
,  // measure 85
1001
0000
0000
0000
;
