#TITLE:イ号零型;
#SUBTITLE:;
#ARTIST:あさき;
#TITLETRANSLIT:IGOUZEROGATA;
#SUBTITLETRANSLIT:;
#ARTISTTRANSLIT:Asaki;
#GENRE:;
#CREDIT:;
#MENUCOLOR:;
#METERTYPE:DDR;
#BANNER:IGOUZEROGATA.png;
#BACKGROUND:IGOUZEROGATA-bg.png;
#LYRICSPATH:;
#CDTITLE:./CDTITLES/JUBEAT.PNG;
#MUSIC:IGOUZEROGATA.mp3;
#OFFSET:-0.841;
#SAMPLESTART:68.240;
#SAMPLELENGTH:15.000;
#SELECTABLE:YES;
#LISTSORT:;
#BPMS:0.000=85.000,16.000=170.000;
#STOPS:;
#BGCHANGES:;
#ATTACKS:;

//---------------dance-single - ----------------
#NOTES:
     dance-single:
     :
     Beginner:
     1:
     0.119,0.190,0.047,0.037,0.000:
0000
0000
0000
0000
,
0000
0000
0000
0000
,
0000
0000
0000
0000
,
0000
0000
0000
0000
,
1000
0000
0000
0000
,
1000
0000
0000
0000
,
0001
0000
0000
0000
,
0001
0000
0000
0000
,
0010
0000
0000
0000
,
0010
0000
0000
0000
,
0100
0000
0000
0000
,
0100
0000
0000
0000
,
1000
0000
0000
0000
,
0001
0000
0000
0000
,
0010
0000
0000
0000
,
0100
0000
0010
0000
,
0001
0000
0000
0000
,
1000
0000
0000
0000
,
0010
0000
0100
0000
,
1000
0000
0000
0000
,
1001
0000
0000
0000
,
0010
0000
0000
0000
,
0100
0000
0000
0000
,
0010
0000
0000
0000
,
1001
0000
0000
0000
,
0001
0000
0000
0000
,
0010
0000
0000
0000
,
0100
0000
1000
0000
,
0001
0000
0000
0000
,
1000
0000
1000
0000
,
1000
0000
0000
0000
,
0001
0000
0001
0000
,
0001
0000
0000
0000
,
0010
0000
0010
0000
,
0010
0000
0000
0000
,
0100
0000
0100
0000
,
0100
0000
0000
0000
,
0001
0000
0000
0000
,
1000
0000
0000
0000
,
0001
0000
1000
0000
,
0001
0000
1000
0000
,
0001
0000
1000
0000
,
1001
0000
0000
0000
,
0110
0000
0000
0000
,
1000
1000
0000
0000
,
0001
0000
0010
0000
,
0001
0000
0000
0000
,
1000
0000
0010
0000
,
1000
0000
0000
0000
,
0001
0000
1000
0000
,
0001
0000
0000
0000
,
1000
0000
0001
0000
,
1000
0000
0000
0000
,
0010
0000
0100
0000
,
0010
0000
0000
0000
,
0100
0000
0010
0000
,
0100
0000
0000
0000
,
0001
0000
1000
0000
,
0001
0000
0000
0000
,
1000
0000
0001
0000
,
1001
0000
0000
0000
,
0020
0000
0000
0030
,
0000
0000
0000
0000
,
0200
0000
0000
0300
,
0000
0000
0000
0000
,
0002
0000
0000
0003
,
0000
0000
0000
0000
,
2000
0000
0000
3000
;

//---------------dance-single - ----------------
#NOTES:
     dance-single:
     :
     Easy:
     5:
     0.328,0.424,0.131,0.505,0.000:
0000
0000
0000
0000
,
0000
0000
0000
0000
,
0000
0000
0000
0000
,
0000
0000
0000
0000
,
0010
0000
0000
0110
,
0000
0000
0001
1000
,
0001
0000
0000
1001
,
0000
0000
0010
0100
,
0001
0000
0000
1010
,
0000
0000
1000
0100
,
0010
0000
0000
0011
,
0000
0000
0100
1000
,
0002
0000
1003
1000
,
2000
0000
3010
0010
,
0020
0000
0130
0100
,
0200
0000
0302
0000
,
2003
0000
3001
0001
,
0002
0000
0023
0000
,
0032
0000
1003
1000
,
2000
0000
3001
0100
,
0010
1000
0001
0100
,
0002
0000
1000
1003
,
1000
0100
0010
0001
,
0200
0000
0310
1000
,
1001
0010
0100
0001
,
0200
0000
0000
0300
,
0020
0000
0000
0030
,
2000
3000
0001
1000
,
1001
0000
0000
0020
0000
0000
1030
0000
,
0000
0100
0001
0100
,
0001
0000
0000
0020
0000
0000
0130
0000
,
0000
2000
0000
0000
3001
0000
1000
0000
,
0001
0010
0100
1000
,
0200
0000
0000
0300
,
2000
0000
0000
3000
,
0001
0000
1000
0001
,
2001
0000
3010
0001
,
0200
0000
0301
0010
,
0002
0000
0013
1000
,
0200
0000
2300
0000
,
3001
1000
0001
1000
,
0010
0100
0001
1000
,
0110
0000
0000
1001
0000
0000
0110
0000
,
2002
3003
0010
0100
,
0001
0001
0000
0010
,
0200
0300
2000
3000
,
0001
0100
0010
1000
,
0100
0200
0000
0300
,
2000
3000
0002
0003
,
2000
3020
0230
0302
,
0203
0300
0020
0030
,
2000
3000
0002
0003
,
1000
1001
0000
0010
,
0200
0300
0002
0003
,
0010
0001
0010
0100
,
2000
3000
0200
0300
,
2000
0010
3010
0000
,
0002
0100
0103
0000
,
2000
3000
0002
0003
,
1000
0100
0001
0010
,
1001
0010
0100
0001
,
0200
0000
0310
0000
,
0001
0010
0100
1000
,
0002
0000
1003
0000
,
1000
0010
0100
0001
,
2000
0000
3010
0100
,
0001
0010
0100
1000
,
0002
0000
1003
0001
,
2002
0000
0000
0000
,
0000
0000
0000
3003
;

//---------------dance-single - ----------------
#NOTES:
     dance-single:
     :
     Medium:
     8:
     0.519,0.554,0.271,0.551,0.000:
0000
0000
0000
0000
,
0000
0000
0000
0000
,
0000
0000
0000
0000
,
0000
0000
0000
0000
,
1000
0000
0000
0110
0000
0000
0001
0000
,
0000
0110
0000
0000
1000
0000
0001
0000
,
0010
0000
0000
1001
0000
0000
0100
0000
,
0000
1001
0000
0000
0010
0000
0100
0000
,
0001
0000
0001
0010
0000
0010
1000
0000
,
1000
0100
0000
0100
0001
0000
0110
0000
,
0001
0000
1000
0001
0000
0100
0010
0000
,
1000
0001
0000
1000
0100
0000
1001
0000
,
0020
0000
0130
0001
2000
0000
3001
0000
,
2000
0000
3001
0010
0200
0000
0310
0000
,
0002
0000
0013
0001
0200
0000
0310
0000
,
2000
0000
3010
1000
0002
0000
1003
0000
,
0002
0000
1003
0001
0020
0000
0031
0000
,
2000
0000
3001
1000
0020
0000
0130
0000
,
0020
0000
0130
0001
0200
0000
0301
0000
,
1000
0000
1001
0000
0001
0010
0100
0000
,
1000
0000
1000
0000
1000
0010
1000
0200
,
1000
1000
1000
1300
,
0001
0000
0001
0000
0001
0100
0010
0200
,
0001
0000
0001
0000
0301
0010
0100
0000
,
0020
0000
0031
0010
0001
0000
0001
0000
,
0100
0000
0010
0000
1000
0100
0010
0000
,
2000
0000
3001
1000
0001
0000
0100
0000
,
0010
0000
1000
0000
0001
0100
0010
0000
,
1001
0000
1000
0100
0010
0000
0200
0000
,
0010
0000
0010
0000
0310
0000
0001
1000
,
0001
0000
0100
0010
0200
0000
0320
0000
,
1030
0002
0000
0000
2003
0000
3002
0000
,
1003
0100
0010
0001
1000
0100
0010
0100
,
2000
0100
0100
3100
,
1002
1000
1000
1003
,
0100
0010
0010
0000
0110
0000
0010
0100
,
0002
0000
0013
0001
0020
0000
0031
0000
,
2000
0000
3010
1000
0020
0000
1030
0000
,
0200
0000
0310
0100
0020
0000
0130
0000
,
0002
1003
2000
3001
,
1000
0001
1000
1001
,
0001
1000
0001
1001
,
0110
0000
0000
0101
0000
0000
1010
0000
,
2002
0000
3003
0000
0110
0000
0010
0100
,
0001
0000
1001
0000
0001
0010
0000
0001
,
0200
0000
0310
0000
1000
0001
0100
0000
,
0001
1000
0002
0000
1003
0000
0001
1000
,
0001
1000
0020
0000
1000
0000
1030
0000
,
2001
0000
3100
1000
0200
0000
1300
0000
,
0001
0010
0100
1000
,
0210
0301
0120
1030
,
0220
0330
2002
3003
,
0001
0000
1001
0000
1000
0010
1000
0100
,
0020
0000
0130
0000
1000
0100
0010
0000
,
0001
0000
1001
0000
0001
0100
0010
0100
,
0001
0000
1001
0000
1000
0100
0010
0000
,
2100
0000
0001
0000
3010
0000
0001
0100
,
0020
0000
0100
0000
0031
0000
1000
0100
,
2000
0001
3001
0010
,
0220
0000
0330
0000
0010
0100
0001
0000
,
1001
0000
0100
0001
1000
0001
1000
0020
,
0000
0000
0100
0130
,
0001
0000
0010
0000
0100
1000
0010
2000
,
0000
0000
0001
3001
,
1000
0100
0010
0002
0000
0000
0100
0000
,
0000
0100
0000
0103
,
0001
0100
0010
2000
0000
0000
0100
0000
,
0000
0000
3100
0000
0100
1000
0001
0000
,
0010
0100
0002
2000
0000
0000
0000
0000
,
0000
0000
0000
3003
;

//---------------dance-single - ----------------
#NOTES:
     dance-single:
     :
     Hard:
     11:
     0.630,0.652,0.430,0.505,0.079: // measure 1
0000
0000
0000
0000
,  // measure 2
0000
0000
0000
0000
,  // measure 3
0000
0000
0000
0000
,  // measure 4
0000
0000
0000
0000
,  // measure 5
1001
0000
0000
1100
0000
0000
0101
0000
,  // measure 6
0000
1010
0000
0000
0011
0000
1100
0000
,  // measure 7
1001
0000
0000
0110
0000
0000
1001
0000
,  // measure 8
0000
0101
0000
0000
1100
0000
0101
0000
,  // measure 9
1001
0000
1000
1100
0000
0001
0101
0000
,  // measure 10
0010
1010
0000
0001
0011
0000
1100
0000
,  // measure 11
1000
0100
1001
0100
0001
0011
0100
1010
,  // measure 12
1010
0100
0001
0000
1000
0001
0100
0010
,  // measure 13
2000
0000
0000
0000
3001
0000
0000
0100
0002
0000
0000
0000
0013
0000
0000
1000
,  // measure 14
0200
0000
0000
0000
1300
0000
0000
0010
2000
0000
0000
0000
3001
0000
0100
0000
,  // measure 15
0001
0000
1000
0000
0002
0000
0000
1003
0020
0000
0000
0000
1030
0000
0000
0100
,  // measure 16
0020
0000
0000
0000
0031
0000
0000
1000
0002
0000
0000
0000
0103
0000
0000
0000
,  // measure 17
0002
0000
0000
0000
1003
0000
0000
0001
2000
0000
0000
0000
3010
0000
1000
0000
,  // measure 18
0020
0000
0000
0000
0130
0000
0000
0001
0200
0000
0000
0000
0301
0000
0000
0000
,  // measure 19
0010
0000
0100
0000
1000
0000
0000
0001
2000
0000
0000
0000
3001
0000
0000
0000
,  // measure 20
0110
0000
1001
0000
0010
1000
0100
1000
,  // measure 21
0001
0010
0100
1000
0100
0010
0001
0200
,  // measure 22
0010
0000
1000
0000
0001
0000
1300
0001
,  // measure 23
1000
0100
0010
0001
0100
0020
1000
0032
,  // measure 24
0000
0000
1000
0000
0103
0000
0100
0010
,  // measure 25
1001
0001
0010
0100
1000
0100
0010
0001
,  // measure 26
1000
0100
0010
0100
1000
0010
0100
0001
,  // measure 27
2000
0000
0000
0000
0010
0000
0000
0000
0001
0000
0000
0000
3100
0000
0000
1000
,  // measure 28
0001
0000
0100
0000
0001
0000
0000
0010
0001
0000
0010
0000
0100
0000
1000
0000
,  // measure 29
0110
0000
0001
1100
0010
0000
0101
0000
,  // measure 30
0010
1000
0001
0000
0100
0001
1000
0001
,  // measure 31
0010
0000
0100
1010
0001
0000
0100
0002
,  // measure 32
1000
0023
0000
0000
0032
0000
0203
0000
,  // measure 33
0310
0001
0100
1000
0100
0001
0010
0200
,  // measure 34
0000
0000
0000
0000
1300
0001
0100
0000
,  // measure 35
1002
0000
0013
0001
0100
0001
0010
0000
,  // measure 36
0001
1001
1001
0000
0001
1000
0010
0100
,  // measure 37
0002
0000
0000
0000
0013
0000
0000
0010
0002
0000
0000
0000
1003
0000
0100
0000
,  // measure 38
0010
0000
0100
0000
2000
0000
0000
3010
2000
0000
0000
0000
3010
0000
0000
0000
,  // measure 39
0210
0000
0000
0000
0301
0000
0000
1000
0002
0000
0000
0000
0013
0000
0000
0000
,  // measure 40
2000
0000
0000
0000
3100
0000
0000
0001
2000
0000
0000
0000
3001
0000
0000
0000
,  // measure 41
1000
0000
1001
0000
0001
0100
1000
0000
,  // measure 42
0001
0000
1001
0000
1000
0100
0001
0000
,  // measure 43
0110
0001
0100
0110
1000
0100
0110
0001
,  // measure 44
2002
0000
3003
0000
0110
0000
0010
1000
,  // measure 45
0001
0000
1001
0000
0001
0100
0001
0100
,  // measure 46
0020
0000
1030
0100
0010
0001
0100
0000
,  // measure 47
0010
1000
0002
0000
1003
0000
1000
0001
,  // measure 48
0100
0010
2000
0000
0010
0000
3100
0000
,  // measure 49
0002
0000
0013
0100
2000
0000
3100
0000
,  // measure 50
2000
3010
0020
0130
,  // measure 51
0002
0013
0020
1030
,  // measure 52
2000
0000
3100
0000
0200
0000
0301
0100
,  // measure 53
0010
0000
1001
0000
0010
1000
0010
1000
,  // measure 54
0002
0000
1003
0100
0010
0100
1000
0000
,  // measure 55
0010
0000
0000
0010
0100
0000
0001
0000
1000
0000
0000
1000
0001
0000
0010
0000
,  // measure 56
0002
0000
0013
0000
1000
0100
0001
0000
,  // measure 57
0210
0000
0001
0000
0310
0000
0100
0010
,  // measure 58
2000
0000
0010
0000
3001
0100
0010
0000
,  // measure 59
0001
0010
0100
1000
0001
0010
0100
1000
,  // measure 60
0001
0000
1001
0000
0100
0010
1000
0100
,  // measure 61
1001
0010
0100
0001
0100
0010
1000
0200
,  // measure 62
1000
0000
0010
0000
0001
0000
1300
0001
,  // measure 63
1000
0100
0010
0001
0100
0010
0100
0002
,  // measure 64
0010
0000
1000
0000
0100
0000
0013
0001
,  // measure 65
1000
0010
0100
0020
1000
0000
0001
0000
,  // measure 66
0100
0000
0031
0000
1000
0001
0100
0001
,  // measure 67
0010
0001
0100
2000
0100
0000
0001
0000
,  // measure 68
0010
0000
3001
0000
1000
0001
1000
1001
,  // measure 69
0010
0100
0002
2000
0000
0000
0000
0000
,  // measure 70
0000
0000
0000
3003
;
