#TITLE:Einherjar;
#SUBTITLE:;
#ARTIST:植松伸夫とわんにゃん☆パニックス;
#TITLETRANSLIT:;
#SUBTITLETRANSLIT:;
#ARTISTTRANSLIT:Nobuo Uematsu TO WANNYAN☆PANICS;
#GENRE:;
#CREDIT:;
#MENUCOLOR:;
#METERTYPE:DDR;
#BANNER:Einherjar.png;
#BACKGROUND:Einherjar-bg.png;
#LYRICSPATH:;
#CDTITLE:./CDTITLES/GUITAR FREAKS & DRUMMANIA.PNG;
#MUSIC:Einherjar.mp3;
#OFFSET:-0.109.67;
#SAMPLESTART:74.150;
#SAMPLELENGTH:15.000;
#SELECTABLE:YES;
#LISTSORT:;
#BPMS:0.000=230.000;
#STOPS:;
#BGCHANGES:0.000=Einherjar.avi=1.000=1=1=0,
99999=-nosongbg-=1.000=0=0=0 // don't automatically add -songbackground-
;
#ATTACKS:;

//---------------dance-single - ----------------
#NOTES:
     dance-single:
     :
     Beginner:
     4:
     0.149,0.184,0.038,0.010,0.000:
0000
0000
0000
0000
,
0000
0000
0000
0000
,
0000
0000
0000
0000
,
1000
0000
1000
0000
,
1000
0000
0000
0000
,
0000
0000
0000
0000
,
0001
0000
0000
0000
,
0010
0000
0010
0000
,
0100
0000
0100
0000
,
0001
0000
0000
0000
,
0000
0000
0000
0000
,
1000
0000
0000
0000
,
0000
0000
0000
0000
,
0001
0000
0000
0000
,
0000
0000
0000
0000
,
0010
0000
0000
0000
,
0000
0000
0000
0000
,
0100
0000
0000
0000
,
0000
0000
0000
0000
,
0010
0000
0000
0000
,
0001
0000
0001
0000
,
1000
0000
0000
0000
,
1000
0000
1000
0000
,
0100
0000
0000
0000
,
0010
0000
0010
0000
,
0001
0000
0000
0000
,
1000
0000
0000
0000
,
1001
0000
0000
0000
,
0010
0000
0010
0000
,
0100
0000
0000
0000
,
0001
0000
0001
0000
,
1000
0000
0000
0000
,
1000
0000
1000
0000
,
0100
0000
0000
0000
,
0010
0000
0000
0000
,
0001
0000
0000
0000
,
1000
0000
0000
0000
,
0001
0000
0000
0000
,
1000
0000
0000
0000
,
0010
0000
0000
0000
,
0100
0000
0000
0000
,
0001
0000
0000
0000
,
0100
0000
0000
0000
,
0000
0010
0000
0010
,
0000
0100
0000
0100
,
0000
0001
0000
0001
,
0000
1000
0000
1000
,
1000
0000
0000
0000
,
0000
0000
0000
0000
,
0001
0000
0000
0000
,
0000
0000
0000
0000
,
1001
0000
0000
0000
,
0000
0000
0000
0000
,
0010
0000
0000
0000
,
0100
0000
0100
0000
,
0001
0000
0000
0000
,
1000
0000
0000
0000
,
0001
0000
0000
0000
,
1000
0000
1000
0000
,
0001
0000
0000
0000
,
1000
0000
0000
0000
,
0001
0000
0000
0000
,
1000
0000
1000
0000
,
0010
0000
0000
0000
,
0100
0000
0000
0000
,
0010
0000
0000
0000
,
0100
0000
0100
0000
,
0020
0000
0000
0030
,
0000
0000
0000
0000
,
0100
0000
0000
0000
,
0000
0000
0000
0000
,
0001
0000
0000
0000
,
1000
0000
0000
0000
,
0001
0000
0000
0000
,
1000
0000
1000
0000
,
0001
0000
0000
0000
,
1000
0000
0000
0000
,
0001
0000
0000
0000
,
1000
0000
0000
0000
,
0010
0000
0000
0000
,
0100
0000
0000
0000
,
0010
0000
0000
0000
,
0100
0000
0100
0000
,
0010
0000
0000
0000
,
0100
0000
0000
0000
,
0010
0000
1000
0000
,
0001
0000
0100
0000
,
1001
0000
0000
0000
,
0000
0000
0000
0000
,
0001
0000
0000
0000
,
1000
0000
1000
0000
,
0001
0000
0000
0000
,
0100
0000
0000
0000
,
0010
0000
0000
0000
,
1000
0000
0000
0000
,
0001
0000
0000
0000
,
1001
0000
0000
0000
;

//---------------dance-single - ----------------
#NOTES:
     dance-single:
     :
     Easy:
     7:
     0.422,0.464,0.172,0.335,0.000:
0000
0000
0000
0000
,
0000
0000
0000
0000
,
0000
0000
0000
0000
,
1000
0001
1000
0001
,
0220
0000
0000
0000
,
0000
0000
0000
0330
,
0001
0000
0000
0010
0000
0000
0100
0000
,
1000
0100
0010
0001
,
1000
1000
0010
0010
,
0220
0000
0000
0000
,
0000
0000
0330
1001
,
1000
0000
0000
1000
0000
0000
0000
0000
,
1000
0000
0000
1000
0000
0000
0001
0000
,
1000
0000
0000
1000
0000
0000
0000
0000
,
1000
0000
0000
1000
0000
0000
0001
0000
,
0010
0000
0000
0010
0000
0000
0000
0000
,
0010
0000
0000
0010
0000
0000
0100
0000
,
0010
0000
0000
0010
0000
0000
0001
0000
,
0100
0000
0000
0100
0000
0000
0110
0000
,
0001
0000
0000
0200
0000
0000
0301
0000
,
1000
0000
0000
0200
0000
0000
1300
0000
,
0010
0000
0000
2000
0000
0000
3010
0000
,
0001
0100
0002
1003
,
0001
0000
0000
0020
0000
0000
0031
0000
,
1000
0100
0010
0100
,
1000
0000
0000
0020
0000
0000
0130
0000
,
0100
0000
0000
0110
0000
0000
1001
0000
,
0001
0000
0000
0020
0000
0000
0031
0000
,
0010
0000
0000
0002
0000
0000
1003
0000
,
0010
0000
0000
2000
0000
0000
3010
0000
,
1000
0010
0100
0001
,
1000
0000
0000
0200
0000
0000
1300
0000
,
0010
0100
0001
1000
,
0001
0000
0000
2000
0000
0000
3000
0000
,
0001
0000
1000
0001
,
1001
0000
0010
1000
,
0010
0010
0100
0001
,
0010
0000
0001
0010
,
0100
0100
0010
0001
,
1000
0000
0100
0010
,
0100
0100
1000
0010
,
0100
0000
0010
1000
,
1001
0000
0010
0100
,
1001
0000
0020
0030
,
1000
0000
0200
0300
,
0010
0000
0002
0003
,
0100
0000
0020
0030
,
1000
0000
0002
0003
,
0100
0000
0020
0030
,
0100
0000
0002
0003
,
1000
0100
0001
0100
,
2000
0000
0000
0000
,
0000
0000
0000
3000
,
0001
0000
1000
0000
,
0001
0000
1001
0000
,
0010
0000
0000
0100
0000
0000
0010
0000
,
0000
0100
0000
0000
0010
0000
0100
0000
,
0001
0000
0000
1000
0000
0000
0001
0000
,
0000
1000
0000
0000
0001
0000
1000
0000
,
0100
0000
0000
1000
0000
0000
0100
0000
,
0000
0010
0000
0000
0100
0000
1000
0000
,
0001
0000
0000
0100
0000
0000
0010
0000
,
0000
0100
0000
0000
0001
0000
0100
0000
,
1001
0000
0000
0010
0000
0000
0100
0000
,
0000
0001
0000
0000
1000
0000
0100
0000
,
0001
0000
0000
0100
0000
0000
1000
0000
,
0000
0001
0000
0000
1000
0000
0010
0000
,
0200
0000
0000
0000
,
0000
0000
0000
0300
,
0020
0000
0000
0030
,
2000
0000
0002
3003
,
1001
0010
1000
0010
,
0001
0010
1000
0010
,
0001
0100
1000
0100
,
0001
0100
2000
3000
,
0010
1000
0001
0100
,
0010
1000
0001
0100
,
0001
0010
0100
1000
,
0100
0000
0010
0100
,
1001
0100
0001
0100
,
1000
0100
0001
0100
,
1000
0010
0001
0010
,
1000
0010
0002
0003
,
0010
1000
0100
0001
,
0100
1000
0010
0100
,
0001
1000
0010
0100
,
0001
0000
1001
0000
,
2020
0000
0000
0000
,
0000
0000
0000
3030
,
0100
0000
0000
0000
,
0001
0010
0100
1000
,
2002
0000
0000
0000
,
0000
0000
0000
3003
,
0100
0000
0010
0000
,
0100
0010
0100
0001
,
1000
0000
0000
1100
0000
0000
0001
0000
,
2002
0000
0000
0000
,
3003
0000
0000
0000
;

//---------------dance-single - ----------------
#NOTES:
     dance-single:
     :
     Medium:
     10:
     0.694,0.742,0.641,0.411,0.000:
0000
0000
0000
0000
,
0000
0000
0000
0000
,
0000
0000
0000
0000
,
0010
0110
1001
0110
,
2002
0000
0000
3003
,
1000
0100
0000
0000
0000
0000
0001
0000
,
0220
0000
0000
0330
,
0001
0100
0010
1000
,
0001
0000
1000
0000
0001
1000
0100
0000
,
2002
0000
0000
0000
,
0000
0000
3003
0110
,
1001
0000
0001
0100
0000
1000
0100
0000
,
0001
0000
1000
0010
0000
0001
0010
0000
,
1000
0000
0100
0010
0000
0100
1000
0000
,
0001
0000
0100
0010
0000
0100
0001
0000
,
1000
0000
0010
1000
0000
0001
0010
0000
,
0001
0000
1000
0100
0000
0001
0100
0000
,
0010
0000
0100
0010
0000
0010
1000
0000
,
0001
0000
1000
0100
0000
0100
0110
0000
,
1001
0000
0001
0200
0000
0000
0301
0000
,
1000
0000
0010
1000
0000
1000
0010
0000
,
2000
0000
0000
3100
0000
0000
0001
0000
,
1000
0000
0010
1000
0200
0000
1300
0000
,
0001
0000
0100
0020
0000
0000
1030
0000
,
0001
0000
0010
0100
0002
0000
0103
0000
,
0110
0000
0000
2002
0000
0000
3003
0000
,
0010
0000
0000
0110
0000
0100
0001
0000
,
1000
0000
0100
2000
0000
0000
3001
0000
,
0002
0000
0000
0013
0000
0000
0001
0000
,
0200
0000
0000
0310
0000
0000
1000
0000
,
0001
0000
1000
0010
0200
0000
0310
0000
,
1100
0000
0000
2001
0000
0000
3001
0000
,
0101
0000
0001
0010
0200
0000
0310
0000
,
0001
0000
0000
2002
0000
0000
3003
0000
,
0010
0000
0110
0000
1000
0001
0100
0000
,
0001
0000
0010
0001
0000
0001
0010
0000
,
1000
0000
0100
1000
0000
1000
0100
0000
,
1000
0000
0010
0100
0000
0100
0001
0000
,
0100
0000
0010
1000
0000
0001
0010
0000
,
0100
0000
0010
0001
0000
1000
0010
0000
,
0100
0001
0000
1000
0100
0000
1001
0000
,
0110
0000
0010
1000
0000
0001
0010
0000
,
1000
0100
0000
0100
0010
0000
1001
0000
,
0010
0000
0100
0001
0200
0000
0301
0000
,
1000
0000
0100
1000
0200
0000
1300
0000
,
0001
0000
0010
0100
0020
0000
0031
0000
,
1000
0000
0010
1000
0000
1000
0010
0000
,
1000
0000
0100
1000
0000
0001
0100
0000
,
0010
1000
0000
0001
0010
0000
0110
0000
,
1001
0000
0001
0100
0000
1000
0100
0000
,
1000
0010
0000
0001
0010
0000
0110
0000
,
2001
0000
0000
0001
0000
0000
0100
0000
,
0001
0000
0000
0010
0000
0000
3001
0000
,
0010
0100
0001
1000
0000
0001
0000
1000
,
0001
0100
0000
0001
1000
0001
0000
0000
,
1000
0000
0000
1010
0000
0000
0001
0000
,
0000
0011
0000
0000
0100
0000
0101
0000
,
0110
0000
0000
1001
0000
0000
0110
0000
,
0000
1001
0000
0000
1100
0000
0101
0000
,
1001
0000
0000
0110
0000
0000
1001
0000
,
0000
0110
0000
0000
0011
0000
1010
0000
,
1001
0000
0000
0110
0000
0000
1100
0000
,
0000
0011
0000
0000
0101
0000
1010
0000
,
1001
0000
0001
0100
0000
1000
0100
0000
,
1000
0010
0000
0001
0010
0000
1001
0000
,
0110
0000
0010
0100
0000
0001
0010
0000
,
1000
0100
0000
1000
0001
0000
0110
0000
,
2001
0001
0001
0001
,
0001
0000
3001
0000
0001
0100
0110
0000
,
1000
0010
0100
0001
,
1000
0000
0000
1001
0000
1000
0001
1000
,
0001
0000
0010
0100
2000
0000
3010
0000
,
0001
0000
1000
0001
0200
0000
0301
0000
,
0010
0000
0100
0010
2000
0000
3010
0000
,
0100
0001
0100
0001
0020
0000
0130
0000
,
0001
0000
0010
0001
0200
0000
0310
0000
,
1000
0000
0010
0100
0002
0000
1003
0000
,
0100
0000
0010
0100
2000
0000
3100
0000
,
1000
0001
0000
0001
0100
0000
1001
0000
,
0110
0000
0010
1000
0200
0000
1300
0000
,
0001
0000
0010
0001
0200
0000
0301
0000
,
1000
0000
0001
1000
0200
0000
1300
0000
,
0001
1000
0010
1000
0002
0000
0003
0000
,
1000
0000
0001
0100
2000
0000
3100
0000
,
0001
0000
0010
1000
0020
0000
0031
0000
,
1100
0000
0000
0110
0000
0000
1001
0000
,
0010
0100
0010
0000
0001
1000
0001
0000
,
1002
0000
0000
1000
0000
0000
0100
0000
,
0010
0000
0000
1000
0000
0000
0103
0000
,
0010
0100
0000
0000
0000
0000
0000
0000
,
0110
1001
0110
1001
,
2100
0000
0000
0001
0000
0000
0010
0000
,
0010
0000
0000
0001
0000
0000
3100
0000
,
1001
0000
0001
0100
0000
0010
1000
0000
,
0100
0010
0100
0010
1000
0000
1001
0000
,
0010
0100
0010
0100
0000
0001
1000
0001
,
2002
0000
0000
0000
,
3003
0000
0000
0000
;

//---------------dance-single - ----------------
#NOTES:
     dance-single:
     :
     Hard:
     15:
     0.945,0.881,0.794,0.153,0.024: // measure 1
0000
0000
0000
0000
,  // measure 2
0000
0000
0000
0000
,  // measure 3
0000
0000
0000
0000
,  // measure 4
1010
0101
1100
0101
,  // measure 5
1001
0000
0001
0001
0000
0001
0010
0000
,  // measure 6
0100
1001
0000
0010
1000
0000
0001
0000
,  // measure 7
0210
0000
0000
0001
0000
0000
1300
0000
,  // measure 8
0001
0010
0100
1000
0001
0100
0010
1000
,  // measure 9
1010
0000
1001
0000
0001
0100
0010
1000
,  // measure 10
2010
0010
0000
0001
0000
0100
3100
0000
,  // measure 11
0102
0000
0000
0000
0100
0000
0000
0000
0000
0000
0000
0000
1003
0000
0000
0000
0000
0000
0000
0000
0001
0000
0000
0100
0010
0000
0000
0000
0000
0000
0000
0000
,  // measure 12
1010
0000
0001
0100
0000
1000
0100
0010
,  // measure 13
0011
0000
0001
1000
0000
0010
1000
0001
,  // measure 14
0110
0000
0100
0010
0000
1000
0100
0001
,  // measure 15
1100
0000
0001
0100
0000
0010
1000
0001
,  // measure 16
0011
0000
1000
0010
0000
0100
0010
1000
,  // measure 17
1001
0000
0010
0100
0000
1000
0100
0010
,  // measure 18
0110
0000
0010
0001
0000
1000
0010
0100
,  // measure 19
1010
0000
0001
0110
0000
0001
1100
0000
,  // measure 20
0110
1000
0001
0100
0000
0100
0011
0000
,  // measure 21
1000
0100
0010
0001
0000
0001
1010
0000
,  // measure 22
0001
1000
0100
0010
0000
0100
1100
0000
,  // measure 23
0010
1000
0001
0100
0000
0010
0011
0000
,  // measure 24
1010
0000
0001
0100
0000
0001
1000
0001
,  // measure 25
0101
0000
0010
1000
0000
0001
1000
0010
,  // measure 26
0110
0000
0100
0001
0000
0001
1000
0000
,  // measure 27
0100
0000
0100
1010
0000
0001
1000
0100
,  // measure 28
1001
0000
1000
0010
0000
0100
0001
1000
,  // measure 29
1100
0000
0001
0010
0000
0010
0001
1000
,  // measure 30
1001
0000
0010
1000
0000
0100
0010
1000
,  // measure 31
0110
0000
0010
0100
0000
0001
0010
0100
,  // measure 32
0011
0000
1000
0100
0000
0010
1000
0001
,  // measure 33
1010
0000
0100
0001
0000
1000
0001
0100
,  // measure 34
0110
0000
0010
1000
0000
0001
1100
0000
,  // measure 35
0110
0000
1001
0000
0010
1000
0001
0100
,  // measure 36
0001
0010
0001
0100
0001
0001
0001
1000
,  // measure 37
0010
0010
0010
0100
0001
1000
0001
1000
,  // measure 38
0100
1000
0100
0010
0100
0100
0100
1000
,  // measure 39
0010
0010
0010
0100
0001
1000
0001
0100
,  // measure 40
0001
0010
0001
0100
0001
0001
0001
1000
,  // measure 41
0010
0100
0010
1000
0010
0010
0010
0100
,  // measure 42
0001
0001
0001
0010
0100
0000
0110
0000
,  // measure 43
0010
0001
1000
0010
0100
0001
1000
0100
,  // measure 44
1000
0010
0100
0001
2000
0000
3100
0000
,  // measure 45
0001
0010
0100
1000
0020
0000
0130
0000
,  // measure 46
0010
1000
0001
0100
0002
0000
1003
0000
,  // measure 47
0001
0010
0100
1000
0100
0010
0001
1000
,  // measure 48
0001
0100
0100
0001
0010
0010
0001
1000
,  // measure 49
1000
0001
0100
0100
0001
1000
0100
0010
,  // measure 50
0100
1000
0010
0100
0001
1000
0010
1000
,  // measure 51
0001
0110
0000
0100
1001
0000
0110
0000
,  // measure 52
0101
0001
0001
1000
1000
1000
0010
0010
,  // measure 53
0010
0100
0100
0100
0001
0100
0010
1000
,  // measure 54
1001
0001
1000
0001
0000
1000
0000
0001
,  // measure 55
0100
0010
0000
0100
1001
1001
0000
0000
,  // measure 56
1000
0100
0010
1000
0100
0010
1000
0100
,  // measure 57
0010
1000
0100
0010
0100
1000
0001
0100
,  // measure 58
0010
0100
0001
0010
0100
0001
0010
0100
,  // measure 59
0001
0010
0100
0001
0010
1000
0010
0001
,  // measure 60
1000
0100
0001
1000
0100
0001
1000
0100
,  // measure 61
0001
1000
0100
0001
1000
0010
0001
0100
,  // measure 62
0001
0010
1000
0001
0010
1000
0001
0010
,  // measure 63
1000
0001
0010
1000
0001
0100
0010
0100
,  // measure 64
1010
0000
0001
1100
0000
0010
0110
0000
,  // measure 65
1000
0011
0000
1000
0101
0000
1100
0000
,  // measure 66
1001
0000
0010
0110
0000
0001
0011
0000
,  // measure 67
1000
1100
0000
1000
1001
0000
0110
0000
,  // measure 68
1100
0000
0001
0010
0000
0010
0001
0000
,  // measure 69
0100
0000
0001
1000
0000
1000
0110
0000
,  // measure 70
1001
0000
0001
0100
0010
1000
1001
0000
,  // measure 71
1000
0100
0100
0220
0000
0330
1001
0000
,  // measure 72
1010
0100
0001
0100
0010
1000
0010
0100
,  // measure 73
0001
0010
0100
1000
0001
0010
0100
1000
,  // measure 74
0010
0100
0001
1000
0010
0100
0001
1000
,  // measure 75
0010
1000
0001
0100
2002
0000
3003
0000
,  // measure 76
1000
0100
0010
0001
1000
0100
0010
0001
,  // measure 77
1000
0010
0100
0001
1000
0010
0100
0001
,  // measure 78
1000
0010
0001
0010
1000
0100
0001
0100
,  // measure 79
1000
1001
0000
0100
0110
0000
1001
0000
,  // measure 80
1010
0010
0010
0010
0100
0100
0100
0100
,  // measure 81
0001
0001
0001
0001
0010
0010
0010
0010
,  // measure 82
0100
0100
0100
0100
1000
1000
1000
1000
,  // measure 83
0010
0100
0001
1000
0002
0000
1003
0000
,  // measure 84
0001
0010
0010
0100
1000
0010
0010
0100
,  // measure 85
0010
0100
0100
0001
1000
0100
0100
1000
,  // measure 86
0001
0000
0010
0000
0100
0000
0010
0000
0001
0000
1000
0000
,  // measure 87
0010
0100
0010
0100
0001
1000
0100
1000
,  // measure 88
1002
0000
0000
1000
0000
0000
0100
0000
,  // measure 89
0010
0000
1000
1000
0000
0000
0103
0000
,  // measure 90
0110
0210
0000
0001
0000
0000
1300
0000
,  // measure 91
1100
0110
0011
0110
,  // measure 92
2001
0000
0000
0001
0000
0000
0100
0000
,  // measure 93
0001
0001
0000
0010
0000
0000
3100
0000
,  // measure 94
0110
0000
1000
0100
0000
0001
0100
0000
,  // measure 95
0001
1000
0001
1000
0010
0100
0010
0100
,  // measure 96
1010
0010
1000
0010
0000
0100
0001
1000
,  // measure 97
0220
0000
0000
0000
,  // measure 98
0330
0000
0000
0000
;
