#TITLE:ΕΛΠΙΣ;
#SUBTITLE:;
#ARTIST:dj TAKA;
#TITLETRANSLIT:ELPIS;
#SUBTITLETRANSLIT:;
#ARTISTTRANSLIT:;
#GENRE:;
#CREDIT:;
#MENUCOLOR:;
#METERTYPE:DDR;
#BANNER:ELPIS.png;
#BACKGROUND:ELPIS-bg.png;
#LYRICSPATH:;
#CDTITLE:./CDTITLES/BEATMANIA IIDX.PNG;
#MUSIC:ELPIS.mp3;
#OFFSET:-0.280;
#SAMPLESTART:67.460;
#SAMPLELENGTH:15.000;
#SELECTABLE:YES;
#LISTSORT:;
#BPMS:0.000=175.000;
#STOPS:;
#BGCHANGES:;
#ATTACKS:;

//---------------dance-single - ----------------
#NOTES:
     dance-single:
     :
     Beginner:
     2:
     0.128,0.187,0.069,0.000,0.000:
0000
0000
0000
0000
,
0000
0000
0000
0000
,
0000
0000
0000
0000
,
0000
0000
0000
0000
,
1001
0000
0000
0000
,
1000
0000
0000
0000
,
0001
0000
0000
0000
,
0100
0000
0000
0000
,
0010
0000
0010
0000
,
1000
0000
0000
0000
,
0001
0000
0001
0000
,
0100
0000
0000
0000
,
0010
0000
0010
0000
,
0100
0000
0000
0000
,
0001
0000
0001
0000
,
1000
0000
0000
0000
,
0000
1000
0000
1000
,
0000
1000
0000
0000
,
0000
0001
0000
0001
,
0000
0001
0000
0000
,
0000
0010
0000
0010
,
0000
0010
0000
0000
,
0000
0100
0000
0100
,
0100
0000
0000
0000
,
1001
0000
0000
0000
,
0000
0000
0000
0000
,
0000
0000
0000
0000
,
0000
0000
0000
0000
,
1000
0000
0000
0000
,
0001
0001
0001
0000
,
0000
0000
0000
0000
,
0100
0000
0000
0000
,
0010
0000
0000
0000
,
1000
0000
0000
0000
,
0001
0000
0000
0000
,
1000
0000
0000
0000
,
1001
0000
0000
0000
,
0010
0010
0010
0000
,
0000
0000
0000
0000
,
0100
0000
0000
0000
,
1001
0000
0000
0000
,
0010
0000
0000
0000
,
0100
0000
0000
0000
,
0001
0000
0000
0000
,
1001
0000
0000
0000
,
1001
0000
0000
0000
,
1000
0000
0001
0000
,
1000
0000
0001
0000
,
1000
0000
0000
0000
,
0000
0001
0000
0001
,
0000
0001
0000
0000
,
0000
1000
0000
1000
,
1000
0000
0000
0000
,
0010
0000
0100
0000
,
0001
0000
1000
0000
,
0010
0000
0100
0000
,
0001
0000
0000
0000
,
0000
1000
0000
1000
,
0000
0001
0000
0001
,
0000
0010
0000
0010
,
0010
0000
0000
0000
,
0100
0000
0010
0000
,
1000
0000
0001
0000
,
1000
0000
0100
0000
,
0010
0000
0000
0000
,
1001
0000
0000
0000
,
0001
0001
0001
0000
,
1000
0000
0000
0000
,
0001
0000
1000
0000
,
0010
0000
0000
0000
,
0100
0000
0010
0000
,
1000
0000
0000
0000
,
0001
0000
0010
0000
,
1001
0000
0000
0000
,
0100
0100
0100
0000
,
0001
0000
1000
0000
,
0001
0000
0000
0000
,
1000
0000
0010
0000
,
1000
0000
0000
0000
,
0001
0000
0100
0000
,
0001
0000
0000
0000
,
1001
0000
0000
0000
;

//---------------dance-single - ----------------
#NOTES:
     dance-single:
     :
     Easy:
     5:
     0.322,0.456,0.177,0.277,0.000:
0000
0000
0000
0000
,
0000
0000
0000
0000
,
0000
0000
0000
0000
,
0000
0000
0000
0000
,
0100
0010
0000
0010
,
0100
0001
0000
0001
,
1000
0100
0000
0100
,
1000
0010
0000
0010
,
0010
0000
1000
0000
,
0001
0010
0100
1000
,
0001
0001
1000
1000
,
0001
0010
0100
0010
,
0001
0000
1000
1000
,
0010
0100
0010
1000
,
0002
0003
2000
3000
,
0020
0030
0200
0300
,
1001
1000
1000
1000
,
0001
0001
0001
0001
,
0010
0010
0010
0010
,
0100
0100
0100
0100
,
1001
0000
0100
0010
,
1001
0000
0010
0100
,
0110
0000
1001
0000
,
1000
0100
0010
0001
,
2002
0000
0000
0000
,
0000
0000
0000
3003
,
0000
0000
0000
0000
,
0000
0000
0000
0000
,
1001
0000
0000
0000
,
1000
1000
2000
3000
,
0002
0003
0010
0010
,
0200
0300
0020
0030
,
0200
0000
0010
0310
,
2000
0000
0001
3001
,
2000
0000
0000
3000
,
0001
1000
0001
1000
,
1001
0001
0001
0001
,
0010
0100
0010
0001
,
2000
3000
0002
0003
,
0100
0010
0100
0001
,
0200
0000
0010
0310
,
2000
0000
0001
3001
,
0020
0000
0032
0000
,
0203
0000
0000
0300
,
0220
0000
0000
0330
,
2002
0000
0000
3003
,
1001
0000
0110
0000
,
1001
1100
1001
0101
,
2001
0000
0000
3001
,
1000
1000
0001
1000
,
0001
1000
0001
1000
,
0001
0010
0100
1000
,
0001
0100
0010
1000
,
0100
0100
0010
0010
,
0100
0100
0010
0010
,
0001
1000
0001
1000
,
0001
0010
0100
1000
,
0110
0100
0001
1000
,
0002
0000
1000
1003
,
0010
1000
0100
1000
,
0020
0000
0100
0130
,
0010
0000
1000
0010
,
0100
0000
0001
0010
,
0100
1000
0100
0010
,
1001
0010
0100
0010
,
0002
0003
1000
1000
,
0010
1000
0010
1000
,
0001
0100
0010
1000
,
0100
0010
0001
1000
,
0100
0000
0100
1000
,
0010
0000
0010
0100
,
0001
0000
1000
0000
,
0001
1000
0100
0010
,
2002
3003
1000
0010
,
0200
0300
0010
1000
,
0001
1000
0010
0100
,
0010
0010
2000
3000
,
0020
0030
0100
0100
,
0002
0003
1000
0100
,
0010
0100
1000
0001
,
1000
1001
0001
1001
,
0220
0000
0000
0000
,
0000
0000
0000
0000
,
0000
0000
0000
0000
,
0000
0000
0000
0330
;

//---------------dance-single - ----------------
#NOTES:
     dance-single:
     :
     Medium:
     8:
     0.473,0.521,0.208,0.377,0.000:
0000
0000
0000
0000
,
0000
0000
0000
0000
,
0000
0000
0000
0000
,
0000
0000
0000
0000
,
2000
0000
3001
0000
0000
0100
0001
0000
,
0002
0000
1003
0000
0000
0100
1000
0000
,
0020
0000
1030
0000
0000
0001
0100
0000
,
0020
0000
0031
0000
0000
1000
0100
0000
,
0110
0000
0001
0000
1000
0001
0100
0000
,
0001
0000
0010
0100
1000
0000
0100
0000
,
1000
0000
0010
0000
0100
0001
0100
0000
,
0001
0000
1000
0001
0100
0000
0010
0000
,
1001
0000
0010
0000
0100
0001
0100
0000
,
0001
0000
1000
0100
0010
0000
0100
0000
,
2000
3010
0002
0103
,
0002
0013
2000
3100
,
1001
0000
1000
0000
0001
1000
0100
0000
,
1000
0100
0010
0100
1000
0000
0100
0000
,
1000
0000
0001
0000
0100
0001
0100
0000
,
0001
0010
0100
0010
0001
0000
0010
0000
,
1001
0000
0010
0000
0100
0001
0100
0000
,
0001
1000
0100
1000
0001
0000
1000
0000
,
0100
1001
0010
1001
,
0100
0001
0100
0000
0010
1000
0001
1000
,
2001
0000
0000
0000
,
3002
0000
0000
0000
,
0023
0000
0000
0000
,
0230
0000
0000
0300
,
0210
0000
0000
0301
0000
0000
1000
0000
,
0100
1000
0110
0001
,
0200
0300
0001
0100
,
0020
1030
0002
0103
,
0002
0000
1003
0010
,
2000
3200
0320
0032
,
1003
0000
0001
0100
0000
0010
0000
0200
,
0000
0001
0010
1300
,
1002
0000
0000
1003
0000
1000
0100
0000
,
1000
0110
0001
0100
,
0002
0000
0013
0000
1000
0010
0100
0000
,
2000
3020
0230
0301
,
1001
0000
0100
0000
0001
0100
0001
0000
,
0002
0023
0230
2300
,
3010
0000
0100
0001
0000
1000
0000
0001
,
2000
0001
0010
3001
,
1002
0010
1000
0013
,
2001
0010
0001
3010
,
1001
0100
0110
0001
,
1001
0010
0110
1000
,
2002
0000
0000
3003
,
0100
0000
0100
0000
0100
0001
0010
0000
,
0010
0000
0010
0000
0010
0001
0100
0000
,
0001
0000
1000
0000
0001
1000
0100
0000
,
1000
0000
0001
1000
0010
0000
0100
0000
,
0010
1000
0010
1000
0010
0000
1000
0000
,
0001
0100
0001
0100
0001
0000
1000
0000
,
0001
0010
0001
0010
0001
0000
1000
0000
,
0001
0000
1000
0100
0001
0000
0100
0000
,
0110
0000
0001
0000
1000
0010
0100
0000
,
0020
1000
0100
0031
,
0100
0000
0010
0000
1000
0010
0100
0000
,
0002
0010
0100
1003
,
0001
0000
0001
0000
0010
0100
1000
0000
,
1000
0000
1000
0000
0010
0100
0001
0000
,
0100
0000
0100
0000
0010
1000
0001
0000
,
1000
0010
0100
0000
0001
0001
0010
0010
,
0002
0000
1003
0000
0001
0100
0001
0000
,
1000
0000
1000
0010
0100
0000
0010
0000
,
1000
0100
1000
0100
1000
0000
0001
0000
,
0100
0001
0100
0001
0100
0000
0010
0000
,
0100
0000
0100
0010
1000
0010
0000
0010
,
1000
0000
0010
0100
0001
0100
0000
0100
,
0001
1000
0001
1000
,
0001
0000
0010
0000
0100
0100
0010
0010
,
1002
0000
1003
0000
1000
0001
0100
0001
,
0020
0000
0031
0000
0001
0100
0001
1000
,
0010
1010
0101
1100
,
0011
0000
1000
0100
0002
0000
0103
0000
,
0020
0000
0130
0000
0010
1000
0100
1000
,
0002
0000
0103
0000
0001
0100
0010
1000
,
0001
2000
0000
3002
0000
0203
0000
0310
,
0100
0000
0110
0000
0001
1000
0100
1000
,
2002
0000
0000
0000
,
0000
0000
0000
0000
,
0000
0000
0000
0000
,
0000
0000
0000
3003
;

//---------------dance-single - ----------------
#NOTES:
     dance-single:
     :
     Hard:
     13:
     0.635,0.717,0.377,0.331,0.181: // measure 1
0000
0000
0000
0000
,  // measure 2
0000
0000
0000
0000
,  // measure 3
0000
0000
0000
0000
,  // measure 4
0000
0000
0000
0000
,  // measure 5
2000
0000
0000
0000
3100
0000
0000
0001
0100
0000
0001
0000
0010
0000
0000
0000
,  // measure 6
0002
0000
0000
0000
0103
0000
0000
1000
0100
0000
1000
0000
0010
0000
0000
0000
,  // measure 7
0200
0000
0000
0000
0310
0000
0000
1000
0001
0000
0100
0000
0001
0000
0000
0000
,  // measure 8
0020
0000
0000
0000
0130
0000
0000
1000
0001
0000
0110
0000
0000
0000
0110
0000
,  // measure 9
0001
1000
0100
0000
1000
0001
0100
0010
,  // measure 10
1000
0100
0010
0010
0100
1000
0001
0000
,  // measure 11
0010
0001
0100
0000
0010
1000
0100
0000
,  // measure 12
0010
1000
0001
0001
1000
0010
1000
0000
,  // measure 13
1001
0010
0100
0000
0001
0100
0010
0000
,  // measure 14
1000
0100
0010
0010
0100
1000
0001
0000
,  // measure 15
0100
0001
0200
0000
0310
1000
0020
0000
,  // measure 16
1030
0001
2000
0000
3001
1000
0001
0000
,  // measure 17
2001
0000
0000
0000
3010
0000
0000
1000
0100
0000
1000
0000
0010
0000
0000
0000
,  // measure 18
0100
0000
0100
0000
0001
0000
0000
0010
0001
0000
0100
0000
0001
0000
0000
0000
,  // measure 19
0020
0000
0000
0000
0130
0000
0000
0010
0001
0000
1000
0000
0010
0000
0000
0000
,  // measure 20
0100
0000
0100
0000
0010
0000
0000
1000
0001
0000
1000
0000
0110
0000
0000
0000
,  // measure 21
1001
0000
0010
0000
0100
0000
0000
0001
0100
0000
0001
0000
1000
0000
0000
0000
,  // measure 22
1001
0000
0100
0000
0010
0000
0000
1000
0100
0000
1000
0000
0001
0000
0000
0000
,  // measure 23
0110
0100
0001
0000
0110
0010
1000
0000
,  // measure 24
0010
1000
0100
0001
0100
1000
0010
0000
,  // measure 25
2002
0000
0000
0003
,  // measure 26
0002
0000
0000
3000
,  // measure 27
0200
0000
0000
0003
,  // measure 28
0020
0000
0000
0330
,  // measure 29
0110
1000
0010
0200
0000
0301
0010
0000
,  // measure 30
1000
0000
0100
0000
0010
0100
0000
0000
1100
0000
0000
0000
0110
0000
0000
0000
,  // measure 31
0012
0000
1003
0000
0001
0010
0100
1000
,  // measure 32
0200
1300
0020
0031
,  // measure 33
0010
0100
0001
0100
0001
1000
0010
1000
,  // measure 34
0002
0023
0230
2300
,  // measure 35
3010
0000
0010
1000
0000
0101
0000
0012
,  // measure 36
0000
0000
0003
0000
1000
0001
0000
0000
1000
0000
0000
0000
1001
0000
0000
0000
,  // measure 37
0110
0001
0010
0200
0000
1300
0010
0000
,  // measure 38
0100
0000
0001
0000
1000
0100
0000
0000
0110
0000
0000
0000
0011
0000
0000
0000
,  // measure 39
0101
0001
0100
0001
0010
0001
0100
0010
,  // measure 40
2000
3100
0200
0301
,  // measure 41
1001
0010
0100
0010
1000
0010
0100
0001
,  // measure 42
2000
3020
0230
0302
,  // measure 43
1003
0100
0010
0001
0000
0110
0000
1001
,  // measure 44
0010
0000
0100
0000
0001
1000
0000
0000
1001
0000
0000
0000
0110
0000
0100
0000
,  // measure 45
1001
0000
0000
0000
1000
0001
0000
0000
0110
0000
0000
0000
1001
0000
0100
0000
,  // measure 46
0101
0000
0000
0000
0001
0100
0000
0000
1010
0000
0000
0000
1001
0000
1000
0000
,  // measure 47
1001
0000
1000
0100
0000
0100
0010
0000
0010
0001
0000
0001
,  // measure 48
1000
0001
1000
0010
0100
0010
1000
0100
1000
0001
0100
0001
,  // measure 49
2000
0000
0000
3010
,  // measure 50
1001
0000
1001
0000
0001
0100
0001
0000
,  // measure 51
1000
0100
0010
0100
1000
0001
0100
0000
,  // measure 52
0010
1000
0010
0100
0001
0100
0001
0010
,  // measure 53
0001
0010
0100
1000
0100
0010
0001
0000
,  // measure 54
1000
0100
1000
0010
0100
0020
0000
1030
,  // measure 55
0001
0100
0001
0010
0001
0100
0001
1000
,  // measure 56
0001
0000
0000
1000
0100
0000
0000
0100
0010
0000
0000
0010
0001
0000
0000
0001
,  // measure 57
0010
0001
0010
0100
1000
0100
0010
0001
,  // measure 58
0110
0001
0100
0010
1000
0010
0100
0001
,  // measure 59
2000
0000
3010
0000
0001
0100
0001
0000
,  // measure 60
0001
0010
0100
1000
0001
0010
0100
1000
,  // measure 61
0001
0100
0010
1000
0001
0100
0010
1000
,  // measure 62
0002
0000
0103
0000
1000
0010
1000
0000
,  // measure 63
0001
0100
0001
1000
0010
1000
0001
0000
,  // measure 64
1000
0100
0010
0001
0010
0100
1000
0000
,  // measure 65
1001
0010
0100
0001
0101
0110
1010
0110
,  // measure 66
2001
0000
3001
0000
0001
0010
0001
1000
,  // measure 67
0001
0100
0010
0100
0001
1000
0001
0000
,  // measure 68
1000
0100
0010
0100
1000
0100
0010
0001
,  // measure 69
0100
0001
0001
1000
0001
1000
1000
0000
,  // measure 70
0001
0010
0010
0001
0100
0010
0010
0000
,  // measure 71
1000
0100
0100
1000
0010
0100
0100
0000
,  // measure 72
0001
0000
0000
0001
0100
0000
0000
0100
1000
0000
0000
1000
0100
0000
0000
0100
,  // measure 73
0001
0000
0000
0001
0010
0000
0000
0010
0001
0000
0101
0000
0110
0000
1010
0000
,  // measure 74
1001
0000
1002
0000
1003
0010
0100
0001
,  // measure 75
0200
0000
0310
0000
0010
1000
0001
1000
,  // measure 76
0001
0000
0000
0001
0010
0000
0000
0010
0001
0000
0000
0001
1000
0000
0000
1000
,  // measure 77
0010
0000
0000
0010
0100
0000
0001
0000
0100
0000
0100
0000
0010
0000
0000
0000
,  // measure 78
2001
0000
3001
0000
0001
0100
0010
0100
,  // measure 79
0002
0000
0103
0000
1000
0010
0100
0010
,  // measure 80
1000
0000
0002
0000
0000
0000
2003
0000
0000
0000
3000
0001
1000
0000
0000
1000
,  // measure 81
0001
0000
0001
0000
1000
0000
1000
0000
0010
0100
0000
0001
1000
0000
0001
0000
,  // measure 82
2002
0000
0000
0000
,  // measure 83
0000
0000
0000
0000
,  // measure 84
0000
0000
0000
0000
,  // measure 85
0000
0000
0000
3003
;

//---------------dance-single - ----------------
#NOTES:
     dance-single:
     :
     Challenge:
     17:
     0.880,0.913,0.438,0.254,0.626:
0000
0000
0000
0000
,
0000
0000
0000
0000
,
0000
0000
0000
0000
,
0000
0000
0000
0000
,
0001
0000
0100
0000
1010
0000
0000
1000
0100
0000
1000
0000
0011
0000
0000
0000
,
1000
0000
0100
0000
0011
0000
0000
0100
1000
0000
0100
0000
1000
0010
0000
0100
,
0001
0000
1000
0000
0110
0000
0000
0010
1000
0000
0001
0000
1001
0000
0000
0000
,
1000
0000
0100
0000
0011
0000
0000
0100
1000
0000
0110
0000
0001
0000
0110
0000
,
1001
0000
0010
0000
0100
0000
0001
0000
0100
0000
0100
0010
1000
0000
0010
0000
,
0100
0000
0001
0000
1000
0000
0001
0000
0010
0000
0001
0010
0100
0000
0010
0000
,
0001
0010
0001
0000
1000
0000
0100
0000
0010
0000
0100
0000
1000
0000
0010
0000
,
1000
0010
1000
0000
0001
0000
0100
0000
0010
0000
0100
0000
0001
0000
1000
0000
,
0001
0010
0100
0000
0010
0000
0001
0000
1000
0000
0010
0000
0100
0000
0001
0000
,
1000
0010
0100
0000
0010
0000
1000
0000
0001
0000
0100
0000
0001
0000
0010
0000
,
0100
0010
0001
0000
1000
0000
0100
0000
0010
0100
1000
0000
0010
0000
0100
0000
,
0010
0100
0001
0000
1000
0000
0001
0000
0100
0010
1000
0000
0001
0000
1000
0000
,
1001
0000
0010
1000
0010
0000
0100
0001
0000
0100
0001
0000
1000
0000
0100
0000
,
0010
0000
0001
0010
0001
0000
0100
1000
0000
0100
1000
0000
0100
0000
0001
0000
,
1000
0000
0100
0010
0001
0000
0100
0010
0000
0100
0010
0000
1000
0000
0001
0000
,
0010
0000
1000
0010
1000
0000
0010
0001
0000
0010
0001
0000
0010
0000
0100
0000
,
1001
0000
0001
0010
0100
0000
1000
0100
0000
0010
0001
0000
1000
0000
0001
0000
,
1001
0000
0010
0100
1000
0000
0100
0010
0000
0001
1000
0000
0010
0000
0100
0000
,
0010
1000
0010
1000
0001
0000
0100
0000
0001
1000
0001
1000
0010
0000
0100
0000
,
0001
0010
0100
1000
0001
0000
1000
0010
0100
0000
0001
1000
0001
1000
0010
0100
,
2002
0000
0000
3000
,
2000
0000
0000
0003
,
0020
0000
0000
3000
,
0200
0000
0000
0330
,
0110
0001
0010
0200
0000
1300
0010
0000
,
0100
0000
0001
0000
1000
0001
0000
0000
1001
0000
0000
0000
0101
0000
0000
0000
,
2100
0000
3001
0000
1000
0010
0100
0001
,
0020
0230
2300
3020
,
0031
0010
0100
1000
0001
0010
1000
0100
,
1000
0100
0010
0001
1000
0100
0001
0010
,
0110
0001
1000
0020
0000
2030
0000
3001
,
0100
0000
0001
0000
1000
0001
0000
0000
1001
0000
0000
0000
0110
0000
0000
0000
,
1010
1100
1001
0012
0000
1003
0010
0000
,
0100
0000
0001
0000
1000
0100
0000
0000
0110
0000
0000
0000
0011
0000
0000
0000
,
0201
0000
0301
0000
0001
0100
0010
1000
,
0200
2300
3020
0031
,
0110
1000
0010
0100
0001
1000
0100
0010
,
0001
0010
0100
0000
1000
0000
0100
0000
0010
0001
0100
0000
0001
0000
1000
0000
,
0110
0001
1000
0020
0000
0230
0000
0301
,
1000
0000
0100
0000
1000
0001
0000
0000
1001
0000
0000
0000
0110
0000
0010
0000
,
1001
0000
0010
0000
0001
0100
0000
0000
1010
0000
0000
0000
1100
0000
0100
0000
,
0101
0000
0010
0000
0001
0010
0000
0000
0011
0000
0000
0000
1001
0000
0001
0000
,
1001
0000
1000
0100
0000
0001
0100
0000
1000
0010
0000
0001
,
0010
0010
0010
0100
0100
0100
1000
1000
1000
0010
0100
0001
,
1001
0000
0010
0100
1000
0000
0100
0000
0010
0000
0001
0000
0100
0000
1000
0000
,
0110
0000
0001
1000
0001
0000
1000
0000
0010
0000
0100
0001
1000
0000
0001
0000
,
0010
0000
0100
0010
0001
0000
1000
0000
0100
0000
0010
0000
0001
0000
1000
0000
,
0100
0000
0100
1000
0010
0000
0100
0000
0001
0000
1000
0001
0100
0000
0001
0000
,
1000
0010
1000
0000
0001
0000
0100
0000
0001
0000
0010
0100
1000
0000
0000
0000
,
0100
0000
0100
0010
0001
0000
1000
0000
0100
0010
0001
0000
1000
0000
0100
0000
,
1000
0000
1000
0010
0100
0000
0001
0000
1000
0010
0100
0000
0001
0000
1000
0000
,
0001
0000
1000
0001
1000
0000
0010
0100
0010
0000
1000
0001
1000
0000
0001
1000
,
0001
0010
0100
0000
0010
0100
1000
0000
0100
0010
0001
0000
1000
0100
0010
0000
,
1001
0000
0010
1000
0010
0000
0100
0000
0001
0000
1000
0000
0001
0000
0010
0000
,
0001
0000
0001
0010
0100
0000
1000
0000
0100
0010
0100
0010
0001
0000
1000
0000
,
0010
0000
0010
0100
0001
0000
1000
0000
0010
1000
0100
0000
1000
0000
0010
0000
,
1000
0000
1000
0010
0100
0000
0010
0000
0100
0001
0100
0001
0010
0000
0001
0010
,
0001
0000
0001
1000
0001
0000
1000
0000
0010
1000
0010
1000
0100
0000
1000
0000
,
0001
0000
1000
0001
0010
0000
0001
0000
1000
0001
1000
0001
0100
0000
0001
1000
,
0010
0100
0010
0100
0001
0000
1000
0100
0010
0001
0100
0000
0001
0100
0010
1000
,
0001
0000
0100
0001
0010
0000
0100
1000
1010
0000
0101
0000
1100
0000
0011
0000
,
1001
0000
0000
0000
1002
0000
0000
0000
1003
0000
1000
0010
0100
0000
0001
0000
,
1000
0000
0010
1000
0001
0000
0100
0001
1000
0000
0001
1000
0010
0000
1000
0000
,
0001
0000
0001
0010
0100
0000
1000
0100
0010
0001
0100
0000
0001
0100
0010
1000
,
0001
0000
1000
0100
0001
0000
0100
1000
0010
1000
0001
0000
0100
0001
0010
0001
,
1000
0000
1000
0001
0100
0000
0001
1000
0010
1000
0001
0000
1000
0001
0100
0001
,
1000
0000
0001
0010
0100
0000
0010
0001
0010
0001
1000
0000
0010
1000
0010
1000
,
0100
0000
1000
0100
0010
0000
0010
0100
1000
0000
1000
0100
0010
0000
0010
0001
,
0100
0001
1000
0010
0100
0001
1000
0100
0010
0000
1100
0000
0110
0000
0011
0000
,
0101
0000
0000
0000
0102
0000
0000
0000
1003
0000
1000
0010
0100
0000
0010
0000
,
1020
0000
0000
0000
1030
0000
1000
0010
0100
0000
0010
0000
1000
0000
1000
0001
,
0100
0000
0001
0010
1000
0000
0001
0100
1000
0000
0001
0010
1000
0000
0001
1000
,
0001
0000
1000
0100
0010
0000
0100
1000
0100
1000
0010
0000
0100
0001
0100
0000
,
0210
0000
0000
0000
0301
0000
0100
0000
0010
0000
0010
1000
0100
0000
1000
0000
,
0200
0000
0000
0000
0310
0000
0001
0000
0010
0000
0001
0010
0100
0000
1000
0000
,
0010
0000
0200
0001
0000
0300
2000
0010
0000
3000
0002
1000
0000
0003
2000
0100
,
0010
3000
0001
0000
1001
0000
0001
0100
0010
1000
0000
0001
0100
0000
0010
1000
,
0110
0001
0100
0010
1000
0100
0010
0001
,
0020
0000
0130
1000
0010
1000
0001
0100
,
0001
1000
2100
0000
3010
1000
0002
0000
,
0103
0000
0010
0000
2000
0000
0000
0000
3010
0000
0010
0100
0001
0000
1000
0000
;
