#TITLE:DEADLOCK;
#SUBTITLE:;
#ARTIST:MAX MAXIMIZER;
#TITLETRANSLIT:;
#SUBTITLETRANSLIT:;
#ARTISTTRANSLIT:;
#GENRE:;
#CREDIT:;
#MENUCOLOR:;
#METERTYPE:DDR;
#BANNER:DEADLOCK.png;
#BACKGROUND:DEADLOCK-bg.png;
#LYRICSPATH:;
#CDTITLE:./CDTITLES/REFLEC BEAT.PNG;
#MUSIC:DEADLOCK.mp3;
#OFFSET:-0.743;
#SAMPLESTART:63.640;
#SAMPLELENGTH:14.980;
#SELECTABLE:YES;
#LISTSORT:;
#BPMS:0.000=187.000,12.000=93.500,14.000=187.000,26.000=93.500,28.000=187.000,124.000=93.500,140.000=187.000,172.000=93.500,174.000=187.000,214.000=93.500,218.000=187.000,266.000=93.500;
#STOPS:;
#BGCHANGES:;
#ATTACKS:;

//---------------dance-single - ----------------
#NOTES:
     dance-single:
     :
     Beginner:
     2:
     0.116,0.128,0.009,0.000,0.000:
0000
0000
0000
0000
,
0000
0000
0000
0000
,
0000
0000
0000
0000
,
0000
0000
1000
0000
,
0000
0000
0001
0000
,
0000
0000
0100
0000
,
0000
0000
0010
0000
,
1000
0000
0000
0000
,
0001
0000
0000
0000
,
0010
0000
0000
0000
,
0001
0000
0000
0000
,
1000
0000
0000
0000
,
0010
0000
0000
0000
,
0100
0000
0000
0000
,
0010
0000
0000
0000
,
0100
0000
0100
0000
,
0100
0000
0000
0000
,
0001
0000
0001
0000
,
0001
0000
0000
0000
,
1000
0000
1000
0000
,
1000
0000
0000
0000
,
0010
0000
0010
0000
,
0010
0000
0000
0000
,
0100
0000
0000
0100
,
0100
0000
0000
0000
,
0010
0000
0000
0010
,
0010
0000
0000
0000
,
1000
0000
0000
1000
,
1000
0000
0000
0000
,
0001
0000
0000
0001
,
0001
0000
0000
0000
,
1000
0000
0000
0000
,
0001
0000
0000
0000
,
0100
0000
0000
0000
,
0010
0000
0000
0000
,
1000
0000
1000
0000
,
1000
0000
0000
0000
,
0001
0000
0001
0000
,
0001
0000
0000
0000
,
0010
0000
0010
0000
,
0010
0000
0000
0000
,
0100
0000
0100
0000
,
0100
0000
0000
0000
,
1000
0000
0001
0000
,
0000
0001
0001
0000
,
0000
0000
1000
0000
,
0000
1000
1000
0000
,
0000
0000
0010
0000
,
0000
0010
0010
0000
,
0000
0000
0100
0000
,
0000
0100
0100
0000
,
0000
0000
0001
0000
,
0000
1000
1000
0000
,
0000
0000
0001
0000
,
0010
0010
0010
0000
,
0000
0000
0100
0000
,
0000
0000
0010
0000
,
0001
0000
1000
0000
,
0100
0000
1000
0000
,
0000
0000
0000
0000
,
0000
0000
0010
0000
,
0000
0000
0000
0000
,
0000
0000
0100
0000
,
0000
0000
0000
0000
,
0000
0000
0001
0000
,
0000
0000
0000
0000
,
0000
0000
1000
0000
,
0001
0000
1000
0000
,
0001
0000
0110
0000
;

//---------------dance-single - ----------------
#NOTES:
     dance-single:
     :
     Easy:
     7:
     0.344,0.395,0.280,0.187,0.000:
0000
0000
0000
0000
,
0000
0000
0000
0000
,
0000
0000
0000
0000
,
0000
0000
0001
0010
,
0100
1000
0001
0010
,
0001
1100
0001
0010
,
0100
0000
1000
0000
0002
0000
0000
1003
,
1001
0000
0010
0000
,
1000
0100
0010
0001
,
0011
0000
0100
0000
,
0010
1000
0001
0001
,
1001
0000
1000
0000
,
0100
0010
0100
0000
,
1100
0000
0010
0000
,
0001
0100
0020
0030
,
0100
0100
0010
0010
,
1000
1000
0001
1000
,
1001
0001
0010
0010
,
0100
0100
1000
0100
,
1001
0100
0010
1000
,
0010
0010
1000
1000
,
1001
0010
0001
1000
,
0100
0100
0010
0010
,
1100
0001
0100
1000
,
0010
1000
0001
0100
,
0101
1000
0100
0001
,
0010
1000
0010
0100
,
1010
0001
0010
0100
,
0010
0001
0100
1000
,
0011
1000
0010
0001
,
0010
0010
0100
0100
,
0002
0000
0000
0003
,
2000
0000
0000
3000
,
0020
0000
0000
0030
,
0200
0000
0000
0300
,
1100
0100
0010
0100
,
1000
0100
0010
0001
,
0101
0100
0010
0100
,
0001
0100
0010
1000
,
1010
0010
0100
0001
,
0010
0001
0100
1000
,
0011
0010
0100
0010
,
1000
0100
0001
0100
,
2001
0000
3001
0000
1000
0000
0000
0010
,
0000
0000
1000
0000
0000
0100
0000
0000
,
0010
0000
0001
0000
0100
0000
0000
0010
,
0000
0100
0001
1001
,
1000
0000
1001
0000
0010
0000
0000
1000
,
0000
0000
0001
0000
0000
0100
0000
0000
,
0001
0000
0101
0000
0100
0000
0000
0010
,
0000
1000
0100
0010
,
0100
0000
1000
0000
0001
0000
0000
1000
,
0000
0000
0010
0000
0000
1010
0000
0000
,
1000
0100
0020
0000
,
0001
0000
0031
0000
1001
0000
0000
0100
,
0000
0100
0000
0000
1001
0000
0000
0010
,
0000
0010
0000
0000
1100
0000
0000
0000
,
0101
0000
1010
0000
,
0011
0000
2000
0000
,
0001
0001
0010
0000
,
3001
0000
0002
0000
,
0010
0010
1000
0000
,
0103
0000
0020
0000
,
0100
0100
0001
0000
,
0130
0000
0200
0000
,
0010
0010
1000
0000
,
0310
0000
2002
3003
,
0220
0330
0020
0030
,
0200
0300
2002
0000
,
0000
0000
0000
0000
,
0000
0000
3003
0000
;

//---------------dance-single - ----------------
#NOTES:
     dance-single:
     :
     Medium:
     10:
     0.493,0.526,0.215,0.233,0.042:
0000
0000
0000
0000
,
0000
0000
0000
0000
,
0000
0000
0000
0000
,
0000
0000
0000
0000
1001
0000
0010
1000
,
0010
0000
0100
0001
0100
0000
0001
1000
,
0100
0010
0100
0000
1100
0000
0100
0010
,
0001
0000
0100
0000
0020
0000
0000
0130
,
0110
0002
0103
1000
,
0100
0000
0010
0001
0100
0000
0110
0000
,
1001
0002
0013
0100
,
1000
0000
0010
0100
0001
0000
1000
0000
,
1001
0020
0031
1000
,
0100
0000
0010
0001
0000
0011
0000
0000
,
1100
0200
0310
0100
,
1000
0000
0000
0001
0000
0000
2000
0000
0000
0000
0000
0000
3001
0000
0000
0000
,
0001
0100
0001
0000
1000
0100
1000
0000
,
0001
0010
0001
0000
1000
0010
1000
0000
,
0001
0100
0010
0000
1000
0100
0010
0000
,
0100
1000
0010
0000
0100
0000
0110
0000
,
0001
0100
0010
0000
1000
0100
0010
0000
,
0001
1000
0100
0000
1000
0001
0010
0000
,
0001
1000
0001
0000
1000
0001
1000
0000
,
0010
0010
0010
0000
0100
0100
0100
0000
,
0110
0000
0001
0100
0010
1000
0100
0000
,
1000
0000
0100
0010
0001
0000
0110
0000
,
1001
0000
0001
1000
0010
1000
0001
0000
,
1000
0000
0001
0100
0010
0000
0100
0000
,
0110
0000
1000
0010
0001
0010
1000
0000
,
0001
0000
0010
0001
0010
0000
0110
0000
,
0100
0000
0001
0100
1000
0000
1001
0000
,
0100
1000
0100
1000
0010
0001
0010
0001
,
0020
0000
0000
0030
,
0200
0000
0000
0300
,
0002
0000
0000
0003
,
2000
0000
0000
3000
,
1001
0000
0100
0001
0100
0000
0010
0000
,
1000
0000
0100
1000
0100
0000
0010
0000
,
0001
0000
0100
0010
0100
0000
0010
0000
,
1000
0000
0100
0010
0100
0000
0010
0000
,
0001
0100
0010
1000
0100
0010
0100
0000
,
1000
0100
0010
0001
0100
0010
0100
0000
,
0001
1000
0010
1000
0001
1000
0100
0000
,
1000
0001
0010
0001
1000
0001
0100
0000
,
0210
0000
0301
0000
0100
0100
0000
0001
,
0001
0000
1000
1000
0000
0010
0010
0000
,
1000
0100
0001
0000
0100
0100
0000
1000
,
1000
0000
0010
0010
0100
0000
0110
0000
,
0001
0000
1001
0000
0001
0001
0000
0010
,
0010
0000
1000
1000
0000
0010
0010
0000
,
0001
0100
0010
0000
1000
1000
0000
0100
,
0100
0000
0000
0000
0001
0000
0100
0000
1000
0000
0000
0010
0000
0000
0100
0000
,
0001
0000
0000
1000
0000
0000
0001
0000
1000
0000
1000
0000
0000
0000
0001
0000
,
0001
0000
0100
0100
0000
0010
0010
0000
,
0100
0001
1000
0000
0220
0000
0330
0000
,
0001
0000
0000
0000
1000
0000
0000
0000
0001
0000
0000
0000
0100
0000
0000
0000
0010
0000
0000
0000
0100
0000
0000
0000
0010
0000
0000
0000
0000
0000
0000
0000
0000
0010
0000
0000
0000
0000
0000
0000
0000
0000
0010
0000
0000
0000
0000
0000
,
1000
0000
0100
0000
0001
0000
0000
0000
0100
0000
0000
0100
0000
0000
0100
0000
,
1000
0010
0001
0000
0010
1000
0010
1000
,
0100
0001
0100
0001
0100
0010
0100
0010
,
0001
1000
0001
0000
0002
0000
1000
0000
,
0010
1000
0100
0000
,
1000
1003
2000
0010
,
0001
0100
3001
0000
,
0010
0010
0010
0000
0200
0000
0001
0000
,
0010
0000
1000
0000
0010
0000
0000
0301
,
0000
0001
0000
0000
0020
0000
1000
0000
,
0001
0100
0001
0000
,
1030
0000
2002
3003
,
0220
0330
0020
0030
,
0200
0300
2002
0000
,
0000
0000
0000
0000
,
0000
0000
3003
0000
;

//---------------dance-single - ----------------
#NOTES:
     dance-single:
     :
     Hard:
     13:
     0.609,0.625,0.429,0.196,0.047:
0000
0000
0000
0000
,
0000
0000
0000
0000
,
0000
0000
0000
0000
,
0000
0000
0000
0000
1001
0000
0010
1000
,
0010
1000
0001
0100
0010
1000
0010
1000
,
0001
0100
0010
0100
0001
0000
0010
0100
,
1000
0100
0010
0001
2000
0000
0000
3010
,
0110
0000
0001
0100
0010
0000
1000
0100
,
0010
0000
0100
1000
0002
0000
2003
0000
,
3001
0000
0010
0001
0100
0000
0010
1000
,
0100
0000
0010
0100
1000
1000
0001
0001
,
0110
0000
0010
0100
0001
0000
0010
0001
,
1000
0000
0100
1000
0000
1100
0000
0000
,
0110
0000
0001
0100
0010
0000
1000
0000
,
0001
0000
1000
0210
0000
0000
0310
0000
,
1000
0010
1000
0010
1000
0100
1000
0100
,
0010
0001
0010
0001
0100
0001
1000
0001
,
0010
0001
0010
0001
1000
0100
1000
0100
,
1000
0010
0100
0001
0100
0010
0110
0000
,
0001
0010
0001
0010
0100
1000
0100
1000
,
0010
0100
0010
0100
0001
1000
0001
1000
,
0100
0010
0100
0010
0100
1000
0100
1000
,
0001
0001
0001
0001
1000
1000
1000
1000
,
0110
1010
0011
1100
,
0101
0000
1000
0100
0001
0100
1000
0000
,
0110
0011
1010
0110
,
1001
0000
0001
0100
1000
0100
0001
0000
,
0110
1001
1100
0011
,
1001
0000
1000
0010
0001
0010
1000
0000
,
0110
1001
1100
1001
,
0001
0001
0001
0001
1000
1000
1000
1000
,
0020
0000
0000
0030
,
0200
0000
0000
0300
,
0002
0000
0000
0003
,
2000
0000
0000
3000
,
1001
0000
0001
0010
0100
0010
0001
0000
,
1001
0000
0010
1000
0100
1000
0010
0000
,
1001
0000
1000
0100
0010
0100
1000
0000
,
1001
0000
0010
0001
0100
0001
0010
0000
,
1000
0100
0010
0100
1000
0100
0001
0000
,
0001
0100
0010
0100
0001
0100
1000
0000
,
1000
0010
0100
0010
1000
0010
0001
0000
,
0001
0010
0100
0010
0001
0010
1000
0000
,
2001
0000
3020
0000
0130
0100
0100
0001
,
0001
0001
0010
0010
0010
1000
1000
1000
,
0010
0000
0110
0000
0100
0100
0100
1000
,
1000
0000
1000
0000
0010
0000
0010
0000
1000
0000
0000
1001
0000
0000
0100
0000
,
0000
1001
0000
0000
0010
0000
1000
0000
0001
0000
0001
0000
0001
0000
0010
0000
,
0010
0010
1000
1000
1000
0100
0100
0100
,
1000
0000
1100
0000
1000
1000
1000
0010
,
0010
0000
0010
0000
0001
0000
0001
0000
0100
0000
0000
0110
0000
0000
1000
0000
,
0001
0000
0000
1001
0000
0000
0110
0000
1001
0000
0001
0000
0001
0000
0010
0000
,
0010
0010
1000
1000
1000
0100
0100
0100
,
1000
0010
0100
0001
2000
0000
0000
0000
,
0001
0000
0000
0000
0001
0000
0000
0000
0001
0000
0000
0000
0100
0000
0000
0000
0010
0000
0000
0000
3001
0000
0000
0000
1000
0000
0000
0000
0000
0000
0000
0000
0000
1010
0000
0000
0000
0000
0000
0000
0000
0000
0001
0000
0000
0000
0000
0000
,
0100
0000
0001
0000
0010
0000
0001
0000
0010
0000
0000
0011
0000
0000
0100
0000
,
1000
0010
1000
0001
1000
1000
1000
1000
,
0100
0100
0100
0100
0001
0001
0001
0001
,
0010
0010
0010
0010
2000
0000
0001
0001
,
0100
0000
0001
0000
0010
0000
3010
0100
,
0010
0000
0110
0000
0002
0000
1000
1000
,
0010
0000
1000
0000
0100
0000
1003
0100
,
0010
0100
1000
0001
1020
0000
1000
1000
,
0100
0000
1000
0000
0001
0000
0130
0001
,
0000
0101
0000
0000
1200
0000
0001
0001
,
0010
1000
0010
0001
,
1300
0001
1000
0001
0020
0000
0000
0130
,
0200
0000
0000
1300
2000
0000
0000
3001
,
0002
0000
0000
1003
2002
0000
0000
0000
,
0000
0000
0000
0000
,
0000
0000
3003
0000
;

//---------------dance-single - ----------------
#NOTES:
     dance-single:
     :
     Challenge:
     18:
     1.000,1.000,0.457,0.140,1.000: // measure 1
0000
0000
0000
0000
,  // measure 2
0000
0000
0000
0000
,  // measure 3
0000
0000
0000
0000
,  // measure 4
0000
0000
0000
0000
0000
0000
0000
0000
0001
0000
1000
0000
0001
0100
0001
0100
,  // measure 5
0010
0000
1000
0000
0100
0010
0100
0010
0001
0000
1000
0000
0100
1000
0100
1000
,  // measure 6
0010
0000
0100
0000
0001
1000
0001
1000
0001
0000
0010
0000
0001
0000
1000
0100
,  // measure 7
0010
0000
0100
1000
0001
0000
0100
0010
2000
0000
0000
0000
0000
0000
3010
0000
,  // measure 8
0110
0000
0001
0100
0001
0100
0010
0000
1000
0000
0100
0000
0010
0001
0100
0000
,  // measure 9
0001
0000
1000
0001
0010
0000
0001
0000
0100
0000
0000
0000
0110
0000
0000
0000
,  // measure 10
1010
0000
0001
0000
0100
0001
0100
0001
0010
0000
0100
0000
1000
0000
0100
0000
,  // measure 11
0010
0001
1000
0000
0001
0000
0100
0000
0010
0000
1000
0000
0001
0000
1000
0000
,  // measure 12
1001
0000
1000
0000
0100
0010
0100
0010
0001
0000
0100
0000
0001
1000
0100
0000
,  // measure 13
0010
0000
0100
0010
0001
0000
0100
0000
0010
0000
1000
0000
0000
0000
0000
0000
,  // measure 14
0011
0000
0100
0000
0010
0000
1000
0001
0100
0000
0001
0000
1000
0001
1000
0000
,  // measure 15
0010
0000
0110
1002
0000
0000
1003
0000
,  // measure 16
0010
0000
1000
0010
1000
0000
0100
0001
0100
0000
1000
0010
1000
0000
0001
0010
,  // measure 17
0001
0000
1000
0100
1000
0000
0001
0100
0001
0000
0100
0010
0100
0000
0010
1000
,  // measure 18
0001
0000
0010
0001
0010
0000
0001
0100
0001
0000
1000
0100
1000
0000
0010
1000
,  // measure 19
0010
0000
0100
0010
0100
0000
0001
1000
0001
0000
1000
0000
0100
0000
0000
0000
,  // measure 20
0010
0000
0100
1000
0100
0000
0010
0001
0010
0000
0001
0100
0001
0000
1000
0100
,  // measure 21
1000
0000
0010
1000
0010
0000
0100
0001
0100
0000
0001
1000
0001
0000
0010
0001
,  // measure 22
0010
0000
0001
0010
0001
0000
1000
0100
1000
0000
0001
1000
0001
0000
1000
0010
,  // measure 23
1000
1010
1010
1010
0001
0101
0101
0101
,  // measure 24
1000
0100
0010
0100
0010
0001
0100
0010
1000
0010
0100
0001
,  // measure 25
1000
0100
0010
0100
1000
0010
0001
0010
1000
0100
0001
0100
,  // measure 26
1000
0001
1000
0010
0100
0010
1000
0010
1000
0001
0010
0001
,  // measure 27
1000
0100
0001
0100
1000
0010
0001
0010
1000
0001
0000
0000
,  // measure 28
0001
0010
0001
0100
0010
0100
0010
1000
0010
1000
0100
1000
,  // measure 29
0001
0100
1000
0100
0001
0010
1000
0010
0001
0100
0010
0100
,  // measure 30
0001
1000
0001
0100
0010
1000
0100
0010
0001
0010
0100
1000
,  // measure 31
0001
1001
1001
1001
0010
0110
0110
0110
,  // measure 32
0002
0000
0103
0001
0000
0001
0100
0000
0001
0000
1000
0100
0010
0001
0100
0000
,  // measure 33
0020
0000
1030
0010
0000
0010
1000
0000
0001
0000
1000
0001
0100
0010
0100
0000
,  // measure 34
0020
0000
1030
0100
0000
1000
0001
0000
0100
0000
0001
0010
0100
1000
0001
0000
,  // measure 35
0200
0000
0310
0100
0000
0100
0001
0000
2000
0000
3001
1000
0000
1000
0001
0000
,  // measure 36
1100
0000
0100
0010
0001
0000
0100
0000
0010
0000
0100
0000
0101
0000
0000
0000
,  // measure 37
0101
0000
0100
0010
1000
0000
0010
0000
1000
0000
0100
0000
1100
0000
0000
0000
,  // measure 38
1010
0000
0010
1000
0100
0000
1000
0000
0001
0000
1000
0000
1001
0000
0000
0000
,  // measure 39
0011
0000
0010
0001
1000
0000
0001
0000
0100
0000
0010
0000
0110
0000
0000
0000
,  // measure 40
0001
0100
0001
0000
0100
0001
0010
0100
1000
0000
0100
0000
1100
0000
0000
0000
,  // measure 41
1000
0100
1000
0000
0100
1000
0100
0010
0001
0000
0100
0000
0101
0000
0000
0000
,  // measure 42
0010
1000
0010
0000
0100
0001
1000
0001
0010
0000
0100
0000
0110
0000
0000
0000
,  // measure 43
0010
0010
0001
0001
1000
1000
0010
0010
,  // measure 44
0200
0000
0000
0000
0000
0000
0000
0000
0310
0100
0010
0100
0010
0000
0000
0000
0100
0000
0001
0000
0100
0000
0001
0000
0010
0000
0000
0000
0100
0000
1000
0000
,  // measure 45
0100
1000
0010
0000
0100
0001
0100
0001
0010
0000
0100
1000
0001
1000
0001
0000
,  // measure 46
0001
0100
0010
1000
0001
0100
0010
1000
0001
0010
0001
0010
0100
0000
1000
0010
,  // measure 47
1000
0010
0100
0000
0001
0010
0001
0010
0001
0000
1000
0001
0100
0000
0001
0000
,  // measure 48
1001
0000
0001
1000
0010
0000
0100
0000
0010
1000
0010
1000
0100
0000
0010
0001
,  // measure 49
0010
0001
1000
0000
0001
0100
0001
0100
0010
0000
1000
0100
1000
0100
0010
0000
,  // measure 50
0001
0010
0100
1000
0001
0010
0100
1000
0010
0100
0010
0100
0001
0000
1000
0100
,  // measure 51
1000
0100
0010
0000
0100
1000
0100
1000
0001
0000
0100
0001
0000
1000
0100
0000
,  // measure 52
1000
0001
0000
0100
0001
0000
1000
0000
0010
1000
0010
1000
0001
0000
0010
0001
,  // measure 53
0010
0001
1000
0000
0100
1000
0100
1000
0010
0000
0100
0001
0100
0001
0010
0000
,  // measure 54
0001
0100
0010
1000
0001
0100
0010
1000
0002
1000
1003
0010
0100
0100
0001
1000
,  // measure 55
0001
0000
0000
0000
1001
0000
0000
0000
1100
0000
0000
0000
1001
0000
0000
0000
0011
0000
0000
0000
1001
0000
0000
0000
0110
0000
0000
0000
0000
0000
0010
0000
0000
0100
0000
0000
0000
0000
0000
0100
0000
0000
0001
0000
0000
0000
0000
0000
,  // measure 56
1000
0100
0000
0100
0010
0000
0100
0000
1100
0000
0100
0010
0000
0010
0001
0000
,  // measure 57
0100
0001
0000
0001
0010
0000
0001
0000
0100
0000
0001
0100
0001
0000
0001
0000
,  // measure 58
1000
0000
0100
1000
0100
0000
0100
0000
1000
0000
0010
1000
0010
0000
0010
0000
,  // measure 59
1000
0000
0001
1000
0001
0000
0001
0000
1001
0000
0001
0000
0100
0001
0100
0001
,  // measure 60
0010
0000
0100
1000
0001
0000
1000
0001
0100
0000
0001
1000
0010
0000
0100
0000
,  // measure 61
0110
0000
0000
0000
0101
0000
0000
0000
1100
0000
0100
0000
1000
0010
1000
0010
,  // measure 62
0001
0000
0010
0000
1000
0000
0100
0010
0001
0000
0100
0010
1000
0000
0001
0100
,  // measure 63
0010
0000
0100
0000
0001
0000
0001
0000
1001
0000
0001
0000
0010
0001
0010
0001
,  // measure 64
0100
0000
0001
0000
1000
0100
0010
0000
0100
0000
0001
1000
0100
0000
1000
0001
,  // measure 65
1000
0000
0001
0000
0000
0000
0000
0000
1001
0000
0010
0000
0100
0010
0100
0010
,  // measure 66
1000
0000
0001
0000
1000
0100
1000
0100
0010
0000
0001
0100
0010
0000
1000
0001
,  // measure 67
0100
0001
1000
0001
2001
0000
0000
3010
,  // measure 68
0210
0000
0000
0000
0300
0000
0001
0100
0001
0000
1000
0000
0001
0000
1000
0000
2001
0000
0000
0000
0000
0000
0000
0000
0000
0000
0000
0000
3010
0000
0000
0000
,  // measure 69
0120
0000
0000
0000
1030
0001
1000
0001
2002
0000
0000
0000
0000
0000
0000
0000
,  // measure 70
0000
0000
0000
0000
,  // measure 71
0000
0000
3003
0000
;
