#TITLE:Agnus Dei;
#SUBTITLE:;
#ARTIST:あさき;
#TITLETRANSLIT:;
#SUBTITLETRANSLIT:;
#ARTISTTRANSLIT:Asaki;
#GENRE:;
#CREDIT:;
#MENUCOLOR:;
#METERTYPE:DDR;
#BANNER:Agnus Dei.png;
#BACKGROUND:Agnus Dei-bg.png;
#LYRICSPATH:;
#CDTITLE:./CDTITLES/GUITAR FREAKS & DRUMMANIA.PNG;
#MUSIC:Agnus Dei.mp3;
#OFFSET:-0.255;
#SAMPLESTART:71.754;
#SAMPLELENGTH:15.000;
#SELECTABLE:YES;
#LISTSORT:;
#DISPLAYBPM:70.000:168.000;
#BPMS:0.000=168.000,16.000=150.000,18.000=70.000,20.000=168.000,193.000=150.000,197.000=168.000,277.000=160.000;
#STOPS:;
#BGCHANGES:0.000=Agnus Dei.avi=1.000=1=1=0,
99999=-nosongbg-=1.000=0=0=0 // don't automatically add -songbackground-
;
#ATTACKS:;

//---------------dance-single - ----------------
#NOTES:
     dance-single:
     :
     Beginner:
     3:
     0.145,0.202,0.101,0.000,0.000:
0000
0000
0000
0000
,
0000
0000
0000
0000
,
0000
0000
0000
0000
,
0000
0000
0000
0000
,
0000
0000
0000
0000
,
1000
0000
0001
0000
,
1000
0000
0010
0000
,
0100
0000
0000
0000
,
1001
0000
0000
0000
,
0001
0000
1000
0000
,
0010
0000
0100
0000
,
0001
0000
0000
0000
,
1001
0000
0000
0000
,
1000
0000
1000
0000
,
0001
0000
0001
0000
,
0010
0000
0010
0000
,
0100
0000
0000
0001
,
0000
1000
0000
0001
,
0001
0000
0000
0000
,
1000
0000
0000
1001
,
0000
0000
0000
0010
,
0000
0100
0000
0000
,
0100
0100
0000
0000
,
0010
0000
0000
0000
,
1000
0000
0000
0000
,
0001
0000
0001
0000
,
0001
0000
0001
0000
,
1000
0000
0010
0000
,
0010
0000
0100
0000
,
0001
0001
0001
0000
,
0000
1000
0000
0000
,
0000
0010
0000
0010
,
0000
0010
0000
0010
,
0000
0100
0000
0000
,
0000
1001
0000
0000
,
0010
0000
0000
0100
,
0000
0000
0000
0000
,
0000
1000
1000
0000
,
0010
0010
0000
0100
,
0000
0000
0001
0000
,
0000
1000
0000
0000
,
0000
0001
0000
0000
,
0000
1000
0000
0000
,
0000
0001
0000
0000
,
0000
0010
0000
0000
,
0000
0100
0000
0001
,
0000
1000
0000
0000
,
0000
0001
0000
0000
,
0000
1001
0000
0000
,
0000
1000
0000
0000
,
0001
0001
0001
0000
,
0000
0000
1000
0000
,
0000
0010
0000
0000
,
0100
0100
0100
0000
,
0000
0000
0010
0000
,
0000
1000
0000
0000
,
0001
0000
0000
1000
,
1000
1000
0000
0000
,
0000
0001
0000
0000
,
0010
0000
0000
0100
,
0000
0000
1000
0000
,
0000
0000
1001
0000
,
0000
1001
0000
0000
,
1001
0000
0010
0010
,
0000
0000
0100
0000
,
0000
0001
0000
0000
,
1000
0000
0000
0001
,
0000
1001
0000
0000
,
0000
0000
0000
0000
,
0000
1001
0000
0000
,
0000
0000
0000
1000
,
0000
0000
0000
0000
,
0000
0000
0000
0000
,
0000
0110
0000
0000
;

//---------------dance-single - ----------------
#NOTES:
     dance-single:
     :
     Easy:
     7:
     0.434,0.581,0.387,0.405,0.000:
0000
0000
0000
0000
,
0000
0000
0000
0000
,
0000
0000
0000
0000
,
0000
0000
0000
0000
,
0000
0000
0000
0000
,
2002
3003
0010
0100
,
0002
0003
0020
0030
,
0100
1000
0010
0001
,
0220
0330
2002
3003
,
0022
0033
1000
0100
,
1000
0001
0100
0010
,
1000
0001
0010
0001
,
0220
0000
0000
0330
,
1000
1000
0001
1000
,
0001
0001
0010
0100
,
1000
0100
0010
0001
,
1000
0010
1001
0100
,
0001
0100
1000
0010
,
1000
0001
0010
0001
,
1000
0000
0010
0000
0100
0000
0001
1000
,
0000
0001
0000
1000
0000
0100
0000
0010
,
0000
0001
0000
0100
0000
0010
0000
1000
,
0020
0130
0001
1000
,
0002
1003
0100
0010
,
0200
0000
0000
0000
0300
0000
0001
1000
,
0000
0010
0000
1000
0000
0100
0000
0001
,
0000
0100
0000
1000
0000
0001
0000
1000
,
0000
0001
0001
0001
2000
0000
3000
0000
,
0020
0230
0000
0301
,
0010
0110
1001
1000
,
0010
0000
0210
0000
0000
0310
0000
0000
,
0001
0000
1000
0001
0000
0010
0000
1000
,
0000
0010
0000
0001
0000
0100
0000
1000
,
0000
0001
2000
0000
3001
0001
0000
0000
,
1001
0100
0100
0100
,
0001
0010
1000
0010
,
0001
1000
0100
0001
,
0100
2001
3020
0032
,
0023
2030
3200
0302
,
0203
2300
3002
2003
,
3002
1003
1000
1000
,
0001
0100
0010
0110
,
0001
1000
1001
0001
,
0010
0110
0001
1000
,
0100
0010
0110
1000
,
1000
0001
0001
0100
,
0010
1001
0010
0100
,
0001
1000
0001
1000
,
0001
2002
0000
0000
,
3003
0010
0010
0010
,
0110
0110
0110
0001
,
0001
0001
2000
3020
,
0230
0301
1000
0001
,
1001
1001
1001
1000
,
0100
0010
0001
0010
,
0200
0310
0010
0010
,
0001
0001
0001
0110
,
0110
0110
1001
0010
,
0100
1001
1000
1000
,
0001
0001
0001
0010
,
0001
1000
1100
0001
,
0100
1010
1010
1010
,
0011
0011
0011
1100
,
0100
0100
1001
0010
,
0100
1001
1000
1000
,
1001
0001
0001
0010
,
0001
1000
0100
1000
,
0010
0100
0001
1000
,
0001
1000
0000
0000
0000
0000
0000
0000
,
0000
2002
0000
0000
,
0000
0000
3003
0220
,
0000
0000
0000
0000
,
0000
0330
0000
0000
,
0000
2020
0000
0000
,
0000
3030
0000
0000
;

//---------------dance-single - ----------------
#NOTES:
     dance-single:
     :
     Medium:
     10:
     0.558,0.581,0.295,0.322,0.000:
0000
0000
0000
0000
,
0000
0000
0000
0000
,
0000
0000
0000
0000
,
0000
0000
0000
0000
,
0000
0000
0000
0000
,
2001
0000
0000
0000
3010
0000
0100
0001
,
0020
0000
0230
0000
,
0310
0000
0001
0010
0100
0000
1000
0000
,
1002
0000
0203
0000
,
0320
0000
0000
0000
1030
0000
0001
0100
,
0000
0001
0010
0000
0100
1000
0000
0010
,
0100
0000
0001
1000
0001
0000
1000
0000
,
2002
0000
0000
3003
,
0010
0000
0010
0100
0001
0000
0001
0000
,
1000
0000
0001
0010
0100
0000
1000
0000
,
0100
0010
0001
1000
,
0001
0001
1000
1000
0001
0000
1000
0000
,
0010
0000
0100
0001
0100
0000
0001
0000
,
2000
0000
3010
0000
0100
0001
0100
0000
,
0002
0000
1003
0000
0001
0010
0100
0010
,
0000
0001
0100
0001
0000
1000
0010
1000
,
0000
0001
1000
0100
0010
0100
0001
0100
,
0002
1003
1010
0210
,
0301
0100
1000
0000
0010
0100
0001
1000
,
0001
1000
0002
0000
0000
0000
1003
1000
,
0010
0100
0001
0001
0010
0100
1000
1000
,
0010
0100
0001
0001
0010
1000
0010
0010
,
0001
0001
1000
1000
0002
0000
0013
0000
,
0200
0000
2300
0000
3010
0100
0001
1000
,
0001
0010
0100
0000
0210
0000
0301
0100
,
1000
0100
0002
0000
1003
0010
0000
0100
,
0001
1000
0001
1000
0000
0010
1000
0010
,
0000
0100
0001
1000
0000
0010
0100
0001
,
0010
0100
0002
0000
1000
1003
0000
1000
,
0010
0100
1001
0100
0001
0100
0001
0000
,
1000
0010
0100
0000
0001
1000
0100
0000
,
1000
0010
0001
0000
0100
1000
0001
1000
,
0001
0010
0001
0001
0100
0100
1000
1000
,
0100
0100
0001
0001
0010
0010
1000
1000
,
0010
0010
0001
0001
2000
0000
3002
0000
,
2003
0000
3001
0000
1000
0000
0001
0100
,
0010
0100
0001
0000
0100
0010
1000
0000
,
0010
0100
0001
0010
0100
0000
1000
0000
,
0100
0010
0001
0000
0010
0100
1000
0000
,
0100
0010
0001
0100
0110
0000
1000
0000
,
1000
0010
1000
0000
0001
0100
0001
0000
,
1000
0001
0200
0000
0301
1000
0002
0000
,
1003
0001
1000
0000
1001
0000
0010
0100
,
0001
1000
2002
0000
0000
0000
0000
0000
,
3003
0000
1010
0000
0001
0100
1000
0000
,
0011
0000
0101
0000
1001
0000
0010
0100
,
0010
0100
0010
0000
0002
0000
0023
0000
,
0230
1300
0100
1100
,
0011
0000
1001
0000
0110
0000
0010
1000
,
0010
1000
0010
0000
0110
0000
1001
0000
,
0001
0100
1000
0000
0100
0001
0100
0000
,
1000
0000
1000
0010
0001
0000
0010
0100
,
0010
0100
0010
0000
1000
0010
1000
0010
,
0100
0001
0100
0000
1001
0000
0110
0000
,
0001
1000
0001
1000
0001
0000
0100
0001
,
0100
0001
0100
0000
0001
0010
0100
1000
,
0001
1000
1010
0110
,
0001
0000
0011
0000
0110
0000
1000
0001
,
0100
0010
1000
0000
0001
0100
0001
0100
,
0010
0110
1010
0011
,
1000
0100
0001
0100
1000
0000
0001
1000
,
0001
0100
0010
0000
1000
0010
0100
0001
,
1000
0001
0100
0010
0100
0010
0100
0010
,
1000
0001
0000
0000
0000
0000
0000
0000
,
0000
2002
0000
0000
,
0000
0000
3003
0220
,
0000
0000
0000
0000
,
0000
0330
0000
0000
,
0000
2020
0000
0000
,
0000
3030
0000
0000
;

//---------------dance-single - ----------------
#NOTES:
     dance-single:
     :
     Hard:
     14:
     0.750,0.787,0.977,0.249,0.078: // measure 1
0000
0000
0000
0000
,  // measure 2
0000
0000
0000
0000
,  // measure 3
0000
0000
0000
0000
,  // measure 4
0000
0000
0000
0000
,  // measure 5
0000
0000
0000
0000
,  // measure 6
2001
0000
0000
0000
3010
0100
0001
0100
,  // measure 7
0012
0000
0203
0000
,  // measure 8
0310
1000
0001
0100
0001
0010
0100
1000
,  // measure 9
2100
3001
0102
0013
,  // measure 10
0210
0000
0301
0000
1001
0010
0100
1001
,  // measure 11
0100
0010
0011
1000
0100
1010
0001
0100
,  // measure 12
1001
0010
0100
0001
1000
0100
0010
0001
,  // measure 13
2002
0000
0000
3003
,  // measure 14
0101
0010
1000
0100
1100
0000
0011
0000
,  // measure 15
1100
0001
0010
0100
0010
0001
1000
0010
,  // measure 16
0100
0001
1000
0001
0100
0010
1000
0001
,  // measure 17
1001
1001
1010
1001
0110
0100
0001
1000
,  // measure 18
0001
0010
0100
0010
0001
1000
0001
0100
,  // measure 19
0002
0000
1003
0010
0100
0001
1000
0100
,  // measure 20
2000
0000
3001
0000
0100
0010
1000
0101
,  // measure 21
0010
0100
1000
0100
0001
0100
1000
0010
,  // measure 22
1001
0100
1000
0100
0010
0001
1000
0001
,  // measure 23
2001
3010
0110
1002
,  // measure 24
1003
0100
0010
0000
0010
0100
1000
0010
,  // measure 25
0100
0001
2000
0000
0000
0000
3001
0001
,  // measure 26
0100
0100
1000
1000
0010
0010
0001
0001
,  // measure 27
0010
0010
1000
1000
0100
0100
0001
1000
,  // measure 28
0001
1000
1001
1001
0010
0010
0100
0001
,  // measure 29
1000
0001
1000
0001
0110
1000
0001
0100
,  // measure 30
0010
1000
0011
0000
1001
0000
1010
0001
,  // measure 31
0100
0001
2000
0000
3100
1000
0000
0001
,  // measure 32
0100
0001
0010
0010
0001
0001
0100
0100
,  // measure 33
1000
1000
0010
0010
1000
1000
0100
0100
,  // measure 34
0001
1000
2001
0000
3010
0110
0000
0001
,  // measure 35
0100
0001
1001
0010
0100
0010
1000
0100
,  // measure 36
0001
0100
1000
0001
1000
0001
1000
0100
,  // measure 37
0010
0001
1000
0100
1001
0100
1000
0010
,  // measure 38
0100
0000
0001
0000
1000
0010
1000
0000
0001
0010
0001
0000
1000
0100
1000
0000
,  // measure 39
0001
0100
0001
0000
1000
0010
1000
0000
0001
1000
0001
0000
0100
0000
0000
0000
,  // measure 40
0120
1030
0110
0012
,  // measure 41
1003
0010
0110
0000
1001
0000
0001
0010
,  // measure 42
0100
0000
0010
0000
0001
0000
1000
0000
0001
0000
1000
0000
1001
0000
0000
0001
,  // measure 43
1000
0001
1001
0010
0100
0000
0001
0100
,  // measure 44
1000
0100
0110
0001
0010
1000
0010
0001
,  // measure 45
1000
0000
0010
0000
0100
0001
0100
0001
1000
0000
0000
0000
0110
0000
0000
0010
,  // measure 46
1000
0000
0001
0000
0110
0000
0000
0010
0001
0000
1000
0000
0101
0000
0001
1000
,  // measure 47
0100
1000
1002
0000
1003
0001
2001
0000
,  // measure 48
3001
1000
1001
0000
0110
0000
0010
0100
,  // measure 49
0001
1000
2002
0000
0000
0000
0000
0000
,  // measure 50
3003
0000
0110
0010
1000
0001
0100
0001
,  // measure 51
0011
0000
0101
0000
1001
0000
1100
0100
,  // measure 52
1100
0000
0100
0000
1100
0000
1000
0000
0010
1000
0010
0000
0100
0001
0100
0000
,  // measure 53
0001
1000
0001
0000
1001
0000
0000
0000
0110
0000
0000
0000
0011
0000
0000
0000
,  // measure 54
1001
0000
0110
0000
1001
0000
0011
0001
,  // measure 55
0011
0001
0011
0001
1001
0100
1000
0100
,  // measure 56
0001
0010
1000
0010
0101
0010
1000
0000
,  // measure 57
0001
0010
1100
0010
0001
1000
1001
1000
,  // measure 58
1001
1000
1001
0000
0010
0100
0001
1000
,  // measure 59
0001
0010
1100
0000
0011
0000
1001
0000
,  // measure 60
0101
0001
0101
0001
0101
0000
1010
0010
,  // measure 61
1000
0100
0010
0100
1000
0001
0100
0010
,  // measure 62
1000
0001
1001
0000
0110
0000
1010
0000
,  // measure 63
1001
0000
0110
0000
0011
0000
1100
0100
,  // measure 64
1100
0100
1100
0100
0011
0001
1001
0001
,  // measure 65
0101
0110
1010
1001
,  // measure 66
0011
0001
1001
0000
1010
0000
0110
0010
,  // measure 67
0110
0000
0010
0000
0110
0000
0010
0000
0110
0000
0001
1000
0100
0000
1000
0000
,  // measure 68
0001
0100
1001
0010
0100
0001
1000
0001
,  // measure 69
1000
0001
0000
0000
0000
0000
0000
0000
,  // measure 70
0000
2002
0000
0000
,  // measure 71
0000
0000
3003
0220
,  // measure 72
0000
0000
0000
0000
,  // measure 73
0000
0000
0000
0000
0330
0000
0000
0000
0001
1000
0100
0000
0000
0000
0000
0000
,  // measure 74
0000
2020
0000
0000
,  // measure 75
0000
3030
0000
0000
;

//---------------dance-single - ----------------
#NOTES:
     dance-single:
     :
     Challenge:
     17:
     0.932,1.000,1.000,0.138,0.534: // measure 1
0000
0000
0000
0000
,  // measure 2
0000
0000
0000
0000
,  // measure 3
0000
0000
0000
0000
,  // measure 4
0000
0000
0000
0000
,  // measure 5
0000
0000
0000
0000
,  // measure 6
1001
0000
0000
0000
MMMM
0000
0000
0000
0011
0000
1000
0000
0001
0100
0010
0000
,  // measure 7
1001
MMMM
0110
MMMM
,  // measure 8
1010
0000
0001
0100
0010
0000
1000
0000
0100
0010
0001
0000
1000
0000
0100
0000
,  // measure 9
0110
0000
0001
1000
0001
0000
0000
0000
0110
0000
1000
0010
0100
0001
1000
0000
,  // measure 10
1001
0000
0001
1000
0001
0000
0000
0000
1001
0000
0100
0010
0001
0000
1001
0000
,  // measure 11
0010
0100
1000
0000
1001
0000
0010
0100
0001
0000
0110
0000
1000
0010
0100
0000
,  // measure 12
0011
0000
1000
0100
0010
0001
0100
0000
1001
0000
0001
0100
0010
0100
0001
0000
,  // measure 13
1001
0000
0001
1000
0001
1000
0001
1000
0001
1000
0001
1000
0001
1000
0001
0000
,  // measure 14
1001
0010
1100
0001
0101
0000
MMMM
0000
,  // measure 15
0011
0001
0101
0010
1010
1000
1100
1000
,  // measure 16
0001
0100
0010
1000
0001
1000
0010
0100
,  // measure 17
1001
1001
1010
1001
0110
0001
0101
1000
,  // measure 18
1100
0010
1010
0001
0100
0010
1000
0001
,  // measure 19
1002
0000
1003
0010
0100
0001
1000
0100
,  // measure 20
1100
0000
0000
0000
MMMM
0000
0000
0000
0001
0000
0010
0000
1100
0000
0001
0100
,  // measure 21
1000
0011
1000
1100
0010
1010
0001
0101
,  // measure 22
0110
0000
1000
0000
0001
1000
0100
0000
1000
0000
0001
1000
0010
1000
0001
0000
,  // measure 23
1001
0000
MMMM
0000
0011
0001
0101
0010
,  // measure 24
1010
0110
0101
0000
1001
1001
1010
1001
,  // measure 25
0110
0000
0101
0000
2002
0000
0000
0000
3003
0000
MMMM
0000
0001
0100
0001
0100
,  // measure 26
0010
1000
0010
1000
0001
0010
0001
0010
0100
1000
0100
1000
0001
0100
0001
0100
,  // measure 27
0001
0010
0001
0010
0100
1000
0100
1000
0100
0010
0100
0010
0001
1000
0001
1000
,  // measure 28
0010
0100
0010
0100
0001
0000
1001
0000
0110
0000
0010
1000
0100
0000
0010
0001
,  // measure 29
0100
0000
0001
1000
0100
0000
1000
0001
0011
0000
0001
0100
0010
0000
1000
0001
,  // measure 30
0100
0000
0001
0000
1001
0000
0000
0000
MMMM
0000
0000
0000
0010
0000
0100
0010
,  // measure 31
1000
0000
0001
0000
2001
0000
0000
0000
3010
0000
MMMM
0000
0000
0000
0001
0010
,  // measure 32
0100
0010
1100
1001
0010
0110
0001
0101
,  // measure 33
1000
0000
1100
0000
0001
0000
0011
0000
0001
1000
0100
0000
1000
0001
0010
0000
,  // measure 34
0001
1000
0001
1000
2100
0000
0000
0000
3001
0000
MMMM
0000
0000
0000
0001
0100
,  // measure 35
0010
0000
0100
0000
1001
0000
0001
0100
0010
0000
1000
0000
0100
0000
0010
0000
,  // measure 36
1001
0000
0010
0000
0100
0000
1000
0000
0001
0000
0100
0000
0010
0000
1000
0001
,  // measure 37
0100
0000
0001
1000
0010
0000
0100
0001
1001
0000
0100
0010
1000
0000
0010
0000
,  // measure 38
0100
0000
0010
0000
1000
0010
1000
0010
0001
0010
0001
0010
1000
0100
1000
0100
,  // measure 39
0001
0100
0001
0100
1000
0010
0001
0010
1000
0100
0001
0100
1000
0000
0000
0000
,  // measure 40
MMMM
0110
MMMM
1002
,  // measure 41
1003
0000
1100
0000
0011
0000
0001
0100
,  // measure 42
1000
0000
0100
0000
0001
0000
0010
0000
1000
0000
0010
0000
0011
0000
0001
0100
,  // measure 43
0010
0000
1000
0000
1001
0000
0001
1000
0100
0000
1000
0000
0001
1000
0001
1000
,  // measure 44
0001
0000
1000
0000
0110
0000
0010
0100
0001
0000
1000
0000
1100
0000
0001
0010
,  // measure 45
0100
0000
0010
0000
0001
0100
1000
0100
0001
0000
1000
0000
1010
0000
0010
1000
,  // measure 46
0100
0000
1000
0000
1001
0000
0001
1000
0100
0000
1000
0000
1001
0000
0010
0100
,  // measure 47
0001
0100
0010
0000
0210
0000
0000
0000
0301
0100
0010
1000
0002
0000
0000
0000
,  // measure 48
1003
0000
0000
0100
0000
0000
0010
0000
0000
0001
0000
0000
1000
0000
0000
0000
0000
0000
0000
0000
0000
0000
0000
0000
1002
0000
0000
0000
0000
0000
0000
0000
0000
0000
0000
0000
1003
0000
0000
0000
0001
0000
0000
0000
1000
0000
0000
0000
,  // measure 49
0001
1000
0010
0220
0000
0000
0000
0000
0000
0330
0000
0000
,  // measure 50
MMMM
0000
0011
0001
0100
0010
1010
0000
,  // measure 51
1100
0000
MMMM
0000
1001
0000
1010
0010
,  // measure 52
1010
0000
0010
0000
1100
0000
0100
0000
1000
0100
1000
0100
0001
0100
0001
0100
,  // measure 53
1000
0010
1000
0010
1000
0000
0000
0000
MMMM
0000
0000
0000
1001
0000
0000
0000
,  // measure 54
0011
0001
0011
0001
1001
0000
0110
0001
,  // measure 55
1001
0000
0010
0000
1010
0000
0001
0000
1001
0000
1000
0100
0001
0000
0100
0000
,  // measure 56
1000
0001
1001
1000
1010
0010
0110
0000
,  // measure 57
0101
0001
1001
0010
1010
0000
0110
0010
,  // measure 58
0110
0010
0110
0010
1010
1001
0101
1001
,  // measure 59
1100
0110
1001
0000
0011
0000
MMMM
0000
,  // measure 60
1010
0010
1010
0010
1001
0000
0011
0010
,  // measure 61
0011
0000
0001
0000
1001
0000
0010
0000
0110
0000
0001
0010
1000
0000
0100
0000
,  // measure 62
0001
1000
0001
1000
0010
0000
0100
0000
MMMM
0000
0010
0000
1010
0000
0000
0000
,  // measure 63
0011
0001
MMMM
0010
1010
0000
0110
0010
,  // measure 64
MMMM
0010
0011
0001
1001
1100
1010
1001
,  // measure 65
0101
0110
1001
0000
MMMM
0000
1001
0000
,  // measure 66
1010
0010
1010
1000
1100
0000
0011
0001
,  // measure 67
1001
0000
0010
0000
0110
0000
0010
0000
1010
0000
0010
1000
0100
0000
1000
0000
,  // measure 68
0001
1000
0001
1000
0110
0000
1000
0000
0010
0000
0100
0000
0001
0000
1000
0000
,  // measure 69
0001
1000
0000
0000
0000
0000
0000
0000
,  // measure 70
0000
0000
2002
0000
0000
0000
3003
1000
,  // measure 71
0000
0000
0000
0000
0001
0000
0000
0000
0000
1000
0000
0000
1001
0000
0000
0001
,  // measure 72
0100
0001
0100
0010
0000
0000
1000
0000
0000
0100
0000
0000
0010
0001
1000
0001
,  // measure 73
0000
0000
0000
0000
0000
0000
0000
0000
0001
1000
0100
0000
0000
0000
0000
0000
,  // measure 74
0000
2020
0000
0000
,  // measure 75
0000
3030
0000
0000
;
