#TITLE:white,white;
#SUBTITLE:;
#ARTIST:メガマソ;
#TITLETRANSLIT:;
#SUBTITLETRANSLIT:;
#ARTISTTRANSLIT:MEGAMASSO;
#GENRE:;
#CREDIT:;
#MENUCOLOR:;
#NEWMETERSYSTEM:NO;
#BANNER:white,white.png;
#BACKGROUND:white,white-bg.png;
#LYRICSPATH:;
#CDTITLE:./CDTITLES/NONE.PNG;
#MUSIC:white,white.mp3;
#OFFSET:-0.832;
#SAMPLESTART:52.867;
#SAMPLELENGTH:15.000;
#SELECTABLE:YES;
#LISTSORT:;
#BPMS:0.000=182.000;
#STOPS:;
#BGCHANGES:0.000=white-white.avi=1.000=1=1=0,
99999=-nosongbg-=1.000=0=0=0 // don't automatically add -songbackground-
;
#ATTACKS:;

//---------------dance-single - ----------------
#NOTES:
     dance-single:
     :
     Beginner:
     3:
     0.144,0.222,0.010,0.010,0.000:
0000
0000
0000
0000
,
0000
0000
0000
0000
,
0000
0000
0000
0000
,
0000
0000
0000
0000
,
0001
0000
0000
0000
,
0100
0000
0000
0000
,
0010
0000
0000
0000
,
1000
0000
0001
0000
,
1000
0000
0000
0000
,
0001
0000
0000
0000
,
0100
0000
0000
0000
,
0010
0000
0000
0000
,
1000
0000
0000
0000
,
0100
0000
0000
0000
,
1000
0000
0000
0000
,
0010
0000
0000
0000
,
0100
0000
0000
0000
,
0100
0000
0100
0000
,
0100
0000
0000
0000
,
0010
0000
0010
0000
,
0010
0000
0000
0000
,
1000
0000
1000
0000
,
1000
0000
0000
0000
,
0001
0000
0100
0000
,
0001
0000
0000
0000
,
1000
0000
0010
0000
,
1000
0000
0000
0000
,
0001
0000
0010
0000
,
0001
0000
0000
0000
,
1000
0000
0100
0000
,
1000
0000
0000
0000
,
0010
0000
0100
0000
,
0001
0000
0000
0000
,
1000
0000
0000
0000
,
0010
0000
0000
0000
,
0100
0000
0000
0000
,
1001
0000
0000
0000
,
0010
0000
0000
0000
,
0100
0000
0001
0000
,
1000
0000
0000
0000
,
0001
0000
1000
1000
,
1000
0000
0010
0000
,
0100
0000
0000
0000
,
0001
0000
0010
0000
,
0001
0000
0000
0000
,
1000
0000
0000
0000
,
0100
0000
0010
0000
,
0001
0000
1000
0000
,
0010
0000
0100
0100
,
0100
0000
0001
0000
,
1000
0000
0000
0000
,
0010
0000
1000
0000
,
0001
0000
0000
0000
,
0100
0000
0000
0000
,
0001
0000
1000
0000
,
0100
0000
0010
0000
,
0100
0000
0000
0000
,
1000
0000
0000
0000
,
0001
0000
0000
0000
,
0100
0000
0000
0000
,
0001
0000
0000
0000
,
1000
0000
0010
0000
,
0100
0000
0000
0000
,
0001
0000
1000
0000
,
0001
0001
0000
1000
,
0000
0010
0000
0100
,
0000
0001
0000
1000
,
1000
0000
0010
0000
,
1000
0000
0000
0000
,
0100
0000
0010
0000
,
0001
0000
1000
0000
,
0010
0000
0100
0000
,
0002
0000
0000
0000
,
0000
0000
0000
0000
,
0000
0000
0000
0000
,
0000
0000
0000
0003
;

//---------------dance-single - ----------------
#NOTES:
     dance-single:
     :
     Easy:
     6:
     0.352,0.371,0.068,0.382,0.000:
0000
0000
0000
0000
,
0000
0000
0000
0000
,
0000
0000
0000
0000
,
0000
0000
0000
0000
,
0020
0000
0000
0030
,
0200
0000
0000
0300
,
0002
0000
0000
0003
,
2000
0000
0000
3001
,
1000
0100
0010
0000
,
1000
0010
0100
0000
,
0001
0100
0010
0000
,
0001
0010
0100
0000
,
0010
0001
1000
0000
,
0001
1000
0100
0000
,
2001
0000
0000
3000
,
0010
0100
0001
1000
,
0001
0001
0002
0003
,
1000
0010
0100
0001
,
1000
1000
2000
3000
,
0100
0010
0100
1000
,
0010
0010
0020
0030
,
0100
0010
1000
0001
,
0100
0100
0200
0300
,
0020
0000
0000
0030
,
1000
0001
0002
0003
,
1000
0100
0010
0001
,
0001
1000
2000
3000
,
0010
0100
0001
1000
,
0010
0100
0200
0300
,
0010
1000
0100
0010
,
0100
0010
0020
0030
,
1000
0100
0010
0001
,
2002
0000
0000
3003
,
0020
0000
0000
0030
,
0200
0000
0000
0300
,
0002
0003
2000
3000
,
0002
0000
0000
0003
,
0020
0000
0000
0030
,
0100
0010
0001
1000
,
1001
0010
0200
0300
,
0010
0010
1000
0001
,
0100
0100
0001
1000
,
0001
0001
0010
0100
,
1000
1000
0100
0010
,
0002
0003
1000
0010
,
0200
0300
0010
1000
,
0020
0030
0200
0300
,
0001
0100
0010
1000
,
2001
3000
0001
0001
,
0010
0001
0100
0100
,
0010
1000
0001
0001
,
1000
0010
0100
0001
,
2000
3000
0100
0010
,
0002
0003
0010
0100
,
2000
3000
0020
0030
,
0200
0000
0000
0300
,
0110
0001
1000
0100
,
1000
0010
0100
0001
,
1000
0100
1000
0010
,
0100
0001
1000
0100
,
1001
0010
1000
0001
,
0100
0001
1000
0010
,
0200
0300
0002
0003
,
1000
0010
0100
0001
,
1001
0100
1000
0010
,
0001
0000
0010
1000
,
0100
0001
0100
1000
,
0001
0100
0010
1000
,
0002
0003
1000
0010
,
0100
0010
1000
0100
,
0020
0030
0200
0300
,
1000
0010
0100
0001
,
2000
0000
0000
0000
,
0000
0000
0000
0000
,
0000
0000
0000
0000
,
0000
0000
0000
3000
;

//---------------dance-single - ----------------
#NOTES:
     dance-single:
     :
     Medium:
     8:
     0.421,0.556,0.157,0.098,0.000:
0000
0000
0000
0000
,
0000
0000
0000
0000
,
0000
0000
0000
0000
,
0000
0000
0000
0000
,
2000
0000
0000
3000
,
0002
0000
0000
0003
,
0200
0000
0000
0300
,
0010
1000
0001
1001
,
0001
0000
0100
0000
0001
0000
1000
0010
,
0000
1000
0100
1000
,
0010
0000
0100
0000
0001
0000
1000
0001
,
0000
1000
0100
0001
,
1100
0000
0001
0000
0100
0000
0010
1000
,
0000
0001
0100
0010
,
1001
0000
0010
0000
0100
0000
0001
1000
,
0000
1000
0001
0000
1000
0000
0100
0000
,
0010
0010
0010
0010
,
0100
0100
1000
0001
,
1000
1000
1000
1000
,
0010
0010
0100
0001
,
0100
0100
0100
0100
,
0010
0010
1000
0100
,
0010
0001
1000
0100
,
0020
0000
0000
0030
,
0100
0100
0100
0100
,
1000
1000
0010
1000
,
0001
0001
0001
0001
,
0100
0001
1000
0010
,
1000
0100
0010
0001
,
1000
1000
0100
0010
,
0100
1000
0010
0100
,
0002
0000
0003
1000
,
1001
0000
0100
0001
0000
0001
1000
0000
,
0001
0000
1000
0010
0000
0010
1000
0000
,
0001
0000
1000
0100
0000
0010
0001
0000
,
2200
3300
0022
0033
,
1001
0000
0010
1000
0000
0001
0100
0000
,
0001
0000
1000
0100
0000
0010
0001
0000
,
1000
0100
0010
0001
,
1000
0001
0000
0001
0000
0000
1000
0000
,
1001
0000
0010
0000
0100
0001
1000
0000
,
0001
0000
1000
0000
0010
1000
0100
0000
,
0010
0001
1000
0001
,
0100
0000
0010
0000
1000
0100
0001
0000
,
0100
1000
0010
0100
,
0001
0010
0001
1000
,
0010
1010
0100
0101
,
1000
0000
0100
0000
1000
0010
0100
0000
,
1001
0000
0100
0000
0001
0100
1000
0000
,
0100
0010
1000
0010
,
0100
0001
1000
0010
,
0100
0000
0001
0000
1000
0010
0001
0000
,
0010
0000
1000
0100
0000
0100
0010
0000
,
0001
0000
0100
0010
0000
0010
1000
0000
,
0010
1000
0100
0000
0010
0001
1000
0000
,
0001
0100
0010
1000
,
1001
0000
1000
0000
0001
0000
0100
0001
,
0000
1000
0010
1000
,
0001
0000
0010
0000
0001
0000
0100
0001
,
0000
1000
0100
0001
,
0100
0000
1000
0000
0010
0000
0100
0010
,
0000
1000
0010
0100
,
0001
0000
1000
0000
0001
0000
0010
0001
,
0000
1000
0010
0100
,
1010
0000
0100
0000
0001
0000
1000
0001
,
0000
0010
0001
1000
,
1100
0000
0100
0000
0010
0000
0100
1000
,
0000
0001
0100
0010
,
0101
0000
0001
0000
1000
0000
0001
0100
,
0000
0001
0010
0100
,
0110
0000
0010
0000
1000
0001
0100
0001
,
0000
0001
1000
0000
0010
0000
0100
0000
,
0020
0000
0000
0000
,
0000
0000
0000
0000
,
0000
0000
0000
0000
,
0000
0000
0000
0030
;

//---------------dance-single - ----------------
#NOTES:
     dance-single:
     :
     Hard:
     12:
     0.635,0.667,0.450,0.049,0.000: // measure 1
0000
0000
0000
0000
,  // measure 2
0000
0000
0000
0000
,  // measure 3
0000
0000
0000
0000
,  // measure 4
0000
0000
0000
0000
,  // measure 5
2000
0000
0000
3000
,  // measure 6
0020
0000
0000
0030
,  // measure 7
0200
0000
0000
0300
,  // measure 8
0001
0010
0100
1000
0100
0010
1001
0000
,  // measure 9
0010
0000
1010
0000
0001
0100
0001
1000
,  // measure 10
0000
1000
0100
0000
0010
0001
1000
0000
,  // measure 11
0100
0000
0101
0000
1000
0100
0010
0100
,  // measure 12
0000
0100
1000
0000
0010
0001
0010
1000
,  // measure 13
0100
0000
0011
0000
1000
0100
0010
0001
,  // measure 14
0000
1000
0010
0000
0100
0001
1000
0000
,  // measure 15
0001
0000
1100
0000
1000
0010
0001
0010
,  // measure 16
0000
1000
0100
0001
0100
1000
0010
0100
,  // measure 17
0001
0000
1001
0000
1000
0100
0000
1000
,  // measure 18
0000
0010
0100
0001
1000
0000
1001
0000
,  // measure 19
0010
0000
1010
0000
0100
0001
0000
0100
,  // measure 20
0000
0001
0010
0001
1000
0000
0011
0000
,  // measure 21
1000
0000
1100
0000
0001
0010
0000
0100
,  // measure 22
0000
0010
0001
1000
0100
0000
0110
0000
,  // measure 23
0100
1000
0000
1010
0000
0101
0000
1000
,  // measure 24
0200
1000
0010
0301
,  // measure 25
0001
0100
0001
0000
1001
0000
0100
0010
,  // measure 26
0000
1000
0010
0100
0001
0000
1100
0000
,  // measure 27
0001
0000
0011
0000
1000
0100
0000
1001
,  // measure 28
0000
0100
0010
0100
0001
0000
1010
0000
,  // measure 29
0010
0000
0110
0000
0001
1000
0000
0101
,  // measure 30
0000
1000
0100
0001
0100
0000
1001
0000
,  // measure 31
0100
0010
0000
1010
0000
0001
0100
0001
,  // measure 32
1000
0100
0010
0001
1000
0100
1000
0001
,  // measure 33
0101
0000
1000
0010
0000
0010
1000
0000
,  // measure 34
1010
0000
1000
0100
0000
0100
0010
0000
,  // measure 35
1100
0000
0001
0100
0000
0010
1000
0000
,  // measure 36
1001
0000
0110
0000
0010
0100
0001
1000
,  // measure 37
0001
0000
1000
0100
0000
0010
0001
1000
,  // measure 38
0010
0000
0100
0001
0000
1000
0100
0001
,  // measure 39
0100
1000
0010
0100
0001
1000
0010
1000
,  // measure 40
0001
1000
0000
1001
0001
0010
0100
0010
,  // measure 41
1001
0100
0010
0001
1000
0100
0010
0100
,  // measure 42
1000
0100
0010
0001
1000
0010
0001
0010
,  // measure 43
1000
0100
0010
0001
1000
0100
0010
0100
,  // measure 44
1000
0010
0100
0001
0100
0001
0010
0001
,  // measure 45
0100
0010
1000
0010
0100
0001
1000
0001
,  // measure 46
0010
0001
0010
0100
1000
0100
0001
0100
,  // measure 47
1000
0010
1010
0000
0001
0100
0101
0000
,  // measure 48
1000
0100
0010
0100
1000
0001
0100
0010
,  // measure 49
1001
0000
0001
0100
0001
1000
0010
0100
,  // measure 50
0001
1000
0100
1000
0010
0100
0001
1000
,  // measure 51
0010
1000
0001
0100
0001
0010
0001
1000
,  // measure 52
0010
0100
0001
1000
0100
1000
0010
0100
,  // measure 53
0001
1000
0001
1000
0010
1000
0001
0000
,  // measure 54
1000
0100
1000
0010
1000
0001
0100
0000
,  // measure 55
0010
1000
1100
0000
0010
0001
0101
0000
,  // measure 56
1000
0001
0100
0010
1000
0001
0100
0010
,  // measure 57
1001
0000
0110
0000
0010
1000
0001
0100
,  // measure 58
0000
0100
0001
0000
1000
0100
0010
0000
,  // measure 59
1100
0000
0001
0000
0100
0010
1000
0001
,  // measure 60
0000
0100
0001
0000
1000
0001
0010
0000
,  // measure 61
1001
0000
0100
0000
0010
1000
0001
0010
,  // measure 62
0000
0100
1000
0000
0100
0010
0001
0000
,  // measure 63
1010
0000
0100
0000
1000
0010
1000
0001
,  // measure 64
0000
0100
0001
0000
1000
0001
0100
0010
,  // measure 65
1001
0000
0101
0000
0001
0100
0010
1000
,  // measure 66
0000
0100
1000
0000
0001
1000
0100
0000
,  // measure 67
1010
0000
1100
0000
1000
0100
0010
0001
,  // measure 68
0000
0100
0001
0000
1000
0001
0100
0000
,  // measure 69
0110
0000
0010
0000
1000
0001
0100
0010
,  // measure 70
0000
1000
0001
0000
0100
0001
1000
0000
,  // measure 71
0011
0000
0101
0000
0001
1000
0100
1000
,  // measure 72
0010
0100
0001
1000
0010
0100
0001
1000
,  // measure 73
0020
0000
0000
0000
,  // measure 74
0000
0000
0000
0000
,  // measure 75
0000
0000
0000
0000
,  // measure 76
0000
0000
0000
0030
;

//---------------dance-single - ----------------
#NOTES:
     dance-single:
     :
     Challenge:
     14:
     0.788,0.852,0.626,0.010,0.230:
0000
0000
0000
0000
,
0000
0000
0000
0000
,
0000
0000
0000
0000
,
0000
0000
0000
0000
,
0010
1000
0001
0100
0001
0010
0100
1000
,
0100
0010
0001
1000
0010
0010
0000
1000
,
0010
0100
0001
1000
0100
1000
0010
0100
,
0001
0000
1000
0100
1000
0000
0001
0000
0100
0000
0010
0000
1001
0000
0000
0000
,
0001
0000
0100
0000
0001
0000
0000
1000
0100
0000
1000
0000
0010
0000
0100
0000
,
0000
0010
1000
0001
0100
0001
1000
0010
,
0100
0000
0001
0000
1000
0000
0000
0001
0010
0000
0100
0000
0010
0000
0001
0000
,
0000
1000
0010
0100
0010
1000
0010
0100
,
0001
0000
1000
0000
0001
0000
0000
0010
0100
0000
0010
0000
0001
0000
1000
0000
,
0000
0100
1000
0010
1000
0001
0100
0010
,
1000
0000
0001
0000
0100
0000
0000
0001
0010
0000
0100
0000
1000
0000
0010
0000
,
0001
0010
1000
0100
0010
0100
1000
0001
,
1000
1001
1001
1001
,
0100
0000
0110
0000
0010
1000
0001
0100
,
0001
1001
1001
1001
,
0001
0000
0011
0000
1000
0100
0010
0100
,
1000
1010
1010
1010
,
0100
0000
0110
0000
0010
1000
0001
0100
,
0001
1000
0000
1001
0000
0010
1000
0001
,
0100
0000
0001
1000
0001
0000
1000
0000
0010
0000
0100
0001
0100
0000
0001
0000
,
1000
1010
1100
1010
,
1000
0000
1001
0000
0100
0001
1000
0001
,
0010
0011
0110
1100
,
0010
0000
1010
0000
0100
0010
1000
0001
,
1000
0011
1100
1010
,
0101
0000
1100
0000
1000
0010
0100
0001
,
1000
0100
0000
0011
0000
1000
0100
1000
,
0010
0000
0100
0010
0100
0000
0001
1000
0001
0000
1000
0100
1000
0000
0010
0000
,
1100
0000
1000
0001
0000
0001
1000
0010
,
0100
0000
0001
0100
0000
0001
0010
0100
,
0010
0000
1000
0100
0000
1000
0010
0100
,
0001
1000
0010
0100
0001
1000
0010
0100
,
0101
0000
1000
0010
0000
1000
0100
0010
,
0011
0000
0001
0101
0000
0010
1000
0001
,
1000
0100
1000
0010
0100
0001
1000
0010
,
0100
0001
0000
1001
0100
0010
1000
0001
,
1100
0000
0001
0000
0010
0000
0001
0100
0001
0000
1000
0000
0010
0000
0100
0000
,
0001
0000
1000
0000
0100
0000
0010
0100
0010
0000
0100
0000
1000
0000
0010
0000
,
0100
0000
0001
0000
1000
0000
0001
1000
0001
0000
1000
0000
0010
0000
0100
0000
,
0001
0000
1000
0000
0100
0010
0000
0100
1000
0000
0100
0000
1000
0000
0010
0000
,
0100
0000
0001
0000
0010
0000
0001
1000
0001
0000
0100
0000
0010
0000
1000
0000
,
0010
0000
0100
0000
0001
0000
1000
0001
1000
0000
0100
0000
0010
0000
0100
0000
,
1000
0010
0101
0000
0001
0010
1100
0000
,
0001
0000
0100
0000
0010
1000
0000
1000
0001
0000
0100
0000
0001
1000
0001
1000
,
0010
0000
0100
0000
0001
0000
1000
0100
0010
0000
0100
0000
1000
0000
0010
0000
,
0100
0000
0001
0000
1000
0000
0001
0010
0100
0000
0010
0000
0001
0000
1000
0000
,
0010
0000
0100
0000
0001
0000
1000
0100
1000
0000
0010
0000
0100
0000
0001
0000
,
1000
0000
0010
0000
1000
0001
0000
0100
0010
0000
0100
0000
0001
0000
1000
0000
,
1001
0000
0010
0000
0001
0000
0100
0010
0100
0000
0010
0000
1000
0000
0001
0000
,
0101
0000
0001
0000
1000
0000
0010
1000
0010
0000
0100
0000
0001
0000
1000
0000
,
1100
0010
1001
0000
0101
0010
1001
0000
,
0001
0000
0100
0001
0100
0000
0010
1000
0010
0000
1000
0001
1000
0000
0001
0000
,
1001
0000
0000
0000
0110
0000
0000
1000
0001
0000
0100
0000
0001
0000
1001
0000
,
0000
0001
0010
0100
0010
0001
1000
0100
,
1100
0000
0000
0000
1010
0000
0000
0010
1000
0000
0001
0000
0100
0000
1001
0000
,
0000
0001
0100
0001
1000
0010
1000
0100
,
0011
0000
0000
0000
1100
0000
0000
0100
1000
0000
0010
0000
0100
0000
0110
0000
,
0000
0010
1000
0100
0001
0100
1000
0001
,
1001
0000
0000
0000
0011
0000
0000
1000
0100
0000
0010
0000
0100
0000
1000
0000
,
1100
0000
0000
0100
1000
0000
0000
1000
0010
0000
0000
0010
0001
0000
0000
0001
,
0010
0000
0000
0000
1001
0000
0000
0100
0001
0000
1000
0000
0001
0000
0011
0000
,
0000
0001
0100
0001
1000
0100
0010
0001
,
1100
0000
0000
0000
1001
0000
0000
1000
0010
0000
1000
0000
0001
0000
1001
0000
,
0000
0010
1000
0001
1000
0100
1000
0010
,
0110
0000
0000
0000
1001
0000
0000
0100
0010
0000
0100
0000
0001
0000
1001
0000
,
0000
0001
0010
0100
0010
0001
1000
0100
,
1100
0000
0000
0000
1001
0000
0000
1000
0010
0000
0001
0000
0010
0000
1000
0000
,
0100
0000
0010
0100
0010
0000
0001
1000
0001
0000
1000
0100
1000
0000
0010
1000
,
0002
0000
0000
0000
,
0000
0000
0000
0000
,
0000
0000
0000
0000
,
0000
0000
0000
0003
;
