#TITLE:waxing and wanding;
#SUBTITLE:;
#ARTIST:青龍;
#TITLETRANSLIT:;
#SUBTITLETRANSLIT:;
#ARTISTTRANSLIT:SEIRYU;
#GENRE:;
#CREDIT:;
#MENUCOLOR:;
#NEWMETERSYSTEM:NO;
#BANNER:waxing and wanding.png;
#BACKGROUND:waxing and wanding-bg.png;
#LYRICSPATH:;
#CDTITLE:./CDTITLES/BEATMANIA IIDX.PNG;
#MUSIC:waxing and wanding.mp3;
#OFFSET:-0.080;
#SAMPLESTART:12.574;
#SAMPLELENGTH:15.000;
#SELECTABLE:YES;
#LISTSORT:;
#BPMS:0.000=191.000;
#STOPS:;
#BGCHANGES:;
#ATTACKS:;

//---------------dance-single - ----------------
#NOTES:
     dance-single:
     :
     Beginner:
     5:
     0.216,0.271,0.026,0.000,0.000:
0000
0000
0000
0000
,
0000
0000
0000
0000
,
0000
0000
0000
0000
,
0000
0000
0000
0000
,
1000
0000
0010
0000
,
0100
0000
0001
0000
,
0010
0000
0001
0000
,
1000
0000
0100
0000
,
1000
0000
0001
0000
,
1001
0000
0000
0000
,
0100
0000
0010
0000
,
0100
0000
0001
0001
,
0001
0000
1000
0000
,
0010
0000
1000
1000
,
1000
0000
0100
0000
,
0010
0000
0100
0100
,
0100
0000
0001
0000
,
1000
0000
0001
0001
,
0001
0000
1000
0000
,
0100
0000
0010
0000
,
0100
0000
0001
0000
,
1000
0000
0010
0000
,
1000
0000
0100
0000
,
1000
0000
0001
0000
,
0100
0000
0010
0000
,
0001
0000
0010
0000
,
1000
0000
1000
0000
,
0001
0000
0001
0000
,
0100
0000
0100
0000
,
0010
0000
0100
0000
,
1001
0000
0001
0000
,
1000
0000
0001
0000
,
1000
0000
0100
0000
,
0010
0000
0100
0000
,
1000
0000
0001
0000
,
1000
0000
0010
0000
,
0100
0000
0001
0000
,
0010
0010
0010
0000
,
0100
0000
0001
0000
,
1000
0000
0100
0000
,
1000
0000
0100
0000
,
0010
0010
0010
0000
,
1001
0000
0000
0000
,
0000
0000
0000
0000
,
0010
0000
0000
0000
,
0000
0000
0000
0000
,
0100
0000
0010
0000
,
1000
0000
0001
0000
,
1000
0000
0001
0000
,
1000
0000
0000
0000
,
0001
0000
0100
0000
,
0010
0000
1000
0000
,
0100
0000
0010
0000
,
1000
0000
0100
0000
,
0010
0000
0001
0000
,
0010
0000
0001
0000
,
1000
0000
0010
0000
,
1000
0000
0100
0000
,
0010
0000
0100
0000
,
0001
0001
0001
0000
,
0010
0000
0100
0000
,
1000
0000
0100
0100
,
0000
0010
0000
1000
,
0000
0001
0000
0100
,
0100
0000
0010
0000
,
1000
0000
0001
0000
,
1000
0000
0100
0000
,
1000
0000
0001
0000
,
0001
0000
0100
0000
,
0001
0000
0100
0000
,
0010
0000
1000
0000
,
0010
0000
0001
0000
,
1000
0000
0100
0000
,
1000
0000
0001
0000
,
0000
1000
0000
0001
,
0001
0000
0010
0000
,
0000
0100
0000
0100
,
0100
0000
0010
0000
,
0000
1000
0000
1000
,
1000
0000
0001
0000
,
0000
0001
0000
0010
,
0010
0000
0100
0000
,
1000
0000
0001
0000
,
1000
0000
0100
0000
,
0010
0000
0100
0000
,
0001
0000
1000
0000
,
0001
0000
0001
0000
,
0010
0000
0010
0000
,
0100
0000
0100
0000
,
1000
0000
1000
0000
;

//---------------dance-single - ----------------
#NOTES:
     dance-single:
     :
     Easy:
     7:
     0.459,0.502,0.190,0.337,0.000:
0000
0000
0000
0000
,
0000
0000
0000
0000
,
0000
0000
0000
0000
,
0000
0000
0000
0000
,
2000
0000
0000
0000
,
0001
0001
0100
3100
,
0002
0000
1000
0000
,
1000
1000
0100
0103
,
1000
1000
0001
0001
,
0220
0000
0000
0330
,
1000
1000
0010
0110
,
0001
0001
0100
0100
,
0001
0001
0010
0110
,
0001
0001
1000
1000
,
0001
0001
1000
0110
,
0100
0100
0001
0001
,
0100
0100
0010
1001
,
1000
1000
0100
0100
,
1000
1000
0001
0001
,
0100
0100
0020
0030
,
1000
1000
0001
0001
,
0100
0101
0100
0101
,
0001
0001
0010
0010
,
0100
0100
2000
3000
,
0100
0100
1000
1000
,
0010
1010
0010
1010
,
0001
1000
0001
1000
,
0010
0100
0010
1000
,
0001
0010
0100
1000
,
0100
0100
0010
0010
,
0100
1000
0001
1000
,
0010
0100
0001
1000
,
0001
0010
0001
0100
,
0010
1000
0001
1000
,
0001
0001
0100
0100
,
0010
0010
2000
3000
,
1000
1000
0100
0100
,
0010
0100
0200
0300
,
1000
0100
0010
0001
,
1000
0100
0020
0030
,
0001
0100
0010
1000
,
0001
1000
2002
3003
,
0020
0000
0230
0000
,
0302
0000
2003
0000
,
3200
0000
2300
0000
,
3200
0000
0000
0000
,
2300
0000
3020
0000
,
0032
0000
0023
0000
,
2030
0000
3200
0000
,
0302
0000
0000
0103
,
0100
1000
1000
0010
,
0010
0001
0002
0003
,
0010
0010
1000
1000
,
0100
0100
0200
0300
,
1000
0010
0100
0001
,
1000
0001
2000
3000
,
0001
0010
0100
1000
,
0001
0010
0002
0003
,
1000
0010
0100
0001
,
1000
0001
2002
3003
,
0001
0010
0100
1000
,
0100
0010
0220
0330
,
0100
1000
0001
0100
,
0010
1000
2020
3030
,
0001
0010
0100
1000
,
1001
0110
2002
3003
,
0010
0010
1000
1000
,
0001
0100
1000
0000
0001
0000
0100
0000
,
1000
1000
0100
0100
,
0010
0000
0001
0000
1000
0010
0001
0000
,
0010
0010
1000
1000
,
0001
0100
1000
0000
0001
0000
0100
0000
,
1000
1000
0100
0100
,
0010
0001
1000
0000
0220
0000
0330
0000
,
0010
0010
0100
0100
,
0001
1000
0001
1001
,
1000
1000
0100
0100
,
0010
0100
1000
1100
,
0001
0001
0100
0100
,
0010
0100
0001
0011
,
0001
0001
1000
1000
,
0010
0100
0010
0110
,
1000
0100
1000
0001
,
1000
0000
0100
0000
1000
0100
0001
0000
,
0100
0010
0100
0001
,
1000
0010
0001
0000
0010
0000
1000
0000
,
0001
0100
1000
0100
,
0001
0100
1000
0000
0001
0000
0010
0000
,
0100
0010
0001
1000
,
0001
1000
0001
0000
0110
0000
0000
0000
;

//---------------dance-single - ----------------
#NOTES:
     dance-single:
     :
     Medium:
     11:
     0.559,0.618,0.181,0.294,0.000: // measure 1
0000
0000
0000
0000
,  // measure 2
0000
0000
0000
0000
,  // measure 3
0000
0000
0000
0000
,  // measure 4
0000
0000
0000
0000
,  // measure 5
0002
0000
1000
0000
,  // measure 6
0100
0100
0010
0013
,  // measure 7
2000
0000
0001
0000
,  // measure 8
0100
0100
0010
3010
,  // measure 9
1001
1001
0110
0110
,  // measure 10
2002
0000
0000
3003
,  // measure 11
1000
0100
0000
0100
1000
0000
0001
0000
,  // measure 12
0100
0001
0100
0000
0010
1000
0010
0000
,  // measure 13
0100
0001
0000
0001
0010
0000
0001
0000
,  // measure 14
1000
0000
0001
0000
1000
0001
1000
0000
,  // measure 15
0010
0100
0000
0100
0010
0000
0100
0000
,  // measure 16
0001
0010
0100
0000
1000
0100
0010
0000
,  // measure 17
0001
0010
0000
0010
0001
0000
1000
0000
,  // measure 18
0001
0100
0001
0000
1000
0010
1000
0000
,  // measure 19
0010
0000
0100
0000
0001
0100
0001
0000
,  // measure 20
0100
0000
0100
0000
0001
1000
0000
1000
,  // measure 21
0001
1000
0100
0010
,  // measure 22
0100
1100
0100
1100
,  // measure 23
0010
1000
0010
0000
0100
0001
0100
0000
,  // measure 24
0001
0010
0001
0000
1000
0100
0000
0100
,  // measure 25
1000
0001
1000
0010
,  // measure 26
0100
0001
0100
0110
,  // measure 27
0010
0100
0001
0000
0001
0100
0010
0000
,  // measure 28
0010
0100
0001
0000
0001
1000
0001
0000
,  // measure 29
1000
0100
0010
0000
0010
0100
1000
0000
,  // measure 30
1000
0100
0010
0000
0100
1000
0100
0000
,  // measure 31
0001
1000
0001
0000
1000
0001
1000
0000
,  // measure 32
0010
1000
0010
0000
0001
1000
0001
0000
,  // measure 33
1000
0100
1000
0000
0010
0100
0010
0000
,  // measure 34
1000
0100
0010
0000
0010
0100
1000
0100
,  // measure 35
1000
1000
0001
0001
,  // measure 36
0100
0000
0001
0000
1000
0010
0000
0010
,  // measure 37
1000
0001
0100
0001
,  // measure 38
0010
0011
0100
1100
,  // measure 39
0001
0100
0001
1000
,  // measure 40
0010
0000
0100
0000
0001
0100
0000
0100
,  // measure 41
0001
1000
0010
0100
,  // measure 42
0010
0110
1001
0110
,  // measure 43
2002
0003
0020
0030
,  // measure 44
0200
0300
0002
0003
,  // measure 45
0200
0300
0002
0003
,  // measure 46
0020
0000
0000
3030
,  // measure 47
0202
0300
2000
3000
,  // measure 48
0020
0030
2000
3000
,  // measure 49
0200
0300
0020
0030
,  // measure 50
2000
0000
3003
1000
,  // measure 51
0001
1000
0001
1000
,  // measure 52
0010
0100
0020
0030
,  // measure 53
1000
0100
0010
0001
,  // measure 54
1000
0100
0200
0300
,  // measure 55
1000
0001
0100
0001
,  // measure 56
0010
0001
2000
3000
,  // measure 57
0010
1000
0010
0001
,  // measure 58
0010
0100
0020
0030
,  // measure 59
0100
0000
0001
0000
1000
0100
1000
0000
,  // measure 60
0001
0000
0100
0000
0001
0010
0000
0010
,  // measure 61
0001
0000
1000
0000
0100
0010
0100
0000
,  // measure 62
1000
0100
0200
0300
,  // measure 63
1000
0000
0010
0000
1000
0001
1000
0000
,  // measure 64
0001
0000
0100
0000
0001
0010
0000
0010
,  // measure 65
0001
0000
1000
0000
0100
0010
0001
0000
,  // measure 66
1000
0100
2000
3000
,  // measure 67
0001
0000
0100
0000
0001
1000
0010
0000
,  // measure 68
0001
0000
1000
0000
0010
0100
0000
0100
,  // measure 69
0010
0000
1000
0000
0100
0010
0001
0000
,  // measure 70
1000
0100
1000
0000
0220
0000
0330
0000
,  // measure 71
0001
0000
0100
0000
0010
1000
0010
0000
,  // measure 72
1000
0000
0001
0000
1000
0100
0000
0001
,  // measure 73
0100
0000
1000
0000
0001
1000
0001
0000
,  // measure 74
0110
1001
2002
3003
,  // measure 75
1000
0100
0000
0100
2000
0000
3100
0000
,  // measure 76
0001
0100
0001
0000
1000
0100
1000
0000
,  // measure 77
0001
0100
0000
0100
0002
0000
0103
0000
,  // measure 78
0010
0100
0001
0000
1000
0100
0010
0000
,  // measure 79
0100
1000
0000
1000
0002
0000
1003
0000
,  // measure 80
0010
1000
0010
0000
0100
0001
0100
0000
,  // measure 81
0001
1000
0000
0100
0020
0000
0130
0000
,  // measure 82
1000
0100
0010
0000
0001
0100
0010
0000
,  // measure 83
1000
0001
0100
0001
1000
0001
0100
0001
,  // measure 84
1000
0001
0010
0001
1000
0001
0000
0001
,  // measure 85
0100
0010
0100
0001
0100
0010
0100
0001
,  // measure 86
0100
0001
0100
0001
0100
0000
0110
0000
,  // measure 87
1000
0100
0010
0001
1000
0100
0010
0001
,  // measure 88
1000
0100
0010
0100
1000
0100
0000
0100
,  // measure 89
1000
0010
0100
0001
1000
0010
0100
0001
,  // measure 90
1000
0001
0100
0010
1001
0000
0000
0000
;

//---------------dance-single - ----------------
#NOTES:
     dance-single:
     :
     Hard:
     13:
     0.750,0.734,0.276,0.233,0.000: // measure 1
0000
0000
0000
0000
,  // measure 2
0000
0000
0000
0000
,  // measure 3
0000
0000
0000
0000
,  // measure 4
0000
0000
0000
0000
,  // measure 5
0010
1000
0000
0001
0200
0000
0301
0000
,  // measure 6
1000
0100
0010
0001
1000
0100
0010
0100
,  // measure 7
1000
0010
0000
1000
0200
0000
1300
0000
,  // measure 8
0001
1001
0010
0110
,  // measure 9
0101
0000
0101
0000
1100
0100
0010
0001
,  // measure 10
0220
0000
0000
0330
,  // measure 11
0010
1000
0000
0001
0020
0000
0130
0000
,  // measure 12
0010
0001
1000
0100
0010
0100
1000
0001
,  // measure 13
0100
0001
0000
1000
0020
0000
1030
0000
,  // measure 14
0001
0100
0001
1000
0010
0100
0001
1000
,  // measure 15
0100
1000
0000
0001
0200
0000
0310
0000
,  // measure 16
0100
0001
1000
0100
0010
0100
1000
0001
,  // measure 17
1000
0010
0000
1000
0200
0000
1300
0000
,  // measure 18
0001
0100
1001
0000
1000
0100
0110
0000
,  // measure 19
0100
1000
0001
0100
0001
1000
0010
1000
,  // measure 20
0001
0100
0001
0010
0001
1000
0000
1000
,  // measure 21
0100
1000
0000
0001
0200
0000
0301
0000
,  // measure 22
1000
0010
0100
0001
1000
0100
1000
0001
,  // measure 23
0100
0001
1000
0010
0100
0001
1000
0010
,  // measure 24
1000
0100
0010
0001
1000
0100
0000
0100
,  // measure 25
1000
0100
0000
1000
0020
0000
1030
0000
,  // measure 26
0001
0100
0110
0000
0001
1000
1001
0000
,  // measure 27
0001
0010
0100
1000
0001
0010
0100
1000
,  // measure 28
0001
0100
0010
1000
0001
0100
0010
1000
,  // measure 29
0001
0010
0001
0100
0001
0010
0001
0100
,  // measure 30
0001
1000
0100
0010
0100
1000
0100
1000
,  // measure 31
0100
1000
0010
0001
0010
1000
0100
0001
,  // measure 32
0100
1000
0010
0100
0001
0010
1000
0010
,  // measure 33
0001
0100
1000
0100
0001
0010
1000
0010
,  // measure 34
0001
0100
0010
1000
0010
0100
0001
1000
,  // measure 35
0001
0100
0001
0100
0010
1000
0010
1000
,  // measure 36
0100
0001
0100
0001
0100
1000
0000
1000
,  // measure 37
0010
0100
0001
1000
0010
0100
0010
1000
,  // measure 38
0001
0100
0010
1000
0100
0000
0100
0000
,  // measure 39
1000
0100
0010
0001
1000
0100
0010
0001
,  // measure 40
1000
0100
0001
0100
1000
0010
0000
0010
,  // measure 41
1000
0001
0010
1000
0010
0001
0100
0010
,  // measure 42
1000
0010
0100
0001
1001
0000
0110
0000
,  // measure 43
2002
0003
3200
0000
,  // measure 44
0302
0000
0023
0000
,  // measure 45
2030
0000
3200
0000
,  // measure 46
0320
0000
0000
0030
,  // measure 47
0210
0000
0302
0000
,  // measure 48
2003
0000
3020
0000
,  // measure 49
0032
0000
0203
0000
,  // measure 50
2300
0000
0000
3001
,  // measure 51
0001
0010
0001
0000
0100
1000
0100
0000
,  // measure 52
1000
0010
1000
0001
0100
0001
0000
0001
,  // measure 53
1000
0001
1000
0000
0001
0010
0001
0000
,  // measure 54
1000
0100
0010
0100
1000
0000
0100
0000
,  // measure 55
1000
0100
0010
0001
1000
0100
0010
0001
,  // measure 56
1000
0100
0001
0100
1000
0001
0000
0001
,  // measure 57
0100
0010
1000
0010
0100
0001
1000
0001
,  // measure 58
0100
0010
1000
0001
1001
0000
0110
0010
,  // measure 59
1001
0001
0100
0001
1000
0100
0010
0100
,  // measure 60
1000
0001
0100
0010
1000
0010
0000
0010
,  // measure 61
1000
0001
0010
0001
1000
0100
1000
0001
,  // measure 62
0100
0010
0100
0001
0100
0000
0100
0001
,  // measure 63
0010
0001
1000
0100
0001
0100
1000
0010
,  // measure 64
0001
0010
1000
0001
1000
0001
0000
0001
,  // measure 65
0010
0100
1000
0001
0010
0100
1000
0100
,  // measure 66
0010
0001
0100
0001
0100
0000
0010
1000
,  // measure 67
0001
0010
1001
0000
0100
0100
0001
1000
,  // measure 68
0010
1000
0100
1000
0001
1000
0000
1000
,  // measure 69
0010
0100
0110
0000
0010
0010
1000
0001
,  // measure 70
0100
0001
1000
0100
0110
0000
1100
0000
,  // measure 71
1000
0100
1001
0000
0001
0001
0100
0001
,  // measure 72
0010
0001
1000
0010
0100
0001
0000
0001
,  // measure 73
1000
1000
0010
0010
1000
1000
0100
0100
,  // measure 74
1000
0001
1000
0001
2002
0000
3003
0000
,  // measure 75
0001
0100
0000
0010
1000
0000
0101
0000
,  // measure 76
1000
1000
0100
0100
0010
0010
0001
0001
,  // measure 77
1000
0100
0000
0010
0001
0000
1100
0000
,  // measure 78
0001
0010
1100
0000
1000
0010
1001
0000
,  // measure 79
0001
0100
0000
0100
0010
0000
0110
0000
,  // measure 80
0010
0010
0100
0100
0001
0001
1000
1000
,  // measure 81
0001
0010
0000
1000
0100
0000
0011
0000
,  // measure 82
1000
0010
0101
0000
0001
1000
1001
0010
,  // measure 83
0100
0001
1000
0010
0100
0001
1000
0100
,  // measure 84
0010
0010
0100
0100
1000
1000
0100
1000
,  // measure 85
0001
0100
0010
1000
0010
0100
0001
1000
,  // measure 86
0001
0001
0010
0010
0100
0010
0001
1000
,  // measure 87
0100
0001
0100
1000
0010
0001
0010
1000
,  // measure 88
0001
0001
1000
1000
0010
1000
0001
0100
,  // measure 89
0001
1000
0010
0100
0001
1000
0001
1000
,  // measure 90
0100
0001
0010
1000
1001
0000
0000
0000
;
