#TITLE:rottel-da-sun;
#SUBTITLE:;
#ARTIST:sampling masters MEGA;
#TITLETRANSLIT:;
#SUBTITLETRANSLIT:;
#ARTISTTRANSLIT:;
#GENRE:;
#CREDIT:;
#MENUCOLOR:;
#NEWMETERSYSTEM:NO;
#BANNER:rottel-da-sun.png;
#BACKGROUND:rottel-da-sun-bg.png;
#LYRICSPATH:;
#CDTITLE:./CDTITLES/BEATMANIA IIDX.PNG;
#MUSIC:rottel-da-sun.mp3;
#OFFSET:-0.709;
#SAMPLESTART:28.880;
#SAMPLELENGTH:15.000;
#SELECTABLE:YES;
#LISTSORT:;
#BPMS:0.000=200.000;
#STOPS:;
#BGCHANGES:0.000=rottel-da-sun.avi=1.000=1=1=0,
99999=-nosongbg-=1.000=0=0=0 // don't automatically add -songbackground-
;
#ATTACKS:;

//---------------dance-single - ----------------
#NOTES:
     dance-single:
     :
     Beginner:
     2:
     0.189,0.242,0.000,0.000,0.000:
0000
0000
0000
0000
,
0000
0000
0000
0000
,
0001
0000
0000
0000
,
1000
1000
0000
0000
,
0001
0000
0000
0000
,
0010
0010
0000
0000
,
0100
0000
0010
0000
,
0001
0000
1000
0000
,
1000
0000
0001
0000
,
0001
0000
1000
0000
,
1000
0000
0001
0000
,
0100
0000
0001
0000
,
0001
0000
1000
0000
,
1000
0000
0001
0000
,
0010
0000
0100
0000
,
1000
0000
0100
0000
,
0000
0000
0010
0000
,
0000
0000
0001
0000
,
0000
0000
0010
0000
,
0100
0000
1000
0000
,
0000
0000
0100
0000
,
0000
0000
1000
0000
,
0000
0000
0010
0000
,
0000
0000
0100
0000
,
0100
0000
0010
0000
,
0010
0000
1000
0000
,
1000
0000
0001
0000
,
0001
0000
1000
0000
,
0001
0000
1000
0000
,
0001
0000
1000
0000
,
0100
0000
0010
0000
,
0001
0000
0010
0000
,
0000
0000
0100
0000
,
0000
0000
1000
0000
,
0000
0000
0100
0000
,
0100
0000
0010
0000
,
0000
0000
0001
0000
,
0000
0000
0010
0000
,
0000
0000
0001
0000
,
0000
0000
1000
0000
,
1000
0000
0001
0000
,
0001
0000
1000
0000
,
0001
0000
1000
0000
,
0001
0001
0001
0000
,
1000
0000
0001
0000
,
1000
0000
0001
0000
,
1000
0000
1000
0000
,
0001
0001
0001
0000
,
0000
0000
0100
0000
,
0000
0000
0010
0000
,
0000
0000
1000
0000
,
0010
0000
0100
0000
,
0000
0000
0010
0000
,
0000
0000
0100
0000
,
0000
0000
0001
0000
,
0000
0000
1000
0000
,
1000
0000
1000
0000
,
0001
0001
0001
0000
,
1000
0000
1000
0000
,
0001
0001
0001
0000
,
0100
0000
0100
0000
,
0010
0010
0010
0000
,
0100
0000
0100
0000
,
0010
0010
0010
0000
,
0000
0000
1000
0000
,
0000
0000
0001
0000
,
0000
0000
1000
0000
,
0100
0000
0010
0000
,
0000
0000
0001
0000
,
0000
0000
0010
0000
,
0000
0000
0001
0000
,
0010
0000
0100
0000
,
1000
0000
0000
0000
;

//---------------dance-single - ----------------
#NOTES:
     dance-single:
     :
     Easy:
     6:
     0.382,0.403,0.112,0.325,0.000:
0000
0000
0000
0000
,
0000
0000
0000
0000
,
0100
0000
0000
0000
,
0010
0010
0000
0000
,
1000
0000
0000
0000
,
0001
0001
0000
0000
,
1000
0000
0001
0000
,
0100
0010
1000
0001
,
0100
0001
1000
0100
,
0010
0001
1000
0100
,
1000
0010
0100
0001
,
1000
1000
0001
0100
,
0010
1000
0010
0100
,
0001
0100
0001
0000
,
1000
0000
0001
0001
,
0100
0100
0002
0000
,
0000
0003
2000
0000
,
0000
3000
0002
0000
,
0000
0003
0100
0100
,
0010
0010
2000
0000
,
0000
3000
0002
0000
,
0000
0003
2000
3000
,
0200
0300
0020
0000
,
0000
0030
0001
0001
,
0010
0100
1000
1000
,
0010
0100
0001
0001
,
0010
0100
1000
0100
,
0020
0030
0001
0001
,
0010
0001
1000
1000
,
0010
0100
0001
0001
,
0010
0001
1000
0100
,
0220
0330
0001
0010
,
0000
0010
0001
0100
,
0000
0010
1000
0100
,
0000
1000
0001
0100
,
0010
1000
0010
0100
,
0000
0001
0100
0001
,
0000
1000
0100
1000
,
0000
0001
2002
0000
,
0000
3003
0010
0010
,
0100
0100
0001
0001
,
1000
1000
0010
0010
,
0100
0100
0001
1000
,
0001
1000
0001
0001
,
0100
0100
0001
0001
,
1000
1000
0100
0100
,
0010
0010
0001
0010
,
0200
0300
1000
0000
,
0001
0000
0100
0000
,
0001
0000
1000
0000
,
0010
0000
0100
0100
,
0220
0330
0010
0000
,
1000
0000
0001
0000
,
0100
0000
0001
0000
,
1000
0000
0002
0000
,
0000
0003
1000
0100
,
1000
0100
0010
0001
,
0010
0001
1000
0100
,
1000
0100
0010
0001
,
1000
0001
0100
0010
,
1000
0001
0100
0010
,
1000
0001
0100
0010
,
1000
0001
1000
1000
,
0001
0001
2002
0000
,
0000
3003
0220
0000
,
0000
0330
2002
0000
,
0000
3003
1000
1000
,
0001
0001
0202
0000
,
0000
0303
2020
0000
,
0000
3030
2200
0000
,
0000
3300
1000
0100
,
0010
0001
1000
0000
,
1001
0000
0000
0000
;

//---------------dance-single - ----------------
#NOTES:
     dance-single:
     :
     Medium:
     8:
     0.502,0.524,0.381,0.347,0.000:
0000
0000
0000
0000
,
0000
0000
0000
0000
,
1001
0000
0000
0000
,
0010
0110
0000
0000
,
1001
0000
0000
0000
,
0001
1001
0000
0000
,
1001
0000
0110
0000
,
2002
0000
3003
0000
0001
1000
0001
0000
,
1000
0100
0010
0001
,
0010
0000
0100
0000
1000
0100
1000
0000
,
0010
0100
0001
0100
,
0001
0000
1000
0000
0001
1000
0001
0000
,
1000
0010
0100
0001
,
1000
0000
0001
0000
1000
0100
1000
0000
,
0001
1000
0001
0000
1000
0100
1000
0000
,
0001
1000
0001
0000
2000
0000
0000
3010
,
0000
0000
0100
0000
0002
0000
0003
1000
,
0000
0000
0001
0000
2000
0000
0000
3100
,
0000
0010
0001
0010
,
0100
0000
1000
0000
0200
0000
0000
0310
,
0000
0000
0001
0000
0020
0000
0000
0031
,
0000
0000
1000
0000
0002
0000
0000
0103
,
0000
0010
2020
0000
,
0000
3030
1000
0010
,
0100
0001
1000
0010
,
0110
0110
1000
0010
,
0100
0001
1000
0100
,
0220
0330
0001
0010
,
0100
1000
0001
0010
,
0110
0110
0001
0010
,
0100
1000
0001
0100
,
0220
0000
0330
0000
1000
0000
0010
1000
,
0000
0000
0001
0000
1000
0000
0001
0100
,
0000
0000
0001
0000
0010
0000
0100
0010
,
0000
0001
0010
0010
,
0010
0000
0010
0000
0100
0000
1000
0100
,
0000
0000
1000
0000
0001
0000
1000
0001
,
0000
0000
0100
0000
0010
0000
0100
0010
,
0000
0100
2002
0000
,
0000
3003
1000
1000
,
0001
0000
0001
0000
0100
0001
0100
0000
,
0001
1000
0001
0000
1000
0000
1000
0000
,
0001
0000
0001
0000
1000
0100
1000
0000
,
0001
0010
0001
0000
1000
0000
1000
0000
,
0001
0000
0001
0000
0100
0001
0100
0000
,
0001
1000
0001
0000
1000
0000
1000
0000
,
0001
0001
1000
0010
,
0100
0001
0100
0000
2001
0000
0000
3100
,
0000
0000
0010
0000
0012
0000
0000
0103
,
0000
0000
0010
0000
2010
0000
0000
3001
,
0000
0100
0110
1001
,
0220
0000
0330
0000
1020
0000
0000
0130
,
0000
0000
0001
0000
0201
0000
0000
0301
,
0000
0000
1000
0000
1002
0000
0000
1003
,
0000
0010
0220
0000
,
0000
0330
1000
0010
,
0100
0001
1000
0001
,
1001
0010
0100
0010
,
1000
0100
0010
0001
,
0022
0033
0001
0010
,
0100
1000
0100
0010
,
0110
0001
0100
0010
,
1000
0001
1000
0100
,
2002
0000
3003
0000
0001
0000
0000
0100
,
0000
0000
0001
0000
1001
0000
0000
0100
,
0000
0000
0010
0000
0110
0000
0000
0001
,
0000
0100
0010
1000
,
0001
0000
0100
0000
0001
0000
0000
1010
,
0000
0000
0100
0000
0010
0000
0000
0011
,
0000
0000
0001
0000
1000
0000
0000
1001
,
0000
0001
0100
0010
,
1000
0010
0200
0000
,
0310
0000
0000
0000
;

//---------------dance-single - ----------------
#NOTES:
     dance-single:
     :
     Hard:
     13:
     0.744,0.686,0.347,0.280,0.000: // measure 1
0000
0000
0000
0000
,  // measure 2
0000
0000
0000
0000
,  // measure 3
1001
0000
0000
0000
,  // measure 4
0010
0100
0010
0000
0000
0000
0000
0000
,  // measure 5
1001
0000
0000
0000
,  // measure 6
1001
1001
0000
0000
,  // measure 7
0101
0000
1001
0000
,  // measure 8
1100
0000
0000
0000
0010
0001
0100
0001
,  // measure 9
1000
0000
1001
0000
0001
0100
0000
0001
,  // measure 10
0100
0001
0000
1000
0100
0010
0001
1000
,  // measure 11
0001
0000
0110
0000
0010
0100
0000
0001
,  // measure 12
0100
0001
0000
1000
0010
0100
0010
1000
,  // measure 13
0001
0000
1001
0000
0001
0100
0000
0100
,  // measure 14
0001
1000
0000
0010
1000
0001
0100
0001
,  // measure 15
1000
0001
0100
0001
1000
0010
1000
0001
,  // measure 16
1000
0010
1000
0001
1000
0100
0000
0110
,  // measure 17
0000
0010
0001
0100
0001
1000
0000
1001
,  // measure 18
0000
0001
0010
0100
1000
0010
0000
0110
,  // measure 19
0000
0010
0100
0001
1000
0001
1000
0001
,  // measure 20
0100
0010
0100
0010
1000
0010
0000
0101
,  // measure 21
0000
0001
0010
0100
1000
0100
0000
0011
,  // measure 22
0000
0001
0010
0001
0100
0010
0000
1001
,  // measure 23
0000
1000
0001
0100
0001
0000
1001
0000
,  // measure 24
0110
0000
1001
0000
1000
0010
1000
0010
,  // measure 25
1000
0100
0020
0000
0031
0010
0001
0010
,  // measure 26
0200
0000
0320
0000
0031
0010
0100
1000
,  // measure 27
0001
0010
0200
0000
1300
0010
0200
0000
,  // measure 28
0320
0000
2030
0000
3010
1000
0001
0100
,  // measure 29
0001
0010
0200
0000
0310
0001
1000
0100
,  // measure 30
0020
0000
0032
0000
1003
0100
0010
0001
,  // measure 31
1000
0010
0200
0000
0301
1000
0002
0000
,  // measure 32
2003
0000
3002
0000
1003
0100
1000
0001
,  // measure 33
0000
0100
0001
0000
0001
0100
0001
1000
,  // measure 34
0000
0100
1000
0000
0010
0001
0010
0100
,  // measure 35
0000
0010
0001
0000
1000
0100
0010
0001
,  // measure 36
1000
0100
0010
0001
1000
0010
1000
0001
,  // measure 37
0000
0100
0010
0000
0001
0010
0001
1000
,  // measure 38
0000
0010
0100
0000
0010
0100
0001
1000
,  // measure 39
0000
0001
1000
0000
2002
0000
0000
0000
,  // measure 40
0000
0000
3003
0000
0010
0100
0001
0000
,  // measure 41
1000
0100
0010
0000
0001
0010
0001
0000
,  // measure 42
1000
0100
0010
0000
0001
0010
1000
0000
,  // measure 43
0001
0100
1000
0000
1000
0100
0001
0000
,  // measure 44
1000
0010
0001
0000
1000
0010
0100
0000
,  // measure 45
0001
0100
0010
0000
0001
0100
0001
0000
,  // measure 46
1000
0100
1000
0000
0010
1000
0001
0000
,  // measure 47
1000
0001
0100
0000
0001
1000
0000
0010
,  // measure 48
0000
0100
0010
1000
0001
0200
0000
0310
,  // measure 49
0000
1000
0010
0100
0001
2000
0000
3001
,  // measure 50
0000
1000
0100
0010
0001
0020
0000
0130
,  // measure 51
0000
0010
0001
0100
0001
0000
1001
0000
,  // measure 52
0220
0000
0330
0000
0010
2000
0000
3001
,  // measure 53
0000
1000
0100
1000
0010
0200
0000
0301
,  // measure 54
0000
0100
0001
1000
0100
0020
0000
0031
,  // measure 55
0000
0010
0100
1000
0001
0000
0101
0000
,  // measure 56
1100
0000
0101
0000
0001
1000
0001
1000
,  // measure 57
0001
1000
0010
0100
0010
1000
0001
1000
,  // measure 58
0001
1000
0100
0010
0001
0010
0001
0010
,  // measure 59
0100
1000
0100
1000
0001
0010
0001
0100
,  // measure 60
0010
1000
0010
0100
0001
1000
0100
1000
,  // measure 61
0001
1000
0100
1000
0100
0010
0001
0010
,  // measure 62
0100
1000
0100
1000
0010
0100
0001
0100
,  // measure 63
0010
0100
0001
0100
0010
1000
0001
1000
,  // measure 64
0001
1000
0100
0010
0001
0010
0000
0100
,  // measure 65
1000
0000
1001
0000
1000
0010
0000
0100
,  // measure 66
0001
0000
1001
0000
0001
0100
0000
0010
,  // measure 67
1000
0000
0110
0000
0010
1000
0100
1000
,  // measure 68
0010
1000
0100
1000
0010
1000
0000
0001
,  // measure 69
1000
0000
1001
0000
1000
0100
0000
0010
,  // measure 70
0001
0000
0101
0000
0001
0010
0000
0001
,  // measure 71
0100
0000
0110
0000
0010
1000
0001
1000
,  // measure 72
0100
0010
0001
0010
0200
0000
0000
0000
,  // measure 73
0310
0010
0000
0000
0000
0000
0000
0000
;

//---------------dance-single - ----------------
#NOTES:
     dance-single:
     :
     Challenge:
     13:
     0.661,0.686,0.179,0.280,0.000:
0000
0000
0000
0000
,
0000
0000
0000
0000
,
1001
MMMM
0000
0000
,
0010
0100
0010
0000
MMMM
0000
0000
0000
,
1001
MMMM
0000
0000
,
1001
1001
MMMM
0000
,
0101
MMMM
1001
MMMM
,
1100
0000
0000
0000
0010
0001
0100
0001
,
1000
0000
MMMM
0000
0001
0100
0000
0001
,
0100
0001
0000
1000
0100
0010
0001
1000
,
0001
0000
MMMM
0000
0010
0100
0000
0001
,
0100
0001
0000
1000
0010
0100
0010
1000
,
0001
0000
MMMM
0000
0001
0100
0000
0100
,
0001
1000
0000
0010
1000
0001
MMMM
0001
,
1000
0001
MMMM
0001
1000
0010
1000
0001
,
1000
0010
1000
0001
1000
0100
0000
MMMM
,
0000
0010
0001
0100
0001
1000
0000
MMMM
,
0000
0001
0010
0100
1000
0010
0000
MMMM
,
0000
0010
0100
0001
1000
0001
1000
0001
,
0100
0010
0100
0010
1000
0010
0000
MMMM
,
0000
0001
0010
0100
1000
0100
0000
MMMM
,
0000
0001
0010
0001
0100
0010
0000
MMMM
,
0000
1000
0001
0100
0001
0000
1001
0000
,
0110
0000
1001
0000
1000
0010
1000
0010
,
1000
0100
0020
0000
0031
0010
0001
0010
,
0200
0000
0320
0000
0031
0010
0100
1000
,
0001
0010
0200
0000
1300
0010
0200
0000
,
0320
0000
2030
0000
3010
1000
0001
0100
,
0001
0010
0200
0000
0310
0001
1000
0100
,
0020
0000
0032
0000
1003
0100
0010
0001
,
1000
0010
0200
0000
0301
1000
0002
0000
,
2003
0000
3002
0000
1003
0100
1000
0001
,
0000
0100
MMMM
0000
0001
0100
0001
1000
,
0000
0100
MMMM
0000
0010
0001
0010
0100
,
0000
0010
MMMM
0000
1000
0100
0010
0001
,
1000
0100
0010
0001
1000
0010
1000
0001
,
0000
0100
MMMM
0000
0001
0010
0001
1000
,
0000
0010
MMMM
0000
0010
0100
0001
1000
,
0000
0001
1000
0000
2002
0000
0000
0000
,
0000
3003
MMMM
0000
0010
0100
0001
0000
,
1000
0100
0010
0000
0001
0010
0001
0000
,
1000
0100
0010
0000
0001
0010
1000
0000
,
0001
0100
1000
0000
1000
0100
0001
0000
,
1000
0010
0001
0000
1000
0010
MMMM
0000
,
0001
0100
MMMM
0000
0001
0100
MMMM
0000
,
1000
0100
MMMM
0000
0010
1000
MMMM
0000
,
1000
0001
MMMM
0000
0001
1000
0000
0010
,
0000
0100
0010
1000
0001
0200
0000
0310
,
0000
1000
0010
0100
0001
2000
0000
3001
,
0000
1000
0100
0010
0001
0020
0000
0130
,
0000
0010
0001
0100
0001
0000
1001
0000
,
0220
0000
0330
0000
0010
2000
0000
3001
,
0000
1000
0100
1000
0010
0200
0000
0301
,
0000
0100
0001
1000
0100
0020
0000
0031
,
0000
0010
0100
1000
0001
0000
0101
0000
,
1100
0000
0101
0000
0001
1000
0001
MMMM
,
0001
1000
0010
0100
0010
1000
0001
1000
,
0001
1000
0100
0010
0001
0010
0001
MMMM
,
0100
1000
0100
1000
0001
0010
0001
0100
,
0010
1000
0010
0100
0001
1000
0100
MMMM
,
0001
1000
0100
1000
0100
0010
0001
0010
,
0100
1000
0100
1000
0010
0100
0001
MMMM
,
0010
0100
0001
MMMM
0010
1000
0001
MMMM
,
0001
1000
0100
0010
0001
0010
0000
0100
,
1000
0000
MMMM
0000
1000
0010
0000
0100
,
0001
0000
MMMM
0000
0001
0100
0000
0010
,
1000
0000
MMMM
0000
0010
1000
0100
MMMM
,
0010
1000
0100
MMMM
0010
1000
0000
0001
,
1000
0000
MMMM
0000
1000
0100
0000
0010
,
0001
0000
MMMM
0000
0001
0010
0000
0001
,
0100
0000
MMMM
0000
0010
1000
0001
1000
,
0100
0010
0001
0010
0200
0000
0000
0300
,
MMMM
0010
0000
0000
0000
0000
0000
0000
;
