#TITLE:over there;
#SUBTITLE:;
#ARTIST:vox;
#TITLETRANSLIT:;
#SUBTITLETRANSLIT:;
#ARTISTTRANSLIT:;
#GENRE:;
#CREDIT:;
#MENUCOLOR:;
#NEWMETERSYSTEM:NO;
#BANNER:over there.png;
#BACKGROUND:over there-bg.png;
#LYRICSPATH:;
#CDTITLE:./CDTITLES/GUITAR FREAKS & DRUMMANIA.PNG;
#MUSIC:over there.mp3;
#OFFSET:-0.069;
#SAMPLESTART:55.860;
#SAMPLELENGTH:15.000;
#SELECTABLE:YES;
#LISTSORT:;
#DISPLAYBPM:96.000:250.000;
#BPMS:0.000=96.000,72.000=250.000;
#STOPS:;
#BGCHANGES:0.000=over there.avi=1.000=1=1=0,
99999=-nosongbg-=1.000=0=0=0 // don't automatically add -songbackground-
;
#ATTACKS:;

//---------------dance-single - ----------------
#NOTES:
     dance-single:
     :
     Beginner:
     5:
     0.135,0.270,0.044,0.000,0.000:
0000
0000
0000
0000
,
0000
0000
0000
0000
,
0000
0000
0000
0000
,
0000
0000
0000
0000
,
1000
0000
1000
0000
,
0001
0000
0001
0000
,
0100
0000
0010
0000
,
1000
0000
1001
0000
,
0010
0000
0110
0000
,
0100
0100
0100
0000
,
0001
0000
1000
0000
,
0010
0010
0010
0000
,
1000
0000
0100
0000
,
1001
0000
1000
0000
,
0001
0000
1001
0000
,
0010
0000
0110
0000
,
0100
0000
0100
0000
,
0010
0000
0010
0000
,
0000
0000
0000
1000
,
0000
0000
0001
0000
,
0000
0100
0000
0000
,
0010
0000
0000
1000
,
0000
0000
0001
0000
,
0000
1000
0000
0000
,
0000
0000
0100
0000
,
0000
0000
0000
0010
,
0000
0000
0000
0000
,
0000
0001
0000
0000
,
0000
0000
0000
0000
,
0000
0100
0000
0000
,
0000
0010
0000
0010
,
0000
0000
0000
1000
,
0000
1000
0000
0000
,
0000
0001
0000
0001
,
0000
0000
0000
0010
,
0000
0010
0000
0000
,
0000
0100
0000
0100
,
0000
0000
0000
1000
,
0000
0010
0000
0000
,
0000
1000
0000
0001
,
0000
0000
0000
1000
,
0000
0100
0000
0000
,
0000
0010
0000
0001
,
0000
0000
0000
0100
,
0000
0000
0000
0100
,
0000
0000
0000
0010
,
0000
0000
0000
1000
,
0000
0000
0000
0000
,
0000
0000
0000
0000
,
0000
0001
0000
0000
,
0000
0000
0000
1000
,
0000
0000
0000
0000
,
0000
0010
0000
0000
,
0000
0000
0000
0100
,
0000
0000
0000
0000
,
0000
1000
0000
0000
,
0000
0000
0000
0001
,
0000
0000
0010
0000
,
0000
0001
0000
0000
,
0100
0000
0000
0010
,
0000
0000
0000
0000
,
1000
0000
0000
0000
,
0000
0000
0000
0001
,
0000
0000
0100
0000
,
0100
0000
0000
0000
,
0010
0000
0000
0010
,
0000
0000
1000
0000
,
0000
0000
0000
0000
,
0001
0000
0000
0000
,
0000
0000
0010
0000
,
0000
0000
0000
0000
,
0001
0000
0000
0000
,
0000
0000
0100
0000
,
0000
0100
0000
0000
,
0100
0000
0000
0100
,
0000
0000
0010
0000
,
0000
0010
0000
0000
,
0010
0000
0000
0010
,
0000
0000
1000
0000
,
0000
1000
0000
0000
,
1000
0000
0000
1000
,
0000
0000
0001
0000
,
0000
0001
0000
0000
,
0001
0000
0000
0100
,
0000
0000
0000
0000
,
0010
0000
0000
0000
,
0000
1000
0000
0000
,
0000
0000
0001
0000
,
0000
1000
0000
0000
;

//---------------dance-single - ----------------
#NOTES:
     dance-single:
     :
     Easy:
     8:
     0.351,0.388,0.070,0.096,0.000:
0000
0000
0000
0000
,
0000
0000
0000
0000
,
0000
0000
0000
0000
,
0000
0000
0000
0000
,
0010
0000
0100
0000
,
0001
0000
1000
0000
,
0010
0000
1000
0000
,
0001
0000
0000
0100
0000
0000
0001
0000
,
1000
0000
0000
0010
0000
0000
1000
0000
,
0100
0000
1000
0000
,
0010
0000
0100
0000
,
0001
0000
1000
0000
,
0001
0000
0000
0000
0010
0000
0100
0010
,
0001
0000
0000
1000
1000
0000
0001
0000
,
1000
0000
0000
0010
0010
0000
0100
0000
,
0001
1000
0001
1001
,
0010
0000
0000
0100
0000
0000
0001
0000
,
1000
0000
0000
0010
0000
0000
0000
0000
,
1000
0100
0010
0001
,
0010
0100
1000
0100
,
0010
0001
0001
1000
,
0010
1000
1000
0010
,
0100
0100
0001
0100
,
0100
0001
0000
0000
,
1001
0000
0010
0000
,
0000
0110
0000
1000
,
0000
0010
0000
0000
0100
0000
0000
0001
,
0000
2002
0000
0000
,
0000
0000
3003
0000
,
0000
0001
0001
1000
,
0010
0200
0300
0010
,
0010
1000
0010
2000
,
3000
0001
0001
0010
,
0001
0200
0300
0001
,
0001
1000
0001
0002
,
0003
1000
1000
0100
,
0010
0200
0300
1000
,
1000
0010
0100
0002
,
0003
1000
0001
0100
,
0010
2000
3000
0010
,
0100
0001
1000
0002
,
0003
1000
0010
1000
,
0010
1000
0001
0100
,
0001
0010
0100
1000
,
0100
0010
0001
1000
,
0001
0100
0010
1000
,
0010
0100
0002
0000
,
0000
1000
1000
1000
,
1000
1003
0010
0000
,
0000
1000
0100
0000
,
1000
0000
0000
0001
,
0100
0000
0001
0000
,
0000
0010
1000
0000
,
0010
0000
0000
0001
,
0100
0000
1001
0000
,
0000
0010
0100
0000
,
0010
0000
0000
1000
,
0001
0000
1000
0000
,
0010
0000
0100
0000
,
0001
0000
0010
0000
,
0001
1000
0001
1000
,
0010
0100
0001
0000
,
1000
0000
0100
1000
,
0010
0000
0000
0000
0100
0000
0000
0100
,
0000
0000
0010
0000
0000
1000
0000
0000
,
0001
0000
0000
1000
0000
0000
0001
0000
,
0001
0001
1000
0010
,
1000
0001
0100
0000
,
0001
0010
0001
1000
,
0100
0000
1000
1000
,
1000
0010
0010
0010
,
0100
0100
0100
0100
,
0100
0100
0010
1000
,
0001
0100
0001
1000
,
0001
0010
0001
0010
,
0100
1000
0001
0100
,
0001
1000
0010
1000
,
0010
0100
0001
1000
,
0001
0010
0001
1000
,
1000
0001
0100
0100
,
0010
1000
1000
0010
,
0100
0001
1000
0100
,
0010
0001
0010
0100
,
1000
0001
0100
0010
,
0000
1000
0000
0000
0001
0000
0100
0000
,
0001
0000
0000
1000
0000
0000
0001
0000
,
0010
0000
0100
0000
0000
0010
0000
0000
,
0001
0000
1000
0000
0010
0000
0000
0110
,
0000
0000
1001
0000
0000
0101
0000
0000
;

//---------------dance-single - ----------------
#NOTES:
     dance-single:
     :
     Medium:
     10:
     0.564,0.737,0.359,0.061,0.000:
0000
0000
0000
0000
,
0000
0000
0000
0000
,
0000
0000
0000
0000
,
0000
0000
0000
0000
0000
0000
0000
1000
,
0110
0100
0010
1000
0001
0010
0001
0100
,
0100
0010
1000
0001
1000
0001
0010
1000
,
1000
0010
0001
0100
0010
1000
0001
1000
,
1001
0000
0100
0110
0000
0010
1000
0001
,
1100
0000
0001
0101
0010
0100
0001
1000
,
0001
0010
0100
0010
0001
1000
0100
0010
,
0100
1000
0001
0100
0001
1000
0010
1000
,
0001
0100
0010
0100
0001
1000
0001
0010
,
0001
1000
0100
0010
0100
1000
0001
0100
,
0110
0000
0100
0001
1001
0000
1010
0000
,
1100
0000
1000
0100
0110
0000
1100
0000
,
1001
0100
0010
1000
0001
1000
1001
0001
,
0100
0000
0001
1001
0000
0010
1000
0001
,
0101
0000
0001
2020
0000
0000
3030
0000
,
0100
0001
0100
0000
0001
0000
1000
0000
,
0100
0010
0100
0000
1000
0000
0100
0000
,
0010
0001
0100
0010
,
1000
0010
1000
0000
0001
0000
1000
0000
,
0001
0010
0001
0000
1000
0000
0010
1000
,
0010
0000
0100
0001
0000
0001
0000
0001
,
0200
0000
0000
0000
0310
1000
0000
1000
,
0000
1000
0020
0000
0000
0000
0130
0000
,
0000
1001
0000
0000
0110
0000
0000
1001
,
0000
0220
0000
0000
,
0000
0000
0330
0000
,
0000
0000
0001
0100
0000
0010
0000
0100
,
0001
0000
0100
0000
0010
0000
0100
0001
,
0000
1000
0000
0100
0010
0000
0100
0000
,
1000
0000
0001
0010
0000
0001
0000
0100
,
0001
0000
0010
0000
0001
0000
1000
0010
,
0000
0100
0000
0010
1000
0000
0001
0000
,
1000
0000
0001
1000
0000
0010
0000
0100
,
0001
0000
0100
0000
0001
0000
0100
0010
,
0000
1000
0000
0100
0010
0000
0100
0000
,
1000
0000
0001
0000
0000
0010
0000
0000
,
0100
0000
0000
1000
0000
0000
0110
0000
,
0000
1001
0000
0000
0010
0000
0010
0000
,
0010
0000
1000
0100
0000
1000
0000
0010
,
0100
0000
0001
0000
1000
0000
0001
0100
,
0000
0001
0000
0010
0100
0000
0010
0000
,
0001
1000
0001
0001
,
0001
0100
0100
0010
,
1000
0001
2000
0000
,
0000
0001
0001
0001
,
0001
0000
3001
0000
1000
0100
0000
0001
,
0100
1000
0001
1000
,
0001
0100
0000
1000
0100
0000
0001
0000
,
1000
0000
0001
0000
1000
0010
0000
0001
,
0010
1000
0100
0010
,
0001
0010
0000
1000
0010
0000
0001
0000
,
0100
0000
0010
0000
1000
0001
0000
0001
,
1000
0001
1000
0001
,
0100
0010
0000
0010
0100
0000
0001
0000
,
1000
0100
1000
0100
,
0010
0001
0100
0010
,
1000
0001
1000
0001
,
0100
0010
1000
0001
,
1001
0000
0000
0001
0100
0000
0001
0000
,
1000
0100
0000
0010
0000
0100
1000
0000
,
0001
0000
0100
0000
1010
0000
0000
0101
,
0000
0000
1100
0000
0000
1001
0000
0000
,
0110
0000
0000
1001
0000
0000
0101
0000
,
0000
0101
0000
0000
1000
0001
0000
0010
,
0000
0001
1000
0000
0001
0000
0100
0000
,
0001
1000
0000
0010
0000
1000
0001
0000
,
1000
0100
0010
0110
,
0110
1000
1001
1001
,
0100
0110
0110
0100
,
0001
0000
1000
0000
0001
0010
0001
0000
,
1000
0000
0100
0000
0010
0100
0010
0000
,
0100
0000
1000
0100
1000
0000
0001
0000
,
0100
0000
0010
0000
1000
0000
0001
1000
,
0001
0000
1000
0000
0010
0100
0010
0000
,
0100
0000
0001
0010
0001
0000
1000
0000
,
0100
0000
0010
0000
0100
1000
0100
0000
,
1000
0000
1001
0000
0100
0010
0100
0000
,
0110
0000
0100
0001
1000
0000
1001
0000
,
0010
0000
0001
0000
1000
0100
0010
0100
,
1000
0000
0001
0100
0010
0100
0001
0000
,
1000
0001
0010
0001
1000
0000
0001
0100
,
0000
0100
0000
0100
0010
0000
1000
0000
,
0001
0010
0000
0010
0000
0010
0001
0000
,
1000
0000
0100
0010
0000
0100
0000
1000
,
0001
0000
0100
0000
0001
0000
0000
1001
,
0000
0000
0010
1000
0001
0100
0000
0000
;

//---------------dance-single - ----------------
#NOTES:
     dance-single:
     :
     Hard:
     14:
     0.777,1.000,0.447,0.053,0.092: // measure 1
0000
0000
0000
0000
,  // measure 2
0000
0000
0000
0000
,  // measure 3
0000
0000
0000
0000
,  // measure 4
0000
0000
0000
0000
0000
0000
0000
0001
,  // measure 5
1010
0100
0010
1000
0100
0010
0100
1000
,  // measure 6
0001
0100
0010
0100
0001
1000
0001
0010
,  // measure 7
0100
0010
0001
1000
0100
1000
0010
0100
,  // measure 8
1001
0000
0001
1000
0100
0000
1010
0000
0000
0000
0100
0000
0001
0100
0000
0001
,  // measure 9
1000
0000
0010
0100
0001
0000
0011
0000
0000
0000
1000
0000
0100
1000
0010
0000
,  // measure 10
1000
0000
0001
0000
0100
0000
0010
0000
1000
0000
0001
0100
0010
0000
0100
0000
,  // measure 11
0001
0000
1000
0000
0100
0000
0010
0000
0001
0000
1000
0100
0010
0000
0100
0000
,  // measure 12
1000
0000
0010
0000
0100
0000
0001
0000
1000
0000
0001
1000
0010
0000
0100
0000
,  // measure 13
0001
0000
0010
0000
0001
0000
0100
0000
1010
0000
0100
0001
1000
0001
0100
0000
,  // measure 14
0010
0000
0100
0001
1000
0000
0001
0000
1001
0000
0000
0000
0110
0000
0000
0000
,  // measure 15
1010
0000
0010
1000
0100
0000
0010
0000
0011
0000
0000
0000
0101
0000
0001
0000
,  // measure 16
1000
0001
1000
0001
0100
0010
0100
0010
1000
0100
0010
0001
1000
0000
0001
0000
,  // measure 17
0100
0000
0001
1000
0001
0000
1001
0000
0000
0000
0010
0000
0100
0010
1000
0000
,  // measure 18
0011
0000
1000
0100
0001
0000
2200
0000
0000
0000
0000
0000
3300
0000
0000
0000
,  // measure 19
0001
1000
0001
1000
0010
0100
0010
0100
,  // measure 20
0010
1000
0100
0010
0001
0010
0100
1000
,  // measure 21
0001
0010
0100
1000
0010
0100
0001
0100
,  // measure 22
0010
1010
1010
0100
,  // measure 23
0101
0101
0001
1001
,  // measure 24
1001
0000
1000
0100
0000
0100
0000
0001
,  // measure 25
2000
0000
0001
0000
3010
0100
0000
0100
,  // measure 26
0000
0001
0020
0000
1000
0000
0130
0000
,  // measure 27
0000
1001
0000
0000
0110
0000
0000
1010
,  // measure 28
0000
0102
0000
0000
,  // measure 29
1000
1000
1000
1000
,  // measure 30
1003
0000
1000
0001
0100
0010
1000
0001
,  // measure 31
0100
0000
0001
0000
1000
0000
0001
1000
,  // measure 32
0010
0100
0001
1000
0010
0100
0001
0000
,  // measure 33
0110
0000
1000
0010
0100
0001
1000
0010
,  // measure 34
0100
0001
1000
0000
0001
0000
0010
0001
,  // measure 35
0100
0001
0010
0001
0100
0001
0010
0000
,  // measure 36
0110
0000
1000
0010
1000
0100
1000
0010
,  // measure 37
1000
0100
1000
0000
0001
0000
0100
0001
,  // measure 38
0010
0001
0100
0001
0010
0001
0100
0000
,  // measure 39
0001
0000
1000
0001
0100
0010
0000
0010
,  // measure 40
1000
0001
0100
0010
0000
0010
1000
0010
,  // measure 41
0100
0001
0000
1000
0100
0000
0110
0000
,  // measure 42
0110
0000
1000
0010
1000
0100
1000
0001
,  // measure 43
0100
0001
1000
0000
0001
0000
0100
0010
,  // measure 44
1000
0001
0100
0010
1000
0001
0100
0000
,  // measure 45
0001
0000
1000
0001
0010
0100
1000
0001
,  // measure 46
0010
0100
1000
0001
0100
0001
1000
0010
,  // measure 47
1000
0001
0100
0010
0102
0000
0000
0000
,  // measure 48
0000
0000
0000
1000
1000
0000
1000
0000
,  // measure 49
1000
0000
1003
0001
1000
0001
0100
0001
,  // measure 50
1000
0001
0100
0001
1000
0000
1010
0000
,  // measure 51
0010
0100
0001
0100
0010
1000
0100
0010
,  // measure 52
0100
0000
1100
0000
0001
0010
0100
1000
,  // measure 53
0001
0010
0100
1000
0010
0000
0101
0000
,  // measure 54
1000
0100
0001
0100
1000
0100
0001
0100
,  // measure 55
1000
0000
1001
0000
0010
0100
0001
1000
,  // measure 56
0010
0100
0010
1000
0100
0000
0011
0000
,  // measure 57
1000
0010
0001
0010
1000
0100
0010
0100
,  // measure 58
0010
0000
0110
0000
1000
0010
0100
0001
,  // measure 59
0000
1000
0100
0010
0001
0100
0000
0001
,  // measure 60
0100
0010
1000
0001
0000
0100
0001
1000
,  // measure 61
0010
1000
0000
0001
0000
1001
0000
1000
,  // measure 62
0001
1001
0010
0100
,  // measure 63
0001
1000
0010
1000
0001
0100
0010
0100
,  // measure 64
0001
0000
1100
0000
0001
0100
0010
1000
,  // measure 65
0000
0001
0100
0010
1000
0100
0000
1000
,  // measure 66
0100
0001
0100
1000
0000
0010
0100
0001
,  // measure 67
1000
0000
0001
0000
1000
0010
1000
0010
,  // measure 68
0100
0001
0100
0001
1000
0000
0011
0000
,  // measure 69
0001
0100
0001
0100
0010
1000
0001
1000
,  // measure 70
0001
0000
0011
0000
1000
0100
0010
0100
,  // measure 71
1000
0100
0010
0100
1000
0001
0100
0010
,  // measure 72
1000
0001
0100
0010
1000
0001
1000
0001
,  // measure 73
1000
0001
1000
0001
0100
0010
1000
0001
,  // measure 74
0100
0001
0010
0000
0001
0010
0100
1000
,  // measure 75
0100
0000
0010
0001
1000
0010
1000
0001
,  // measure 76
0100
0010
1000
0001
0100
0001
1000
0010
,  // measure 77
0100
0001
1000
0000
0001
0010
1000
0010
,  // measure 78
0001
0000
1000
0100
0001
0100
1000
0001
,  // measure 79
1000
0001
0100
0010
0100
0000
1010
0000
,  // measure 80
1010
0100
0011
0011
,  // measure 81
1000
0000
1001
0000
1001
0000
0001
0010
,  // measure 82
0100
1000
0001
0010
0100
1000
0001
0010
,  // measure 83
0100
0010
0001
1000
0100
0010
0100
1000
,  // measure 84
0010
1000
0001
0100
0010
1000
0001
1000
,  // measure 85
0000
0011
0000
1000
0100
0000
1010
0000
,  // measure 86
1000
0001
0000
0110
0000
0010
1000
0000
,  // measure 87
0101
0000
0001
1000
0000
0110
0000
1000
,  // measure 88
0001
0000
1100
0000
1000
0100
0010
0001
,  // measure 89
0100
0010
1000
0001
1000
0001
0000
0000
;

//---------------dance-single - ----------------
#NOTES:
     dance-single:
     :
     Challenge:
     19:
     1.000,1.000,1.000,0.000,0.171:
0000
0000
0000
0000
,
0000
0000
0000
0000
,
0000
0000
0000
0000
,
0000
0000
0000
0000
0000
0000
0000
0001
,
1010
0100
0010
1000
1001
0001
0010
0100
,
0110
0010
0001
1000
1001
0010
1000
0001
,
0101
1000
0100
0010
1100
0010
1000
0001
,
1001
0000
0100
0010
1000
0000
1001
0000
0001
0100
0001
0000
1000
0100
1000
0000
,
0011
0000
1000
0100
0010
0000
1001
0000
0010
1000
0001
0100
0100
0100
0010
0010
,
1000
0000
0010
0000
0101
0000
1100
0000
1001
0000
1000
0001
0100
0000
0101
0000
,
0011
0000
1010
0000
1100
0000
1001
0000
1010
0000
0100
0010
1000
0001
0100
0010
,
0110
0000
0101
0000
1100
0000
0011
0000
1001
0000
0001
0100
1010
0000
1100
0000
,
1001
0000
0110
0000
1001
0000
0101
0000
1010
0000
0010
0100
0001
0001
1000
1000
,
1100
0000
0010
0001
1000
0000
0101
0000
1010
0000
0010
0100
1001
0000
0100
0010
,
0011
0000
1000
0100
0010
0000
1100
0000
0101
0000
1000
0010
0100
0010
1000
0001
,
1000
0000
0100
0000
0010
0000
0001
0000
1000
0000
0100
0000
0010
0000
0001
0000
1000
0000
0100
0000
0010
0000
0100
1000
0001
0000
0000
0000
0100
0000
0010
0000
,
1000
0000
0000
0000
0000
0000
0001
1000
0001
0000
0000
0000
1001
0000
0000
0000
0000
0000
0010
0000
0100
0000
0001
0000
1000
0000
0100
0000
0010
0000
0100
0000
,
1100
0000
0000
0000
0000
0000
0001
0010
0001
0000
0000
0000
1100
0000
0000
0000
0000
0000
0000
0000
0000
0000
0000
0000
0000
0000
0000
0000
0000
0000
0000
0000
,
1001
0100
0010
0100
0001
1000
0100
0010
,
0100
1000
0010
1000
0001
1000
0100
0001
,
0100
1000
0010
1000
0001
0100
0010
1000
,
0001
0100
0011
0001
1001
0000
1000
0100
,
1010
1000
1001
0000
0100
0010
1001
0001
,
0110
0010
1000
0001
0000
1001
0000
0101
,
0101
0000
0001
0000
1010
1010
0000
0101
,
0000
1001
1001
0000
0010
0000
0110
0010
,
1000
1001
0001
0100
0101
0001
0010
1100
,
1000
0100
1001
0000
0000
0000
0000
0001
,
1001
0001
1000
0001
1001
0001
1000
0001
,
1001
0001
1001
0010
0100
0001
1000
0100
,
0010
0100
1000
0000
1001
0000
0101
0100
,
0010
0100
0001
1000
0100
1000
1001
0000
,
0011
0000
1100
0100
0010
0100
1000
0010
,
0001
0010
1010
0000
0101
0000
1100
0100
,
0001
0100
1000
0001
0100
0010
1000
0000
,
1001
0000
0101
0001
1000
0010
0100
0010
,
1000
0100
1100
0000
0011
0000
1001
0100
,
1000
0010
0100
0010
1000
0001
1100
0000
,
1001
0000
1010
0100
0001
0101
0001
1000
,
1100
0100
1000
0110
0010
1000
1001
0001
,
0100
0010
1000
0100
0001
0100
1000
0001
,
1001
0000
1001
0001
0010
0100
1000
0100
,
0010
0001
0101
0000
1100
0000
1001
1000
,
0010
0100
0001
1000
0100
1000
1001
0000
,
0110
0000
1010
0010
1000
0101
0001
1000
,
1100
1000
0100
0011
0010
0001
1001
0010
,
0100
0110
0010
1000
1001
0000
0000
0000
,
0000
0000
0000
1000
1001
0000
0011
0001
,
1100
0000
1000
0100
0011
0001
1001
0010
,
1000
0001
0100
0001
0101
0000
1001
0000
,
0110
0010
1000
0001
0100
0001
1000
0100
,
1100
0000
0101
0000
1010
0010
1000
0001
,
0100
0001
0010
0001
0011
0000
1100
0000
,
0110
0010
1000
0001
0100
0001
1000
0100
,
1100
0000
0101
0000
1001
0001
1000
0001
,
0010
0100
0010
0001
0011
0000
1100
0000
,
1010
0010
1000
0001
0100
0001
1000
0001
,
1001
0000
0110
0000
1010
0000
0110
1000
,
1001
0000
0110
0000
1010
0001
0101
0000
,
1001
1000
1100
0000
0011
0000
1001
0100
,
0110
0000
0011
0001
1001
0000
0110
0000
,
0010
1000
1100
0000
0101
0000
1001
0000
,
0110
0010
1000
0001
0100
0001
1000
0001
,
1001
0000
0101
0000
1100
1000
0001
0101
,
1000
0010
0110
0010
1000
1001
0001
1000
,
1010
0010
0100
0101
1000
0001
1001
0001
,
0100
0110
0010
1000
1010
0010
1000
0001
,
0100
0001
1000
0001
0011
0000
0101
0000
,
1001
0001
0100
0010
1000
0001
1000
0100
,
1100
1100
1010
1010
,
1010
1001
1001
1001
,
0110
0000
0110
0000
0110
0000
0010
1000
,
0001
0100
0010
1000
1001
0001
0100
0001
,
1000
0100
1100
0100
1000
0010
0100
0001
,
1001
0001
0010
0100
0010
0001
0101
0001
,
1000
0010
0100
0010
1010
0010
1000
0001
,
0100
0001
1001
0001
0010
0100
0010
0001
,
0101
0001
1000
0100
1000
0010
1000
1010
,
0000
0101
0000
1100
1001
0001
0110
0000
,
0110
0000
1001
0001
0110
0000
0110
0000
,
1001
0001
0101
0000
1100
0000
1001
0001
,
1000
0010
0100
0010
1000
0010
0101
0000
,
0101
0000
1000
0100
0011
0000
0011
0000
,
1000
0001
0110
0000
0110
0000
1010
1000
,
0001
0101
0000
1001
1001
0000
0110
0000
,
1001
0001
0100
1010
0000
1100
1100
0000
,
1001
0000
1010
1000
0010
1100
0000
0101
,
0101
0000
0011
0000
1100
0100
0010
0011
,
0001
0100
1010
0010
1000
1001
0000
0000
;
