#TITLE:being torn the sky;
#SUBTITLE:;
#ARTIST:猫叉Master+ feat. JUNE;
#TITLETRANSLIT:;
#SUBTITLETRANSLIT:;
#ARTISTTRANSLIT:Nekomata Master+ feat.JUNE;
#GENRE:;
#CREDIT:;
#MENUCOLOR:;
#METERTYPE:DDR;
#BANNER:being torn the sky.png;
#BACKGROUND:being torn the sky-bg.png;
#LYRICSPATH:;
#CDTITLE:./CDTITLES/BEATMANIA IIDX.PNG;
#MUSIC:being torn the sky.ogg;
#OFFSET:0.000;
#SAMPLESTART:98.235;
#SAMPLELENGTH:15.000;
#SELECTABLE:YES;
#LISTSORT:;
#BPMS:0.000=102.000;
#STOPS:;
#BGCHANGES:;
#ATTACKS:;

//---------------dance-single - ----------------
#NOTES:
     dance-single:
     :
     Beginner:
     1:
     0.097,0.143,0.021,0.035,0.000:
0000
0000
0000
0000
,
0000
0000
0000
0000
,
0000
0000
0000
0000
,
0000
0000
0000
0000
,
0000
0000
0000
0000
,
0010
0000
0000
0000
,
0100
0000
0000
0001
,
0001
0000
0000
0000
,
1000
0000
0000
0000
,
0001
0000
0000
0000
,
1000
0000
0000
0000
,
0010
0000
0000
0000
,
0100
0000
0000
0000
,
1000
0000
0000
0000
,
0001
0000
0000
0000
,
0100
0000
0000
0000
,
0020
0000
0030
0000
,
1001
0000
0000
0000
,
0100
0000
0000
0000
,
0001
0000
0000
0000
,
2000
0000
3000
0000
,
0010
0000
0000
0000
,
0100
0000
0000
0000
,
0002
0000
0003
0000
,
1000
0000
0000
0000
,
0010
0010
0000
0000
,
0100
0100
0000
0000
,
0000
0001
0000
0001
,
0000
1000
0000
1000
,
1000
0000
0000
0000
,
0001
0000
1000
0000
,
0020
0000
0030
0000
,
0100
0000
0000
0000
,
0001
0000
0001
0000
,
0001
0001
0001
0000
,
1000
0000
1000
0000
,
1000
1000
1000
0000
,
0110
0000
0010
0000
,
0010
0010
0010
0000
,
0100
0000
0100
0000
,
0100
0100
0100
0000
,
0001
0000
0000
0000
,
1000
0000
0001
0000
,
1000
0000
0001
0000
,
0100
0000
0010
0000
,
0100
0000
0010
0000
,
1000
0000
0100
0000
,
0010
0000
0001
0000
,
0100
0000
0010
0000
,
1000
0000
0001
0000
,
1001
0000
0010
0000
,
0100
0100
0100
0000
,
0001
0000
0010
0000
,
0001
0000
0001
0001
,
0001
0000
1000
0000
,
0010
0000
0100
0000
,
0010
0000
1000
0000
,
0001
0000
1000
0000
,
0200
0000
0000
0300
;

//---------------dance-single - ----------------
#NOTES:
     dance-single:
     :
     Easy:
     3:
     0.174,0.205,0.083,0.090,0.000: // measure 1
0000
0000
0000
0000
,  // measure 2
0000
0000
0000
0000
,  // measure 3
0000
0000
0000
0000
,  // measure 4
0000
0000
0000
0000
,  // measure 5
0000
0000
0000
0000
,  // measure 6
0010
0000
0010
0000
,  // measure 7
0100
0000
0100
0001
,  // measure 8
0001
0000
0001
0000
,  // measure 9
1000
0000
0002
0000
,  // measure 10
1003
0000
1000
0000
,  // measure 11
0100
0000
0100
0000
,  // measure 12
0010
0000
0010
0000
,  // measure 13
0001
1000
0001
0001
,  // measure 14
1000
0100
1000
1000
,  // measure 15
0001
0100
0001
0001
,  // measure 16
0010
0100
0010
0010
,  // measure 17
0200
0000
0000
0300
,  // measure 18
1001
0000
1000
0001
,  // measure 19
2000
3000
0001
1000
,  // measure 20
0002
0003
0100
0010
,  // measure 21
1000
0100
0010
0001
,  // measure 22
2000
0000
0001
0000
,  // measure 23
0100
0000
0010
3100
,  // measure 24
0001
0100
0010
1000
,  // measure 25
0002
0000
0000
0003
,  // measure 26
0100
0010
1000
0001
,  // measure 27
1000
0100
0010
0001
,  // measure 28
0100
0010
1000
0001
,  // measure 29
0100
0001
0010
0001
,  // measure 30
0200
0010
0000
0001
,  // measure 31
0000
1000
0000
0310
,  // measure 32
0001
1000
0100
1000
,  // measure 33
2002
0000
0000
3003
,  // measure 34
1000
0000
1000
1000
,  // measure 35
0001
0001
0100
0100
,  // measure 36
0000
0010
0010
0010
,  // measure 37
0000
0100
0100
0100
,  // measure 38
1001
0000
0001
0010
,  // measure 39
0001
0010
0100
1000
,  // measure 40
0000
0100
1000
0001
,  // measure 41
1000
0010
0100
0001
,  // measure 42
0220
0000
0000
0330
,  // measure 43
1001
0000
0001
0000
,  // measure 44
1000
0001
1000
0000
,  // measure 45
0010
0000
0100
0000
,  // measure 46
0010
0100
0010
0000
,  // measure 47
1000
0000
0100
0000
,  // measure 48
0001
0000
0100
1000
,  // measure 49
0010
0000
0100
0000
,  // measure 50
0001
0000
1000
0000
,  // measure 51
1001
0000
0110
0000
,  // measure 52
0010
1000
0001
0000
,  // measure 53
0110
0000
1001
0000
,  // measure 54
0001
0010
0100
0000
,  // measure 55
1100
0000
1100
0000
,  // measure 56
0010
0001
0100
0000
,  // measure 57
0010
0000
0100
0000
,  // measure 58
0001
1000
0010
0100
,  // measure 59
2002
0000
0000
0000
,  // measure 60
3003
0000
0000
0000
;

//---------------dance-single - ----------------
#NOTES:
     dance-single:
     :
     Medium:
     6:
     0.319,0.328,0.083,0.479,0.000: // measure 1
0000
0000
0000
0000
,  // measure 2
0000
0000
0000
0000
,  // measure 3
0000
0000
0000
0000
,  // measure 4
0000
0000
0000
0000
,  // measure 5
0000
0000
0000
0000
,  // measure 6
0010
0000
0010
0000
0010
0000
0010
0100
,  // measure 7
0001
0000
0001
0000
0001
0000
0001
1000
,  // measure 8
0010
0000
0010
0000
0010
0000
0010
1000
,  // measure 9
0100
0010
0220
0330
,  // measure 10
0001
1000
0001
2000
0000
0000
3100
0000
,  // measure 11
1000
0010
0100
0020
0000
0000
1030
0000
,  // measure 12
0010
1000
0001
0200
0000
0000
0310
0000
,  // measure 13
0100
0001
1000
0010
,  // measure 14
1000
0001
1000
0002
0000
0000
1003
0000
,  // measure 15
0010
0100
0001
0200
0000
0000
0310
0000
,  // measure 16
1000
0100
0010
0002
0000
0000
0103
0000
,  // measure 17
2002
0000
0000
0000
0000
0000
0000
3003
,  // measure 18
0010
0000
0100
0000
0001
1000
0001
0000
,  // measure 19
1000
0000
0100
0000
0010
0100
1000
0000
,  // measure 20
0001
0000
0100
0000
0010
0100
0001
0000
,  // measure 21
2000
3002
0203
0320
,  // measure 22
2030
3001
0200
0310
,  // measure 23
2000
3100
0020
0031
,  // measure 24
2000
0001
0000
3100
,  // measure 25
0220
0000
0000
0330
,  // measure 26
0001
0000
0100
0000
0001
1000
0001
0000
,  // measure 27
1000
0000
0100
0000
1000
0001
1000
0000
,  // measure 28
0010
0000
0100
0000
0010
1000
0001
0000
,  // measure 29
0020
0032
0203
0320
,  // measure 30
2030
3010
0200
0301
,  // measure 31
2000
3100
0020
0031
,  // measure 32
2000
0100
0000
3010
,  // measure 33
2002
0000
0000
3003
,  // measure 34
0001
0100
0000
0100
0001
0000
1001
0000
,  // measure 35
1000
0001
1000
0001
2000
0000
3001
0000
,  // measure 36
1000
0100
0000
0100
1000
0000
0011
0000
,  // measure 37
0001
0100
0000
0100
0001
0000
1010
0000
,  // measure 38
1000
0100
0000
0100
2000
0000
3001
0000
,  // measure 39
0100
0001
0100
0001
0200
0000
0310
0000
,  // measure 40
0001
0010
0000
0010
0002
0000
1003
0000
,  // measure 41
0010
1000
0000
1000
0020
0000
0130
0000
,  // measure 42
2002
0000
0000
3003
,  // measure 43
0020
0000
1030
0010
0200
0000
0310
1000
,  // measure 44
0002
2003
3001
0200
,  // measure 45
0320
0000
0130
0001
2000
0000
3001
0010
,  // measure 46
0200
0000
0310
0000
0001
0010
0001
1000
,  // measure 47
0002
1003
0020
0130
,  // measure 48
2000
0000
3001
0000
1000
0100
0010
0100
,  // measure 49
2000
3001
0200
0310
,  // measure 50
2010
0100
0001
3100
,  // measure 51
1002
0000
1003
0010
2000
0000
3001
0100
,  // measure 52
0002
1003
0020
0130
,  // measure 53
0020
0000
0130
0001
2000
0000
3001
0010
,  // measure 54
0200
0000
0310
0001
1000
0000
0100
0000
,  // measure 55
2001
0000
3001
1000
0002
0000
2003
0000
,  // measure 56
3010
0000
0100
0010
1000
0010
0100
0000
,  // measure 57
0002
0000
0013
0001
0020
0000
0031
0000
,  // measure 58
2000
0000
3010
1000
0020
0000
1030
0000
,  // measure 59
0220
0000
0000
0000
,  // measure 60
0330
0000
0000
0000
;

//---------------dance-single - ----------------
#NOTES:
     dance-single:
     :
     Hard:
     8:
     0.375,0.389,0.111,0.375,0.000: // measure 1
0000
0000
0000
0000
,  // measure 2
0000
0000
0000
0000
,  // measure 3
0000
0000
0000
0000
,  // measure 4
0000
0000
0000
0000
,  // measure 5
0000
0000
0000
0000
,  // measure 6
0010
0000
0010
0000
0010
0010
1000
1000
,  // measure 7
0001
0000
0001
0000
0001
0001
0010
0010
,  // measure 8
0100
0000
0100
0000
0100
0100
0010
0010
,  // measure 9
0001
1000
2002
3003
,  // measure 10
0001
0100
0001
0020
0000
0031
1000
0000
,  // measure 11
1000
0100
1000
0020
0000
0130
0010
0000
,  // measure 12
0010
1000
0001
0200
0000
0301
1000
0001
,  // measure 13
0010
0001
0100
0010
,  // measure 14
1000
0001
1000
0200
0000
1300
0100
0000
,  // measure 15
1000
0010
0100
0002
0000
0013
0001
0000
,  // measure 16
0100
0010
1000
0200
0000
0301
0100
0000
,  // measure 17
2002
0000
0000
3003
,  // measure 18
0110
0000
1001
0000
0001
1000
0001
0000
,  // measure 19
1000
0000
0100
0000
1000
0100
0010
0000
,  // measure 20
0100
0000
0010
0000
0001
1000
0100
0000
,  // measure 21
2000
0000
3001
0000
0100
0010
1000
0000
,  // measure 22
2001
0000
3100
0010
0002
0000
0103
0010
,  // measure 23
2000
0000
3010
0000
1000
0002
0000
1003
,  // measure 24
0001
1000
0100
0000
1000
0001
0010
0000
,  // measure 25
0220
0000
0000
0330
,  // measure 26
0001
0010
0100
0000
1000
0010
1000
0000
,  // measure 27
0001
1000
0100
0000
1000
0001
1000
0000
,  // measure 28
0001
0100
0010
0000
1000
0100
0001
0000
,  // measure 29
0200
0000
1300
0000
0001
0200
0000
0310
,  // measure 30
0100
0001
1000
0000
0001
1000
0010
0000
,  // measure 31
1000
0001
0100
0000
0001
0020
0000
0130
,  // measure 32
0010
0001
0100
0000
0010
1000
0100
0000
,  // measure 33
2001
0010
0001
3100
,  // measure 34
0110
2001
0000
3001
0200
0000
0320
0000
,  // measure 35
1030
0001
1000
0100
0010
0010
0100
1000
,  // measure 36
0001
0100
0000
0100
0001
1000
0020
0000
,  // measure 37
1030
0010
0100
0001
1000
0001
2000
0000
,  // measure 38
3001
0210
0000
0310
0200
0000
0302
0000
,  // measure 39
1003
0100
0010
0100
1000
1000
0002
0000
,  // measure 40
1003
0010
0100
0010
1000
0010
2000
0000
,  // measure 41
3002
0000
1003
0001
0010
0001
2000
0000
,  // measure 42
3010
0100
0000
0100
0001
1000
0001
0000
,  // measure 43
2001
0000
3010
0000
0100
0001
0100
0000
,  // measure 44
0002
0000
0013
0000
1000
0100
0010
0000
,  // measure 45
0200
0000
1300
0000
0001
1000
0100
0000
,  // measure 46
2000
0000
3001
0000
0010
0001
0100
0001
,  // measure 47
0210
0000
0301
1000
0200
0000
1300
0001
,  // measure 48
0020
0000
0031
1000
0001
0100
0010
0100
,  // measure 49
0002
0000
0013
0100
2000
0000
3100
0000
,  // measure 50
1000
0000
1001
0000
0010
0010
0100
0100
,  // measure 51
0002
0000
0013
0001
2000
0000
3010
1000
,  // measure 52
0010
0100
0001
0100
0020
0000
0130
0000
,  // measure 53
0210
0000
0301
1000
0200
0000
1300
0001
,  // measure 54
0010
0001
1000
0001
1000
0010
0100
0001
,  // measure 55
0102
0000
0103
0001
0020
0000
0031
1000
,  // measure 56
0002
0000
1003
0010
0100
0010
1000
0100
,  // measure 57
0002
0000
0103
1000
0002
0000
0103
0010
,  // measure 58
0200
0000
0310
0000
1000
0001
1000
0001
,  // measure 59
2001
0001
0001
0001
0001
0001
0001
0001
,  // measure 60
3001
0000
0000
0000
;

//---------------dance-single - ----------------
#NOTES:
     dance-single:
     :
     Challenge:
     13:
     0.539,0.573,0.222,0.062,0.396: // measure 1
0000
0000
0000
0000
,  // measure 2
0000
0000
0000
0000
,  // measure 3
0000
0000
0000
0000
,  // measure 4
0000
0000
0000
0000
,  // measure 5
0000
0000
0000
0000
,  // measure 6
0110
0000
0010
0000
0010
0000
0010
0000
0010
0000
0010
0000
0010
0000
1000
0001
,  // measure 7
0100
0000
0100
0000
0100
0000
0100
0000
0100
0000
0100
0000
0001
0010
0100
0010
,  // measure 8
0001
0000
0001
0000
0001
0000
0001
0000
0001
0000
0001
0000
0001
0000
1000
0100
,  // measure 9
0010
0000
0010
0000
0010
0000
0100
1000
0002
0000
0000
0000
0003
0000
0000
0000
,  // measure 10
1001
0010
0100
0010
0100
0001
1000
0000
,  // measure 11
0001
0010
0100
0010
0001
1000
0001
0000
,  // measure 12
1000
0100
1000
0010
0100
0010
1000
0001
,  // measure 13
0200
0001
0010
1300
,  // measure 14
0001
1000
0001
0100
0001
0010
0002
0000
,  // measure 15
1003
0001
1000
0100
1000
0010
2000
0000
,  // measure 16
3010
0000
0100
0000
0010
0000
1000
0000
0010
0000
0100
0000
0010
0000
0100
0001
,  // measure 17
0200
0000
0000
0000
0301
0000
1001
0000
0000
0000
0110
0000
0000
1001
0000
0000
,  // measure 18
0001
0100
0001
1000
0010
0100
0110
1000
,  // measure 19
0100
0010
0100
1000
0001
0100
0101
0001
,  // measure 20
1000
0010
1000
0100
0001
0100
2001
0000
,  // measure 21
3010
0000
1100
0000
0001
0110
0000
1001
,  // measure 22
0010
0001
1000
0100
1100
0001
0100
0001
,  // measure 23
0011
0100
0010
0001
1000
1001
0000
0110
,  // measure 24
0100
0000
0001
0000
1000
0000
0010
0000
1000
0100
1000
0100
0010
0001
0010
0001
,  // measure 25
1000
0001
1000
0001
0100
0010
0100
0010
0200
0000
0010
0000
0000
0310
0000
0000
,  // measure 26
1001
0000
0000
0001
0010
0000
0001
0000
1000
0000
0100
0000
1000
0000
0010
0000
,  // measure 27
0100
0000
0000
0100
0010
0000
1000
0000
0010
0000
0100
0000
0001
0000
1000
0000
,  // measure 28
0001
0000
0000
1000
0100
0000
1000
0000
0010
0000
1000
0000
0100
0000
0001
0000
,  // measure 29
0100
0000
0000
1000
0010
0000
0100
0000
0010
0000
1000
0000
0001
0000
0100
0000
,  // measure 30
0001
0000
0000
0001
1000
0000
0001
0000
1000
0000
0000
1000
0010
0000
0100
0000
,  // measure 31
0010
0000
0000
0010
1000
0000
0000
1000
0100
0000
1000
0000
0001
0000
0100
0000
,  // measure 32
0001
0000
0010
0000
0100
0000
1000
0000
0001
0010
0001
0010
0100
1000
0100
1000
,  // measure 33
0001
0100
0001
0100
0010
1000
0010
1000
0001
0000
1000
0000
0001
1000
0100
0000
,  // measure 34
1000
0000
1001
0000
0010
0000
0100
0000
0001
0000
0000
0100
0001
0000
0100
0000
,  // measure 35
0001
0010
0100
0000
1000
0100
0010
0000
0100
1000
0001
0000
1000
0000
1001
0000
,  // measure 36
0010
0000
0100
0000
0010
0000
1000
0000
0010
0100
0010
0001
0010
0000
1000
0000
,  // measure 37
0100
0000
0010
0000
0100
0000
1000
0000
0100
0010
0100
0001
0100
0000
1000
0000
,  // measure 38
1001
0000
0100
0000
1000
0000
0100
0000
1000
0000
0000
0010
1000
0000
0000
0001
,  // measure 39
0010
0001
0010
0000
0100
1000
0100
0000
1000
0001
1000
0000
0110
0000
1000
0000
,  // measure 40
0001
0000
0010
0000
0100
0010
0001
0000
1000
0100
0010
0001
0010
0000
0001
0000
,  // measure 41
0100
0000
0010
0000
1000
0010
0100
0000
0010
1000
0001
0100
0001
0000
1000
0000
,  // measure 42
0002
1000
0000
0100
0100
0103
0110
0000
,  // measure 43
1001
0000
0000
0001
1000
0000
0100
1000
0100
0000
1100
0000
0001
0000
0100
0001
,  // measure 44
0100
0000
0100
0000
0010
0000
0000
0010
1000
0000
1010
0000
0020
0000
0000
0000
,  // measure 45
1030
0000
0010
0000
0100
0000
0010
1000
0010
0000
0110
0000
0001
0000
0010
0001
,  // measure 46
0010
0000
0100
0000
1000
0000
0001
1000
0100
0000
1000
0000
0001
0000
1000
0000
,  // measure 47
0110
0000
0000
0100
0001
0000
0010
0001
0010
0000
0100
1000
0100
0000
1000
0001
,  // measure 48
1000
0000
0001
0100
0010
0100
0001
0010
0100
1000
0001
0010
0100
1000
0001
0000
,  // measure 49
0011
0000
0000
0100
1000
0000
0010
0000
1000
0000
0000
0001
0100
0000
0001
0000
,  // measure 50
0010
0000
0100
0010
0100
0010
0001
1000
0001
1000
0001
0010
0100
0010
0001
1000
,  // measure 51
1001
0000
0000
0010
1000
0000
0001
1000
0001
0000
1001
0000
0010
0000
1000
0100
,  // measure 52
1000
0000
0010
0000
0100
0000
0000
0100
0001
0000
0011
0000
0001
0000
0000
0001
,  // measure 53
1000
0000
0100
0000
1000
0000
0001
0010
0001
0000
0110
0000
0100
0000
1000
0001
,  // measure 54
1000
0000
0010
0000
1000
0000
0001
0100
0001
0000
0010
0000
0001
0000
0100
0000
,  // measure 55
0101
0000
0000
0001
0100
0000
0001
1000
0010
0000
0100
0010
1000
0000
0001
0100
,  // measure 56
1000
0000
0100
0001
0010
1000
0010
0001
1000
0100
0001
0100
1000
0001
0100
0010
,  // measure 57
1000
0000
0010
1000
0100
0000
1000
0000
0010
0000
0100
0001
0010
0000
0100
0000
,  // measure 58
0010
0000
0001
0100
0001
1000
0001
1000
0001
0010
0001
0010
0100
1000
0100
1000
,  // measure 59
0010
0100
0001
1000
0001
0100
0001
0100
0010
1000
0010
1000
0001
1000
0001
1000
,  // measure 60
0100
0000
0000
0000
;
