#TITLE:夜間行 (super heavy YUMIX);
#SUBTITLE:;
#ARTIST:Des-ROW;
#TITLETRANSLIT:YAKANKOU (super heavy YUMIX);
#SUBTITLETRANSLIT:;
#ARTISTTRANSLIT:;
#GENRE:;
#CREDIT:;
#MENUCOLOR:;
#NEWMETERSYSTEM:NO;
#BANNER:YAKANKOU (super heavy yumix).png;
#BACKGROUND:YAKANKOU (super heavy yumix)-bg.png;
#LYRICSPATH:;
#CDTITLE:./CDTITLES/KONAMI ORIGINAL REMIX.PNG;
#MUSIC:YAKANKOU (super heavy yumix).mp3;
#OFFSET:-2.489;
#SAMPLESTART:49.197;
#SAMPLELENGTH:15.000;
#SELECTABLE:YES;
#LISTSORT:;
#DISPLAYBPM:103.000:205.000;
#BPMS:0.000=102.500,80.000=205.000;
#STOPS:;
#BGCHANGES:;
#ATTACKS:;

//---------------dance-single - ----------------
#NOTES:
     dance-single:
     :
     Beginner:
     3:
     0.161,0.184,0.010,0.000,0.000:
0000
0000
0000
0000
,
0000
0000
0000
0000
,
0000
0000
0000
0000
,
0000
0000
0000
0000
,
1000
0000
0001
0000
,
0100
0000
0010
0000
,
1000
0000
0100
0000
,
0010
0000
0001
0000
,
1000
0000
0001
0000
,
0100
0000
0010
0000
,
1000
0000
0100
0000
,
0001
0000
0010
0000
,
1000
0000
0001
0000
,
0100
0000
0010
0000
,
1000
0000
0010
0000
,
0001
0000
0100
0000
,
0001
0000
0010
0000
,
1000
0000
0100
0000
,
0001
0000
0100
0000
,
0010
0000
1000
1000
,
1000
1000
1000
0000
,
0001
0000
0100
0000
,
0001
0001
0001
0000
,
0010
0000
0001
0000
,
1000
1000
1000
0000
,
0010
0000
1000
0000
,
0000
0010
0000
0010
,
0000
0100
0000
0100
,
0100
0000
0001
0000
,
1000
0000
0010
0000
,
1000
0000
0001
0000
,
0100
0000
0001
0000
,
1000
0000
0100
0000
,
0010
0000
0001
0000
,
1000
0000
1000
0000
,
1000
0000
1000
0000
,
0001
0000
0000
0000
,
0000
0000
0000
0000
,
0000
0000
0000
0000
,
0000
0000
0000
0000
,
0000
0010
0000
0010
,
0000
1000
0000
1000
,
1000
0000
0001
0000
,
0100
0000
0000
0000
,
0001
0000
1000
0000
,
0001
0000
1000
0000
,
0010
0000
0100
0000
,
0010
0000
0100
0000
,
0010
0000
1000
0000
,
0001
0000
1000
0000
,
0001
0000
0010
0000
,
0100
0000
1000
0000
,
0100
0000
1000
0000
,
0001
0000
1000
0000
,
0010
0000
0100
0000
,
0001
0000
1000
0000
,
0100
0000
0001
0000
,
0010
0000
1000
0000
,
0001
0000
0100
0000
,
0010
0000
1000
0000
,
1001
0000
0000
0000
;

//---------------dance-single - ----------------
#NOTES:
     dance-single:
     :
     Easy:
     5:
     0.297,0.311,0.041,0.051,0.000:
0000
0000
0000
0000
,
0000
0000
0000
0000
,
0000
0000
0000
0000
,
0000
0000
0000
0000
,
1000
1000
0001
0100
,
0001
0001
1000
0010
,
0100
0100
0010
1000
,
0001
0010
0100
1000
,
0100
0100
0010
0010
,
1000
1000
0001
1001
,
0001
0001
0100
0100
,
0010
1000
0001
1001
,
1000
0100
0010
0001
,
1000
0100
0001
0100
,
1000
0010
0001
0010
,
1000
0001
0100
0010
,
1000
1000
0002
0003
,
0001
0001
2000
3000
,
0010
0010
0200
0300
,
0001
0010
0100
1000
,
0100
0100
0100
0000
,
1000
0001
0100
0001
,
0010
0010
0010
0000
,
0001
0010
0100
1000
,
0100
1000
0001
0000
,
1000
0010
0100
0001
,
1000
0000
1000
0000
,
1000
0010
0100
0001
,
1000
1000
1000
1000
,
1000
1000
1000
0000
,
0001
0001
0001
0001
,
0001
0001
0001
0000
,
0010
0010
0010
0010
,
0010
0010
0010
0000
,
0100
0100
0100
0100
,
0100
0100
0010
1000
,
0001
0000
0010
0000
,
0100
1000
0100
0000
,
1000
0000
0001
0000
,
1000
0010
0100
0000
,
0000
0010
0000
1000
,
0000
0001
0000
0100
,
0000
0001
0000
0010
,
0100
1000
0100
0000
,
1000
1000
1000
0001
,
0001
0100
0100
0000
,
0001
0001
0001
0001
,
1000
1000
0010
0010
,
0100
0000
0010
1000
,
0001
0100
0001
1000
,
0100
0000
0010
0100
,
1000
0100
0001
0100
,
1000
0000
0001
0001
,
0001
0001
0001
0000
,
1000
0000
1000
1000
,
0010
0010
0100
0010
,
1001
0000
0100
0100
,
0001
0100
0010
1000
,
0001
0001
0001
0001
,
1000
1000
1000
1000
,
2002
0000
0000
3003
;

//---------------dance-single - ----------------
#NOTES:
     dance-single:
     :
     Medium:
     10:
     0.501,0.559,0.184,0.123,0.000: // measure 1
0000
0000
0000
0000
,  // measure 2
0000
0000
0000
0000
,  // measure 3
0000
0000
0000
0000
,  // measure 4
0000
0000
0000
0000
,  // measure 5
0100
0001
0010
0000
0001
1000
0001
0000
,  // measure 6
1000
0010
0100
0000
0010
1000
0001
0100
,  // measure 7
0001
1000
0010
0000
1000
0100
0010
0000
,  // measure 8
0100
0100
1000
1000
0001
0001
0010
0001
,  // measure 9
1001
0000
0100
0010
1000
0010
0102
0000
,  // measure 10
1003
0100
0010
0100
1000
0001
1001
0000
,  // measure 11
0001
0100
0010
1000
0001
1000
2010
0000
,  // measure 12
3010
0100
0001
1000
1001
0000
0110
0000
,  // measure 13
0100
0100
0001
0001
0010
0010
1000
1000
,  // measure 14
0010
0010
0001
0001
0200
0000
0300
0000
,  // measure 15
0010
0010
1000
1000
0010
0010
0001
0001
,  // measure 16
0100
0100
1000
1000
0010
1000
0001
0100
,  // measure 17
0002
0000
0013
0000
0100
1000
0100
0000
,  // measure 18
2000
0000
3010
0000
0100
0001
0100
0000
,  // measure 19
0002
0000
1003
0000
0001
1000
0100
1000
,  // measure 20
0010
0000
0100
0000
0001
1000
0001
1000
,  // measure 21
0010
0100
0001
1000
,  // measure 22
0100
0010
0100
0000
1000
0001
0000
0000
,  // measure 23
0100
0000
0001
0000
1000
0010
1000
0000
,  // measure 24
0010
0100
2002
3003
,  // measure 25
0001
0000
0010
0000
0100
0010
0001
0000
,  // measure 26
1000
0000
0100
0000
0010
0001
0000
0000
,  // measure 27
1000
0000
0010
1000
0000
0010
1000
0000
,  // measure 28
0001
0100
0000
0000
0010
0000
1001
0000
,  // measure 29
0100
0010
0100
0000
0100
0010
0100
0000
,  // measure 30
0001
1000
0001
0000
1000
0001
0000
0000
,  // measure 31
1000
0001
1000
0000
1000
0001
1000
0000
,  // measure 32
1000
0010
0100
0000
0220
0000
0330
0000
,  // measure 33
0010
1000
0010
0000
0100
0001
0100
0000
,  // measure 34
0001
0100
0010
0000
1000
0001
0000
0000
,  // measure 35
1000
0100
0001
0000
0001
0100
1000
0000
,  // measure 36
1000
0010
0001
0000
0001
0010
1000
0000
,  // measure 37
1001
0000
0100
0001
0000
1000
0100
0000
,  // measure 38
1000
0010
0000
0100
0001
0000
0100
0000
,  // measure 39
0001
0000
0010
0001
0000
1000
0100
0000
,  // measure 40
1000
0010
0000
0100
0001
0000
0110
0000
,  // measure 41
0010
0000
1000
0001
0000
0010
0100
0000
,  // measure 42
1000
0001
0000
0100
0010
0000
1001
0000
,  // measure 43
0100
0000
0001
1000
0000
0010
1000
0000
,  // measure 44
0010
0100
0000
0001
0010
0000
1100
0000
,  // measure 45
1000
0000
0100
0000
0010
0001
0010
0000
,  // measure 46
0001
0100
0001
0000
0100
0000
0010
0000
,  // measure 47
1000
0000
0100
0000
1000
0001
1000
0000
,  // measure 48
0001
0100
0001
0000
1000
0000
0010
0000
,  // measure 49
0100
0000
0001
0000
0010
0100
1000
0000
,  // measure 50
0100
0010
0001
0000
1000
0000
0100
0000
,  // measure 51
1000
0000
0001
0000
0100
0001
1000
0010
,  // measure 52
0100
0010
1000
1001
,  // measure 53
0100
0001
0100
0000
0100
0001
0100
0000
,  // measure 54
0010
1000
0010
1000
0010
0000
0110
0000
,  // measure 55
1000
0100
1000
0000
1000
0100
1000
0000
,  // measure 56
0010
0001
0010
0001
0010
0000
1001
0000
,  // measure 57
0100
0001
0100
0000
0010
1000
0001
0000
,  // measure 58
1000
0001
0100
0001
1000
0000
0110
0000
,  // measure 59
0010
1000
0100
0000
0010
0001
0100
0000
,  // measure 60
0001
0100
0010
1000
0001
0100
0010
0000
,  // measure 61
0220
0000
0000
0330
;

//---------------dance-single - ----------------
#NOTES:
     dance-single:
     :
     Hard:
     13:
     0.633,0.839,0.266,0.123,0.179: // measure 1
0000
0000
0000
0000
,  // measure 2
0000
0000
0000
0000
,  // measure 3
0000
0000
0000
0000
,  // measure 4
0000
0000
0000
0000
,  // measure 5
0001
0000
0000
0100
0001
0000
1000
0000
1001
0000
0000
1000
0010
0000
0100
0000
,  // measure 6
0110
0000
0000
0010
1000
0000
0001
0000
0011
0000
0000
0100
1000
0000
0100
0000
,  // measure 7
1100
0000
0000
0010
0100
0000
1000
0000
1001
0000
0000
0001
0100
0000
0001
0000
,  // measure 8
1000
0001
1000
0001
0100
0010
0100
0010
1000
0100
1000
0100
0010
0001
0010
0001
,  // measure 9
1000
0000
0000
0001
0100
0000
0001
0000
0010
0000
0100
0000
0210
0000
0000
0000
,  // measure 10
0310
0001
1000
0001
0100
0010
1010
0000
,  // measure 11
1100
0000
0100
0000
1000
0001
0000
0001
1000
0000
0010
0000
2010
0000
0000
0000
,  // measure 12
3001
0000
0100
0000
0001
0000
1000
0100
0020
0000
0000
0000
0130
0000
0000
0000
,  // measure 13
1000
0100
0001
0001
0100
1000
0010
0010
,  // measure 14
0001
0010
1000
0100
0010
0001
1002
0000
,  // measure 15
1003
1001
0001
1001
0010
0110
2010
3001
,  // measure 16
0100
0001
0010
0100
0220
0330
0001
1000
,  // measure 17
1010
0000
0000
0100
0000
0100
0000
0100
0010
0000
1000
0001
0000
0001
0000
0000
,  // measure 18
0011
0000
0000
0100
0000
0100
0000
0100
0010
0000
0001
1000
0000
1000
0000
0000
,  // measure 19
1001
0000
0000
0100
0000
0001
0000
1000
0010
0000
0100
0010
0000
1000
0000
0001
,  // measure 20
0100
0000
0001
0000
0010
0000
0100
2000
0000
0000
0000
0000
3000
0000
0000
0000
,  // measure 21
0001
1000
0001
1000
0010
1000
0010
1000
,  // measure 22
0001
0100
0010
1000
0100
0020
0000
0000
,  // measure 23
0031
0010
0100
1000
0001
0010
0100
1000
,  // measure 24
0001
0010
0100
0010
0001
0000
1001
0000
,  // measure 25
1000
0010
0100
0010
1000
0010
0100
0010
,  // measure 26
1000
0100
0001
0100
1000
0002
0000
0003
,  // measure 27
0100
0000
0010
1000
0000
0001
1000
0000
,  // measure 28
0001
0010
0000
0100
1000
0000
1100
0000
,  // measure 29
1000
0100
0010
0001
1000
0100
0010
0001
,  // measure 30
1000
0100
0010
0001
0100
0001
0000
0001
,  // measure 31
1000
0001
0010
0100
0010
0001
0100
0010
,  // measure 32
1000
0010
0100
0001
2000
0000
3001
0000
,  // measure 33
1000
0001
0100
0010
1000
0001
0100
0010
,  // measure 34
1000
0001
0100
0010
1000
0100
0000
0100
,  // measure 35
1000
0010
0001
0010
1000
0100
0001
0100
,  // measure 36
1000
0001
1000
0001
0100
0010
0100
0010
,  // measure 37
1001
0000
0010
0100
0000
0100
0001
0000
,  // measure 38
1000
0100
0000
0100
0010
0000
0001
0000
,  // measure 39
0100
0000
0001
0100
0000
0100
0010
0000
,  // measure 40
1000
0010
0000
0010
0001
0000
0010
0000
,  // measure 41
1000
0000
0100
0001
0000
0001
0100
0000
,  // measure 42
1000
0100
0000
0100
1000
0000
1001
0000
,  // measure 43
0010
0000
0100
0001
0000
1000
0001
0000
,  // measure 44
1000
0010
0000
0100
0010
0000
0110
0000
,  // measure 45
0010
1000
0010
1000
0010
0100
0010
0100
,  // measure 46
0010
0001
0010
0001
0010
1000
0000
1000
,  // measure 47
0001
0010
0001
0010
0100
0010
0100
0010
,  // measure 48
0001
0010
0100
1000
0100
1000
0000
1000
,  // measure 49
0001
0100
0010
1000
0010
0100
0001
1000
,  // measure 50
0100
0001
0100
1000
0001
1000
0000
0010
,  // measure 51
1000
0010
0100
0001
1000
0100
0001
0100
,  // measure 52
1000
0001
0100
0010
1000
0010
0000
0010
,  // measure 53
0100
0000
0011
0000
1000
0100
0010
0100
,  // measure 54
1000
0001
0100
0010
1000
0010
0100
0000
,  // measure 55
0010
0000
1010
0000
0010
1000
0001
0100
,  // measure 56
0001
1000
0001
0010
0001
1000
0010
0000
,  // measure 57
0100
0000
0110
0000
0001
1000
0100
1000
,  // measure 58
0100
0010
0001
0100
0010
1000
0001
0000
,  // measure 59
1000
0001
0100
0000
0001
1000
0010
0000
,  // measure 60
1000
0001
0100
0010
1000
0100
0001
0100
,  // measure 61
2000
0000
0000
3000
;
