#TITLE:Y&Co. is dead or alive;
#SUBTITLE:;
#ARTIST:Y&Co.;
#TITLETRANSLIT:;
#SUBTITLETRANSLIT:;
#ARTISTTRANSLIT:;
#GENRE:;
#CREDIT:;
#MENUCOLOR:;
#METERTYPE:DDR;
#BANNER:Y&Co. is dead or alive.png;
#BACKGROUND:Y&Co. is dead or alive-bg.png;
#LYRICSPATH:;
#CDTITLE:./CDTITLES/BEATMANIA IIDX.PNG;
#MUSIC:Y&Co. is dead or alive.ogg;
#OFFSET:0.000;
#SAMPLESTART:96.000;
#SAMPLELENGTH:15.000;
#SELECTABLE:YES;
#LISTSORT:;
#DISPLAYBPM:145.000:876.000;
#BPMS:0.000=145.000,197.000=153.000,198.000=154.000,199.000=163.000,200.000=167.000,202.000=175.000,203.000=178.000,204.000=181.000,205.000=188.000,206.000=194.000,207.000=204.000,209.000=218.000,210.000=221.000,211.000=240.000,212.000=246.000,213.000=268.000,214.000=265.000,215.000=290.000,216.000=294.000,218.000=300.000,219.000=325.000,221.000=375.000,222.000=350.000,223.000=392.000,224.000=420.000,226.000=388.000,227.000=510.000,228.000=468.000,231.000=540.000,240.000=694.000,242.000=822.000,246.000=840.000,247.000=876.000,292.000=145.000;
#STOPS:;
#BGCHANGES:0.000=Y&Co. is dead or alive.avi=1.000=0=0=0,
99999=-nosongbg-=1.000=0=0=0 // don't automatically add -songbackground-
;
#ATTACKS:;

//---------------dance-single - ----------------
#NOTES:
     dance-single:
     :
     Beginner:
     3:
     0.140,0.246,0.008,0.000,0.000:
0000
0000
0000
0000
,
0000
0000
0000
0000
,
0000
0000
0000
0000
,
0000
0000
0000
0000
,
0000
0000
0000
0000
,
1000
1000
1000
0000
,
0001
0001
0001
0000
,
0100
0100
0100
0000
,
0010
0010
0010
0000
,
1000
0000
0001
0000
,
0100
0000
0010
0000
,
1000
0000
0001
0000
,
0100
0000
0000
0000
,
0010
0000
0010
0000
,
1000
0000
1000
0000
,
0001
0000
0001
0000
,
0100
0000
0100
0000
,
0010
0000
1000
0000
,
0001
0000
0100
0000
,
0010
0000
1000
0000
,
0001
0000
0100
0000
,
1001
0000
0000
0000
,
0100
0000
0000
0000
,
0010
0000
0000
0000
,
1000
1000
1000
0000
,
0001
0000
0000
0000
,
0100
0000
0100
0000
,
0100
0000
0100
0000
,
0100
0000
0100
0000
,
0010
0010
0010
0000
,
1000
0000
0001
0000
,
1000
1000
1000
0000
,
0100
0000
0010
0000
,
0001
0000
0000
0000
,
0000
0000
0000
0000
,
0100
0000
0000
0000
,
0000
0000
0000
0000
,
0000
0010
0000
0010
,
0000
0100
0000
0100
,
0000
0001
0000
0001
,
0001
0000
0000
0000
,
1000
0000
1000
0000
,
0100
0000
0010
0000
,
0001
0000
0001
0000
,
0100
0000
0010
0000
,
1000
0000
0001
0000
,
0100
0000
0010
0000
,
1000
0000
0001
0000
,
1000
0000
0000
0000
,
1000
0000
1000
0000
,
1000
0000
1000
0000
,
1000
0000
1000
0000
,
1000
0000
1000
0000
,
0001
0000
0000
0000
,
0000
0000
0000
0000
,
0000
0000
0000
0000
,
0000
0000
0000
0000
,
0000
0000
0000
0000
,
0000
0000
0000
0000
,
0000
0000
0000
0000
,
0000
0000
0000
0000
,
0000
0000
0000
0000
,
0000
0000
0000
0000
,
0000
0000
0000
0000
,
0000
0000
0000
0000
,
0000
0000
0000
0000
,
0000
0000
0000
0000
,
0000
0000
0000
0000
,
0000
0000
0000
0000
,
0000
0000
0000
0000
,
0000
0000
0000
0000
,
0000
0000
0000
0000
,
0000
0000
0000
0000
,
0000
0000
0000
0000
,
0100
0100
0100
0000
,
0010
0010
0010
0000
,
1000
1000
1000
0000
,
0001
0001
0001
0000
,
1000
0000
0000
0000
,
0100
0000
0000
0000
,
0001
0000
0000
0000
,
0010
0000
1000
0000
,
0100
0000
0001
0000
,
0010
0000
1000
0000
,
0100
0000
1000
0000
,
0010
0000
0001
0000
,
0100
0000
0010
0000
,
1000
0000
0001
0000
,
1000
0000
0100
0000
,
0010
0000
0000
0000
;

//---------------dance-single - ----------------
#NOTES:
     dance-single:
     :
     Easy:
     6:
     0.292,0.427,0.126,0.332,0.000:
0000
0000
0000
0000
,
0000
0000
0000
0000
,
0000
0000
0000
0000
,
0000
0000
0000
0000
,
0000
0000
0000
0000
,
1000
1000
0001
1000
,
0001
0001
1000
0001
,
0100
0100
0010
0100
,
0010
0010
1000
0001
,
1000
1000
0100
0010
,
0001
0001
0100
0010
,
1000
0100
0010
0001
,
2000
0000
0000
3000
,
0001
0001
0001
0001
,
0100
0100
0100
0100
,
0010
0010
0010
0010
,
1000
1000
1000
1000
,
0001
1000
0001
1000
,
0010
0100
0010
0100
,
0001
1000
0010
0100
,
0001
1000
0100
0010
,
0002
1003
0000
1000
,
0200
0310
0000
0010
,
2000
3100
0000
0100
,
1000
0010
0100
0001
,
1001
0000
1000
0000
,
0002
0003
0002
0003
,
0002
0003
0002
0003
,
0002
0003
0002
0003
,
0100
0010
1000
0001
,
1001
0010
0100
0010
,
1001
0100
1000
0001
,
0200
0000
0020
0330
,
2000
0000
0000
0000
,
3002
0000
0000
0000
,
0203
0000
0000
0000
,
0320
0000
0000
0000
,
2030
3000
0002
0003
,
0200
0300
0020
0030
,
2000
3000
0002
0003
,
0200
0000
0000
0300
,
0010
1000
0010
1010
,
0100
0001
0100
0101
,
0001
1000
0100
1100
,
0100
0010
0001
0011
,
0001
1000
0010
0110
,
0010
1000
0001
1001
,
0100
0010
1000
0001
,
2000
0000
0000
3000
,
0001
0000
0001
0000
,
0001
0000
0001
0000
,
1000
0000
1000
0000
,
1000
0000
1000
0000
,
1000
0000
1000
0000
,
1000
0000
1000
0000
,
0001
0000
0001
0000
,
0001
0000
0001
0000
,
1000
0000
0000
0000
,
0000
0000
0000
0000
,
0000
0000
0000
0000
,
1000
0000
0000
0000
,
0000
0000
0000
0000
,
0000
0000
0000
0000
,
0000
0000
0000
0000
,
0000
0000
0000
0000
,
0000
0000
0000
0000
,
0000
0000
0000
0000
,
0000
0000
0000
0000
,
0000
0000
0000
0000
,
0000
0000
0000
0000
,
0000
0000
0000
0000
,
0000
0000
0000
0000
,
0000
0000
0000
0000
,
0000
0000
0020
0030
,
0100
0100
0010
1001
,
0100
0100
0010
0110
,
1000
1000
0001
1001
,
1000
1000
0001
0110
,
0020
0030
2000
3000
,
0002
0003
0200
0300
,
0002
0003
2000
3000
,
0020
0000
0000
0030
,
1000
0100
0001
0100
,
1000
0100
0001
0100
,
1000
0010
0001
0010
,
1000
0010
0001
0010
,
2000
3000
2000
3000
,
2000
3000
2000
3000
,
2002
3003
2002
3003
,
0220
0000
0000
0000
,
0330
0000
0000
0000
;

//---------------dance-single - ----------------
#NOTES:
     dance-single:
     :
     Medium:
     10:
     0.436,0.783,0.229,0.419,0.075:
0000
0000
0000
0000
,
0000
0000
0000
0000
,
0000
0000
0000
0000
,
0000
0000
0000
0000
,
0000
0000
0000
0000
,
0001
0100
0001
0000
0100
0000
0010
0000
,
1000
0100
1000
0000
0100
0000
0010
0000
,
0001
1000
0100
0000
1000
0000
0001
0000
,
1000
0001
0100
0000
0001
0000
1000
0000
,
0001
0100
0010
0000
0100
0000
0001
0000
,
1000
0100
0010
0000
0100
0000
1000
0000
,
0001
1000
0100
0000
1000
0000
0010
0000
,
0200
0000
0000
0300
,
0001
0000
0000
0001
0000
0000
0001
0000
1000
0000
0000
0000
1001
0000
0000
0000
,
1000
0000
0000
1000
0000
0000
1000
0000
0001
0000
0000
0000
1001
0000
0000
0000
,
0010
0000
0000
0010
0000
0000
0010
0000
0100
0000
0000
0000
0101
0000
0000
0000
,
0100
0000
0000
0100
0000
0000
0100
0000
0010
0000
0000
0000
1010
0000
0000
0000
,
0010
0000
0000
1000
0000
0000
0001
0000
0100
0000
0000
0000
0100
0000
0000
0000
,
0010
0000
0000
0001
0000
0000
1000
0000
0100
0000
0000
0000
0100
0000
0000
0000
,
1000
0000
0000
0100
0000
0000
0010
0000
0001
0000
0000
0000
1000
0000
0000
0000
,
0001
0000
0000
0100
0000
0000
0001
0000
1000
0000
0000
0000
0100
0000
0000
0000
,
2001
0010
0000
3010
,
0200
0001
0000
0301
,
0020
0100
0000
0130
,
1000
0100
0020
0030
,
0101
0000
0001
0000
1000
0001
0100
0000
,
2020
0000
3030
2020
0000
3030
2200
0000
,
3300
2200
0000
3300
0022
0000
0033
0202
,
0000
0303
0202
0000
0303
2002
3003
0001
,
1000
0000
0001
0000
0100
0000
0010
0100
,
0001
0000
0010
0000
1000
0000
0010
0001
,
0100
0000
0001
0000
1000
0000
0100
0010
,
0001
0000
1000
0000
0010
0000
0100
0010
,
2000
0000
0000
0000
0000
0000
0000
0000
0010
0000
0000
0010
0000
0000
3010
0000
,
0200
0000
0000
0000
0000
0000
0000
0000
0010
0000
0000
0010
0000
0000
0310
0000
,
2000
0000
0000
0000
0000
0000
0000
0000
0100
0000
0000
0100
0000
0000
3100
0000
,
0002
0000
0000
0000
0000
0000
0000
0000
0010
0000
0000
0010
0000
0000
0013
0000
,
0002
0103
2000
3010
,
2000
3100
0002
0013
,
0002
0103
0020
0130
,
2002
0000
0000
3003
,
1000
0000
0001
0000
1000
0001
0100
0000
,
0001
0000
1000
0000
0001
1000
0010
0000
,
1000
0000
0100
0000
0010
0001
0100
0000
,
0001
0000
0100
0000
0010
1000
0100
1000
,
0010
0000
0110
0000
0001
1000
0100
0000
,
1000
0000
1001
0000
1000
0001
0200
0000
,
0310
0000
1000
0000
0001
0100
0001
0000
,
1000
0100
0010
0001
,
1000
0100
1000
0000
0100
0000
0100
0000
,
0001
0100
0001
0000
0100
0000
0100
0000
,
0010
0000
1000
0010
0000
0000
1000
0000
0000
1000
0000
0000
,
0001
0000
1000
0001
0000
0000
1000
0000
0000
1000
0000
0000
,
0001
0100
0010
1000
,
0001
0100
0010
1000
,
0001
0000
0100
0000
,
0010
0000
1000
0000
,
0001
0000
0100
0000
,
0010
0000
1000
0000
,
0001
0000
0000
0000
,
0100
0000
0000
0000
,
0000
0000
0000
0000
,
0000
0000
0000
0000
,
0000
0000
0000
0000
,
0000
0000
0000
0000
,
0000
0000
0000
0000
,
0000
0000
0000
0000
,
0000
0000
0000
0000
,
0000
0000
0000
0000
,
0000
0000
0000
0000
,
0000
0000
0000
0000
,
0000
0000
0000
0000
,
0000
0000
0000
0000
,
0000
0000
2000
3000
,
0001
0100
0001
0000
0100
0000
0100
0000
,
0010
1000
0010
0000
1000
0000
1000
0000
,
0100
0010
0100
0000
0010
0000
0010
0000
,
0001
0100
1000
0000
0100
0000
0001
0000
,
1100
0000
0001
0000
0010
0001
0100
0000
,
0101
0000
1000
0000
0010
1000
0100
0000
,
1001
0000
0100
0000
0010
0100
0001
0000
,
1000
0000
0000
0000
1000
0000
0000
1000
0000
0000
1000
0000
0001
0000
0100
0000
,
0001
0000
0010
0000
0100
0000
0000
0000
0010
0001
0000
0000
0001
0000
0000
0000
,
1000
0000
0100
0000
0010
0000
0000
0000
0001
0100
0000
0000
0100
0000
0000
0000
,
0001
0000
1000
0000
0100
0000
0000
0000
0001
1000
0000
0000
1000
0000
0000
0000
,
1000
0000
0001
0000
0100
0000
0000
0000
1000
0001
0000
0000
0001
0000
0000
0000
,
0220
0000
0330
2002
0000
3003
0220
0000
,
0330
2002
0000
3003
0202
0000
0303
2200
,
0000
3300
0022
0000
0033
2200
0000
3300
,
2002
0000
0000
0000
,
3003
0000
0000
0000
;

//---------------dance-single - ----------------
#NOTES:
     dance-single:
     :
     Hard:
     13:
     0.536,0.783,0.198,0.237,0.237:
0000
0000
0000
0000
,
0000
0000
0000
0000
,
0000
0000
0000
0000
,
0000
0000
0000
0000
,
0000
0000
0000
0000
,
0010
0000
1000
0000
0100
0000
0000
0100
0000
0000
1000
0000
0010
0000
0000
0000
,
0100
0000
0001
0000
1000
0000
0000
1000
0000
0000
0001
0000
0010
0000
0000
0000
,
0001
0000
0010
0000
0001
0000
0000
0001
0000
0000
1000
0000
0100
0000
0000
0000
,
1000
0000
0100
0000
0010
0000
0000
0010
0000
0000
0001
0000
1000
0000
0000
0000
,
0010
0000
0100
0000
0010
0000
0000
0010
0000
0000
1000
0000
0100
0000
0000
0000
,
1000
0000
0001
0000
0100
0000
0000
0100
0000
0000
0001
0000
0010
0000
0000
0000
,
0001
0000
0100
0000
0010
0000
0000
0010
0000
0000
1000
0000
0001
0000
0000
0000
,
2000
0000
0000
3000
,
0001
0000
0000
0001
0000
0000
0100
0000
0010
0000
0100
0000
0001
0000
0000
0000
,
1000
0000
0000
1000
0000
0000
0100
0000
0010
0000
0100
0000
1000
0000
0000
0000
,
0010
0000
0000
0010
0000
0000
0100
0000
0001
0000
1000
0000
0010
0000
0000
0000
,
0100
0000
0000
0100
0000
0000
0001
0000
1000
0000
0100
0000
1000
0000
0000
0000
,
1001
0000
0000
1000
0000
0000
0001
0000
0010
0000
0001
0000
0100
0000
0000
0000
,
0001
0000
0000
0010
0000
0000
0001
0000
0100
0000
0010
0000
1000
0000
0000
0000
,
0010
0000
0000
1000
0000
0000
0010
0000
0100
0000
0001
0000
0010
0000
0000
0000
,
0100
0000
0000
1000
0000
0000
0010
0000
0100
0000
0001
0000
1000
0000
0000
0000
,
1001
0100
0010
0000
2000
0000
3001
0000
,
0001
0010
0100
0000
0010
0001
0000
0001
,
1000
0010
0100
0000
0020
0000
1030
0000
,
0001
0100
0020
0030
,
1000
0000
0000
0001
0000
0000
1000
0000
0001
0000
0100
0000
0001
0000
0000
0000
,
2000
0010
3010
0200
0001
0301
2000
0100
,
3100
0020
0001
0031
0200
0010
0310
2000
,
0001
3001
0200
0001
0301
2000
0100
3100
,
1000
0000
0000
0000
1010
0000
0000
0101
0000
0000
1000
0000
0100
0000
1000
0000
,
0010
0000
0000
0000
0101
0000
0000
1010
0000
0000
1000
0000
0010
0000
0001
0000
,
0010
0000
0000
0000
0110
0000
0000
1001
0000
0000
1000
0000
0001
0000
0100
0000
,
0002
0000
0000
0003
,
2000
0000
0010
0000
0000
0010
0000
0000
0010
0000
0000
0010
0000
0000
3010
0000
,
0100
0000
0002
0000
0000
1000
0000
0000
1000
0000
0000
1000
0000
0000
1003
0000
,
0010
0000
0200
0000
0000
0001
0000
0000
0001
0000
0000
0001
0000
0000
0301
0000
,
0010
0000
0002
0000
0000
0010
0000
0000
0010
0000
0000
0010
0000
0000
0013
0000
,
0001
0000
1000
0000
0100
0000
0000
0000
1000
0000
0000
0010
0000
0000
1010
0000
,
0100
0000
0001
0000
1000
0000
0000
0000
0001
0000
0000
0010
0000
0000
0011
0000
,
0001
0000
0010
0000
0100
0000
0000
0000
0010
0000
0000
0100
0000
0000
1001
0000
,
1000
0010
0100
0000
0001
1000
0100
1000
,
0010
0000
0100
0000
0001
0000
0000
0001
0100
0000
0001
0000
1000
0000
0000
0000
,
0010
0100
0001
0000
1000
0100
0010
0000
,
1000
0100
0001
0100
1000
0010
1000
0000
,
0001
0100
1000
0100
0001
0010
0002
0000
,
1003
0000
0010
0000
0100
0000
0000
0010
0100
0000
0001
0000
1000
0000
0000
0000
,
0001
0000
0010
0000
0100
0000
0000
0010
0001
0000
1000
0000
0020
0000
0000
0000
,
0130
0001
1000
0001
0100
0010
1000
0000
,
0020
0230
0302
2003
,
3001
0100
0001
0000
0001
0100
0001
0000
,
1000
0100
1000
0000
1000
0100
1000
0000
,
0010
0000
0100
0010
0000
0000
0010
0000
0100
0010
0000
0000
,
0001
0000
1000
0001
0000
0000
0001
0000
1000
0001
0000
0000
,
1000
1000
1000
1000
,
0001
0001
0001
0001
,
0010
0000
0100
0000
,
1000
0000
0010
0000
,
0100
0000
0001
0000
,
1000
0000
0001
0000
,
1000
0000
0000
0000
,
0010
0000
0000
0000
,
0000
0000
0000
0000
,
0000
0000
0000
0000
,
0000
0000
0000
0000
,
0000
0000
0000
0000
,
0000
0000
0000
0000
,
0000
0000
0000
0000
,
0000
0000
0000
0000
,
0000
0000
0000
0000
,
0000
0000
0000
0000
,
0000
0000
0000
0000
,
0000
0000
0000
0000
,
0000
0000
0000
0000
,
0100
0000
0100
1001
,
0001
0000
0010
0000
0001
0000
0100
0001
0000
0001
0000
0000
1001
0000
0000
0000
,
1000
0000
0010
0000
1000
0000
0100
1000
0000
1000
0000
0000
1001
0000
0000
0000
,
0100
0000
0010
0000
1000
0000
0010
0100
0000
0100
0000
0000
0110
0000
0000
0000
,
0001
0000
0010
0000
0100
0000
0010
0001
0000
0001
0000
0000
0101
0000
0000
0000
,
1000
0000
0000
0000
1001
0000
0000
0110
0000
0000
0010
0000
1000
0000
0001
0000
,
0100
0000
0000
0000
0101
0000
0000
1100
0000
0000
0001
0000
0010
0000
0100
0000
,
0010
0000
0000
0000
1100
0000
0000
0011
0000
0000
1000
0000
0010
0000
0100
0000
,
0001
0000
0000
0000
1001
0000
0000
1001
0000
0000
1000
0000
0001
0000
0100
0000
,
0001
0000
0010
0000
0100
0000
1000
0000
0100
1000
0000
1000
0010
0000
0100
0000
,
0010
0000
1000
0000
0001
0000
0100
0000
0001
0010
0000
0010
0001
0000
1000
0000
,
0001
0000
0100
0000
0010
0000
1000
0000
0001
0100
0000
0100
0001
0000
1000
0000
,
0100
0000
0010
0000
0001
0000
1000
0000
0100
0010
0000
0010
0100
0000
1000
0000
,
0002
0100
0103
0020
1000
1030
0002
1000
,
1003
0200
0010
0310
0200
1000
1300
0001
,
1000
0000
0001
0100
0001
0000
1000
0010
0000
0010
1000
0000
0001
0000
1000
0000
,
2002
0000
0000
0000
,
3003
0000
0000
0000
;

//---------------dance-single - ----------------
#NOTES:
     dance-single:
     :
     Challenge:
     15:
     0.709,0.818,0.411,0.055,0.569: // measure 1
0000
0000
0000
0000
,  // measure 2
0000
0000
0000
0000
,  // measure 3
0000
0000
0000
0000
,  // measure 4
0000
0000
0000
0000
,  // measure 5
0000
0000
0000
0000
,  // measure 6
0001
0000
0100
0000
0001
0000
1000
0010
0000
1000
0000
1000
0001
0000
0000
0000
,  // measure 7
1000
0000
0100
0000
1000
0000
0001
0010
0000
0001
0000
0001
1000
0000
0000
0000
,  // measure 8
0001
0000
0100
0000
0010
0000
1000
0100
0000
0010
0000
0010
0100
0000
0000
0000
,  // measure 9
1000
0000
0010
0000
0100
0000
0001
0010
0000
0100
0000
0100
1000
0000
0000
0000
,  // measure 10
0001
0000
0100
0000
0001
0000
1000
0010
0000
1000
0000
0001
0100
0000
0000
0000
,  // measure 11
0001
0000
0010
0000
0100
0000
1000
0010
0000
1000
0000
0100
1000
0000
0000
0000
,  // measure 12
0010
0000
0100
0000
0001
0000
1000
0001
0000
0010
0000
0001
0100
0000
0000
0000
,  // measure 13
0220
0000
0000
0330
,  // measure 14
1010
0000
0000
0010
1000
0000
0001
0000
0100
0000
0001
0000
0101
0000
0000
0000
,  // measure 15
0011
0000
0000
0001
0010
0000
0100
0000
1000
0000
0100
0000
1100
0000
0000
0000
,  // measure 16
1001
0000
0000
0001
1000
0000
0010
0000
0100
0000
0010
0000
1001
0000
0000
0000
,  // measure 17
0110
0000
0000
0001
1000
0000
0001
0000
0100
0000
0010
0000
1100
0000
0000
0000
,  // measure 18
1010
0000
0000
1000
0010
0000
0100
0000
0001
0000
0010
0000
0011
0000
0000
0000
,  // measure 19
0101
0000
0000
0001
0100
0000
0001
0000
1000
0000
0100
0000
1100
0000
0000
0000
,  // measure 20
1001
0000
0000
0100
0010
0000
1000
0000
0001
0000
0100
0000
1001
0000
0000
0000
,  // measure 21
1010
0000
0000
0010
0100
0000
0001
0000
1000
0000
0001
1000
0100
0000
0000
0000
,  // measure 22
1001
0010
0100
0000
0010
0001
1000
0000
,  // measure 23
0010
0100
0001
0000
1000
0100
0000
0100
,  // measure 24
1000
0010
1010
0000
0001
0100
0101
0000
,  // measure 25
1000
0000
0001
0000
0100
0000
0010
0000
1000
0000
0001
0000
1000
0001
0000
0001
,  // measure 26
1000
0000
0000
0010
0100
0000
0010
0000
1000
0000
0001
0000
1001
0000
0000
0000
,  // measure 27
0011
0000
0000
0010
0100
0000
0010
0000
0001
0000
0100
0000
0010
0000
1000
0000
,  // measure 28
0010
0000
0000
0010
1000
0000
0001
0000
0100
0000
0001
0000
1000
0000
0100
0000
,  // measure 29
1000
0000
0000
1000
0010
0000
1000
0000
0001
0000
0100
0000
0001
0000
1000
0000
,  // measure 30
1001
0000
0000
0000
0101
0000
0000
1100
0000
0000
0110
0000
0100
0000
1000
0000
,  // measure 31
1001
0000
0000
0000
0110
0000
0000
0101
0000
1000
0100
0000
1000
0000
0010
0000
,  // measure 32
1010
0000
0000
0000
0011
0000
0000
1001
0000
0000
0011
0000
0100
0000
0010
0000
,  // measure 33
0001
1000
0010
0100
0001
1000
0010
0100
,  // measure 34
0001
0000
0010
0000
0001
0100
0000
0001
0010
0000
0001
0100
0000
0001
0010
0000
,  // measure 35
0001
0000
1000
0000
0010
1000
0000
0010
0100
0000
0010
1000
0000
0010
1000
0001
,  // measure 36
1000
0000
0001
0000
0010
0100
0000
0010
1000
0000
0010
0001
0000
0010
0100
0000
,  // measure 37
0010
0000
0001
0000
0100
0001
0000
1000
0001
0000
1000
0010
0000
0100
0010
0000
,  // measure 38
1000
0000
0010
1000
0010
0000
0000
1000
0001
0000
0100
0001
0100
0000
0000
0001
,  // measure 39
0010
0000
0100
0010
0001
0000
0000
1000
0100
0000
0010
0100
1000
0000
0000
0100
,  // measure 40
1000
0000
0001
1000
0001
0000
0000
0100
0001
0000
1000
0001
1000
0000
0000
0010
,  // measure 41
0100
0000
0001
0000
1000
0010
0000
1000
0001
0000
1000
0100
0000
1000
0001
1000
,  // measure 42
0010
0000
0100
0000
0101
0000
0001
1000
0000
1000
0001
0000
1001
0000
0010
0000
,  // measure 43
1000
0100
0001
0010
1000
0100
0001
0010
,  // measure 44
1000
0100
0010
0001
1000
0001
1001
0010
,  // measure 45
0100
0001
0101
0001
1000
0010
2001
0000
,  // measure 46
3001
0000
0100
0000
0001
0010
0000
0001
0100
0000
0001
0010
0000
0001
1000
0001
,  // measure 47
1000
0000
0010
0000
0110
0000
0010
0000
1000
0000
0001
1000
0002
0000
0000
0000
,  // measure 48
1003
0010
1100
1000
0001
0100
0101
0010
,  // measure 49
1000
0000
0001
0000
0100
0010
0000
1000
0001
0000
0100
0010
0000
1000
0001
1000
,  // measure 50
0001
0100
0001
0100
0001
0100
0001
0100
,  // measure 51
0010
1000
0010
1000
0010
1000
0010
1000
,  // measure 52
0001
0000
0100
0010
0000
1000
0001
0000
0100
0010
0000
1000
,  // measure 53
0001
0000
0100
0010
0000
1000
0001
0000
0100
0010
0000
1000
,  // measure 54
0001
0100
0010
1000
,  // measure 55
0001
0100
0010
1000
,  // measure 56
0001
0100
0010
1000
,  // measure 57
0001
0100
0010
1000
,  // measure 58
0001
0100
0010
1000
,  // measure 59
0001
0100
0010
1000
,  // measure 60
0001
0100
0010
1000
,  // measure 61
0000
0000
0000
0000
,  // measure 62
0000
0000
0000
0000
,  // measure 63
0000
0000
0000
0000
,  // measure 64
0000
0000
0000
0000
,  // measure 65
0000
0000
0000
0000
,  // measure 66
0000
0000
0000
0000
,  // measure 67
0000
0000
0000
0000
,  // measure 68
0000
0000
0000
0000
,  // measure 69
0000
0000
0000
0000
,  // measure 70
0000
0000
0000
0000
,  // measure 71
0000
0000
0000
0000
,  // measure 72
0000
0000
0000
0000
,  // measure 73
0000
0000
0000
0000
,  // measure 74
1001
0000
0001
0000
0100
0000
0010
1000
0010
0000
1000
0000
1002
0000
0000
0000
,  // measure 75
1003
0000
0010
0000
0110
0000
0010
1000
0001
1000
0000
1000
0001
0000
0000
0000
,  // measure 76
1000
0000
0100
0000
1100
0000
1000
0100
1000
0001
0000
0001
0100
0000
0000
0000
,  // measure 77
0010
0000
0100
0000
0101
0000
0001
0010
0001
1000
0000
1000
0010
0000
0000
0000
,  // measure 78
0100
0000
0001
0000
1001
0000
0001
0010
0100
0010
0000
0010
0001
0000
0001
0000
,  // measure 79
1000
0000
0010
0000
0101
0000
0001
1000
0000
1000
0001
0000
1000
0000
0100
0000
,  // measure 80
1100
0000
0010
0000
1010
0000
0100
0010
0000
0010
1000
0000
0001
0000
0100
0000
,  // measure 81
0101
0000
0001
0000
1001
0000
0001
0010
0000
0010
0001
0000
1000
0000
0100
0000
,  // measure 82
0010
0000
0100
0000
1000
0000
0001
1000
0000
0001
0100
0000
0010
0000
1000
0000
,  // measure 83
1001
0000
0100
0000
0010
0000
1000
0010
1000
0001
0000
0100
0001
0000
0100
0000
,  // measure 84
0010
0000
1000
0000
0001
0000
0010
0001
0010
0100
0000
1000
0100
0000
1000
0000
,  // measure 85
0010
0000
1000
0000
0001
0000
0100
0001
0100
0010
0000
1000
0001
0000
0100
0000
,  // measure 86
0001
0000
0010
0000
0100
0000
0010
0001
1000
0100
0000
1000
0010
0000
0100
0000
,  // measure 87
0001
0100
0000
0100
0001
0000
1000
0000
0010
1000
0000
1000
0010
0000
0100
0000
,  // measure 88
0010
1000
0000
0100
0010
0000
0001
0000
1000
0100
0000
0010
0100
0000
1000
0000
,  // measure 89
0001
0100
0001
1000
0100
1000
0001
0010
0001
1000
0010
1000
0001
0100
0010
2000
,  // measure 90
0002
0000
0000
0000
,  // measure 91
3003
0000
0000
0000
;
