#TITLE:Vampire Killer;
#SUBTITLE:;
#ARTIST:浅田 靖;
#TITLETRANSLIT:;
#SUBTITLETRANSLIT:;
#ARTISTTRANSLIT:Yasushi Asada;
#GENRE:;
#CREDIT:;
#MENUCOLOR:;
#NEWMETERSYSTEM:NO;
#BANNER:Vampire Killer.png;
#BACKGROUND:Vampire Killer-bg.png;
#LYRICSPATH:;
#CDTITLE:./CDTITLES/GUITAR FREAKS & DRUMMANIA.PNG;
#MUSIC:Vampire Killer.mp3;
#OFFSET:-0.117;
#SAMPLESTART:7.620;
#SAMPLELENGTH:15.000;
#SELECTABLE:YES;
#LISTSORT:;
#BPMS:0.000=256.000;
#STOPS:;
#BGCHANGES:;
#ATTACKS:;

//---------------dance-single - ----------------
#NOTES:
     dance-single:
     :
     Beginner:
     4:
     0.184,0.252,0.026,0.000,0.000:
0000
0000
0000
0000
,
0000
0000
0000
0000
,
0000
0000
0000
0000
,
0000
0000
0000
0000
,
1000
0000
0000
0000
,
1000
0000
0000
0000
,
0001
0000
0000
0000
,
0100
0000
0000
0000
,
0001
0000
0001
0000
,
0001
0000
0000
0000
,
1000
0000
0000
0000
,
0100
0000
0000
0000
,
1000
0000
1000
0000
,
1000
0000
0000
0000
,
0010
0000
0000
0000
,
0100
0000
0000
0000
,
0001
0000
1000
0000
,
0100
0000
0000
0000
,
1000
0000
0000
0000
,
0001
0000
0000
0000
,
1000
0000
0001
0000
,
0010
0000
0000
0000
,
0001
0000
0000
0000
,
0100
0000
0000
0000
,
0000
0000
0010
0000
,
0000
0000
0010
0000
,
0000
0000
0010
0000
,
0000
0000
0010
0000
,
0000
0000
0100
0000
,
0000
0000
0100
0000
,
0000
0000
0100
0000
,
0000
0000
0100
0000
,
0100
0000
0000
0000
,
0010
0000
0000
0000
,
1000
0000
0000
0000
,
0001
0000
0000
0000
,
1000
0000
0000
0000
,
0100
0000
0000
0000
,
0010
0000
0000
0000
,
0001
0000
0000
0000
,
1000
0000
0001
0000
,
1000
0000
0001
0000
,
1000
0000
0000
0000
,
1000
0000
0000
0000
,
0001
0000
1000
0000
,
0001
0000
1000
0000
,
0001
0000
0000
0000
,
0001
0000
0000
0000
,
0000
0000
0010
0000
,
0000
0000
0010
0000
,
0000
0000
0010
0000
,
0000
0000
0010
0000
,
0000
0100
0000
0100
,
0000
0100
0000
0100
,
0000
0100
0000
0100
,
0000
0100
0000
0000
,
1001
0000
0000
0000
,
0100
0000
0000
0000
,
1000
0000
0000
0000
,
0010
0000
0000
0000
,
1001
0000
0000
0000
,
0001
0000
0000
0000
,
0010
0000
0000
0000
,
0001
0000
0000
0000
,
1000
0000
0000
0000
,
0100
0000
0000
0000
,
1000
0000
0000
0000
,
0010
0000
0000
0000
,
0100
0000
0000
0000
,
0001
0000
0000
0000
,
1000
0000
1000
0000
,
0001
0000
0001
0000
,
1000
0000
0100
0000
,
1000
0000
0100
0000
,
0010
0000
0001
0000
,
0010
0000
0001
0000
,
0100
0000
0000
0000
,
0010
0000
0000
0000
,
0100
0000
0001
0000
,
1000
0000
0001
0000
,
0010
0000
0000
0000
,
1000
0000
0000
0000
,
0100
0000
0001
0000
,
1000
0000
0000
0000
,
0010
0000
0000
0000
,
0100
0000
0000
0000
,
0001
0000
0010
0000
,
0100
0000
0000
0000
,
1000
0000
0000
0000
,
1000
0000
0000
0000
,
1000
0000
0000
0000
,
1000
0000
0000
0000
,
0001
0000
0000
0000
,
0001
0000
0000
0000
,
0001
0000
0000
0000
,
0001
0000
0000
0000
,
0100
0000
0100
0000
,
0100
0000
0100
0000
,
0100
0000
0100
0000
,
0100
0000
0100
0000
,
0010
0000
0000
0000
,
0010
0000
0000
0000
,
1000
0000
0000
0000
,
0001
0000
0000
0000
,
1001
0000
0000
0000
,
0001
0000
0000
0000
,
1000
0000
0000
0000
,
0001
0000
0000
0000
,
0010
0000
0010
0000
,
0010
0000
0010
0000
,
0010
0000
0010
0000
,
0010
0000
0000
0000
,
0100
0000
0001
0000
,
1000
0000
0010
0000
,
1000
0000
0001
0000
,
0100
0000
0010
0000
;

//---------------dance-single - ----------------
#NOTES:
     dance-single:
     :
     Easy:
     6:
     0.361,0.471,0.070,0.122,0.000:
0000
0000
0000
0000
,
0000
0000
0000
0000
,
0000
0000
0000
0000
,
0000
0000
0000
0000
,
1001
0000
0100
0000
,
0100
0000
0100
0000
,
0010
0000
1000
0000
,
0001
1000
0001
0100
,
0001
0000
1000
0000
,
0100
0000
1000
0000
,
0001
0000
0010
0000
,
0100
0000
1000
0000
,
0001
0000
0100
0000
,
0001
0000
1000
0000
,
0010
0000
0100
0000
,
0002
0000
0000
0003
,
1000
0000
0001
0000
,
0100
0000
0001
0000
,
1000
0000
0100
0000
,
0010
0000
0001
0000
,
1000
0000
0010
0000
,
0100
0000
0010
0000
,
1000
0000
0001
0000
,
0200
0000
0000
0300
,
0001
0000
1000
0000
,
0001
1000
0001
0000
,
1000
0000
0100
0000
,
0010
0001
0010
0100
,
1000
0000
0100
0000
,
1000
0001
0100
0000
,
0001
0000
1000
0000
,
0001
0010
0100
0010
,
0001
0000
1000
0000
,
0001
0000
0100
0000
,
0010
0000
1000
0000
,
0010
0000
0200
0000
,
0301
0000
0010
0000
,
0001
0000
0010
0000
,
0100
0000
1000
0000
,
0100
0000
1000
0000
,
0001
0000
1000
0000
,
0001
1000
0100
0000
,
1000
1000
0001
0000
,
1000
1000
0010
0000
,
1000
0000
0100
0000
,
0010
0001
0100
0000
,
0001
0001
0100
0000
,
0001
0001
0010
0000
,
0001
1000
0000
0001
,
1000
0001
0000
1000
,
0100
0010
0000
0100
,
1000
0100
0000
1000
,
0010
1000
0000
0001
,
0100
0001
0000
1000
,
0001
0000
0100
0000
,
0001
0000
1000
0000
,
0001
0000
0010
0000
,
0100
0000
1000
0000
,
0100
0000
0010
0000
,
0001
0000
1001
0000
,
0010
0000
0100
0000
,
0010
0000
1000
0000
,
0010
0000
0100
0000
,
0001
0000
1000
0000
,
0001
1000
0000
1000
,
0100
0000
1100
0000
,
0100
0010
0001
0000
,
0100
0010
1000
0000
,
0010
0100
0000
0100
,
0001
0000
0101
0000
,
0001
0100
0010
0000
,
1000
0001
0100
0000
,
0001
0000
1000
0000
,
0001
0000
1000
0000
,
0010
0000
0100
0000
,
0001
1000
0100
0010
,
0100
0000
1000
0000
,
0100
0000
1000
0000
,
0010
0100
0001
0000
,
0100
0010
1000
0000
,
0010
0000
1000
0000
,
0001
0000
0010
0000
,
0100
0000
0010
0000
,
0001
0010
0100
1000
,
0100
0000
1000
0000
,
0010
0000
0100
0000
,
0010
1000
0010
1000
,
0200
0000
0000
0300
,
1000
0000
0001
0000
,
0100
0000
0001
0000
,
1000
0000
0001
0000
,
0010
0001
0010
0000
,
0001
0000
0100
0000
,
0010
0000
1000
0000
,
0010
0000
0100
0000
,
0001
0000
1000
0000
,
1001
0000
0010
0000
,
0110
0000
0100
0000
,
1001
0000
1000
0000
,
0100
1000
0100
2000
,
3000
1000
0001
0200
,
0000
0000
0000
0300
,
0010
0000
1000
0000
,
0001
0000
0100
0000
,
0002
0000
0000
1003
,
0200
0000
2300
0000
,
3020
0000
0130
0000
,
0001
1000
0002
0000
,
1003
1000
0100
0100
,
0010
0010
0001
0001
,
1000
1000
0010
0010
,
0200
0000
0301
0000
,
1000
0000
0001
0000
,
0100
0010
1000
0010
,
0100
0000
0001
0000
,
1000
0001
0220
0000
,
0000
0000
0000
0000
,
0000
0000
0000
0000
,
0000
0000
0000
0000
,
0000
0000
0000
0330
;

//---------------dance-single - ----------------
#NOTES:
     dance-single:
     :
     Medium:
     8:
     0.566,0.628,0.481,0.157,0.000:
0000
0000
0000
0000
,
0000
0000
0000
0000
,
0000
0000
0000
0000
,
0000
0000
0000
0000
,
1001
0000
0100
0000
,
0100
0000
0100
0000
,
0010
0010
0100
0100
,
1000
0001
1000
0001
,
0110
0000
1001
0000
,
1000
0100
1000
0100
,
0010
0000
0001
0000
,
0100
0001
1000
0001
,
0101
0000
1100
0000
,
0010
1000
0001
0100
,
0001
1000
0001
1000
,
0010
0100
0010
1000
,
1010
0000
1100
0000
,
0001
0010
0100
0010
,
0001
0100
0001
1000
,
0010
0100
0010
1000
,
0110
0000
1001
0000
,
0001
1000
0100
1000
,
0001
0100
0100
0100
,
0010
1000
0100
0010
,
0100
1000
0001
0100
,
0001
0100
0010
1000
,
0001
0010
0100
1000
,
0100
0010
0000
0001
0000
0001
1000
0000
,
0001
0100
0010
1000
,
0010
0100
0001
1000
,
0100
1000
0100
1000
,
0010
0001
0010
0100
,
0110
0000
1001
0000
,
1010
0000
1100
0000
,
1001
0000
0011
0000
,
0101
0000
0010
0100
,
1001
0000
1010
0000
,
0011
0000
1100
0000
,
0101
0000
1001
0000
,
0100
0010
1000
0001
,
0100
0001
0010
0100
,
0010
0001
2000
0000
,
0001
0010
0001
0001
,
0100
0001
0010
3001
,
0001
0100
0010
1000
,
0010
0100
0002
0000
,
1000
0010
1000
1000
,
0100
0010
1000
1003
,
0001
1000
0001
0100
,
0001
0000
0001
1000
0000
0000
0001
0000
,
0100
0001
0010
0100
,
0010
0001
1000
0100
,
0010
0100
1000
0001
,
1000
0000
1000
0001
0000
0000
1000
0000
,
0010
1000
0010
0100
,
0001
1000
0001
0010
,
0110
0000
1001
0000
,
0101
0000
1100
0000
,
0011
0000
1010
0000
,
0110
0000
1000
0001
,
0110
0000
1001
0000
,
0011
0000
1100
0000
,
0001
0100
0001
1000
,
0010
0100
0010
1000
,
0001
0010
0100
0010
,
0001
1000
0020
0000
,
0100
0100
0001
1000
,
0001
0001
1000
0031
,
1000
0100
0010
0100
,
1000
0001
0200
0000
,
0010
0010
0001
1000
,
0010
0010
0001
1300
,
0001
0100
0010
1000
,
0001
0010
0100
0010
,
0001
1000
2200
3300
,
1000
0100
1000
0010
,
0110
0000
0000
1001
0000
0000
0110
0000
,
0000
0000
0020
0000
,
1030
0010
0100
0001
,
1000
0010
0100
0001
,
1000
0100
0010
0001
,
0100
0010
1000
0001
,
0010
0001
1000
0001
,
0100
0001
1000
0100
,
1100
0000
0000
0011
0000
0000
1001
0000
,
0000
0000
0020
0000
,
0130
0100
0001
1000
,
0002
0000
0000
0003
,
1000
0100
1000
0100
,
1000
0010
1000
0010
,
1000
0001
1000
0001
,
0100
0100
0010
0010
,
1000
0001
0010
0001
,
0100
0001
0010
0001
,
0100
0010
1000
0010
,
0200
0300
0001
1000
,
0002
0000
1003
0010
,
2000
0000
3100
1000
,
0001
0010
0200
0000
,
0310
0001
0010
0000
0001
0000
1000
0000
,
0010
0100
0010
2000
,
0000
0000
3001
0010
,
0001
0100
0010
1000
,
0010
0100
0220
0330
,
1001
0000
1010
0000
,
1001
0000
0011
0000
,
0101
0000
1100
0000
,
1001
0000
0110
0000
,
0010
0100
0010
0000
0100
0000
0100
0000
,
0001
1000
0001
0000
1000
0000
1000
0000
,
0001
0010
0100
0000
1000
0000
0100
0000
,
1001
0000
0000
0110
0000
0000
1001
0000
,
0010
0010
0100
0100
,
1000
0001
1000
0001
,
0110
0000
1001
0000
,
0100
0010
2002
0000
,
0000
0000
0000
0000
,
0000
0000
0000
0000
,
0000
0000
0000
0000
,
0000
0000
0000
3003
;

//---------------dance-single - ----------------
#NOTES:
     dance-single:
     :
     Hard:
     12:
     0.675,0.733,0.306,0.131,0.017: // measure 1
0000
0000
0000
0000
,  // measure 2
0000
0000
0000
0000
,  // measure 3
0000
0000
0000
0000
,  // measure 4
0000
0000
0000
0000
,  // measure 5
1001
0000
1000
0000
,  // measure 6
1000
0000
1000
0000
,  // measure 7
0002
0100
0100
0103
,  // measure 8
0010
0000
0100
0000
0001
1000
0001
1000
,  // measure 9
0010
0000
0100
0001
0000
0001
0100
0000
,  // measure 10
0001
0010
0100
1000
,  // measure 11
0100
0000
0010
0001
0000
0001
0010
0000
,  // measure 12
0001
0000
1000
0010
0000
0010
1000
0000
,  // measure 13
0010
0000
0100
0001
0000
0001
1000
0000
,  // measure 14
0001
0010
0100
1000
,  // measure 15
0100
0000
0010
0001
0000
1000
0001
0000
,  // measure 16
0100
0000
0010
0000
1000
0001
1000
0000
,  // measure 17
1001
0000
0010
0100
0000
0001
1000
0000
,  // measure 18
0010
1000
0100
1000
,  // measure 19
0001
0000
0100
0001
0000
1000
0100
0000
,  // measure 20
1000
0000
0100
0010
0000
0001
0100
0000
,  // measure 21
1001
0000
0001
1000
0000
1000
0001
0000
,  // measure 22
1000
0010
0100
0001
,  // measure 23
1000
0000
0000
1100
0000
0000
0011
0000
,  // measure 24
2002
0000
0000
3003
,  // measure 25
0010
0000
0100
0000
0000
1001
0000
0000
,  // measure 26
0001
0010
0001
0100
0000
0000
0000
0000
,  // measure 27
1000
0000
1000
0010
0000
0010
1000
0000
,  // measure 28
0001
1000
0001
0100
0000
0100
0001
0000
,  // measure 29
1001
0000
0001
0000
0000
1010
0000
0000
,  // measure 30
0100
0010
0100
1000
0000
0000
0000
0000
,  // measure 31
0001
0000
1000
0010
0000
1000
0100
0000
,  // measure 32
1000
0100
1000
0001
0000
0001
0100
0000
,  // measure 33
1010
0000
0000
0010
0100
0000
0010
0000
,  // measure 34
1000
0000
0000
1000
0100
0000
1000
0000
,  // measure 35
0001
0000
0000
0001
0100
0000
0001
0000
,  // measure 36
1000
0000
0000
0010
0000
0000
0100
0000
0010
0000
1000
0000
,  // measure 37
0001
0000
0000
1000
0100
0000
1000
0000
,  // measure 38
0010
0000
0000
0100
0001
0000
1000
0000
,  // measure 39
0001
0000
1000
0100
0000
1001
0000
0000
,  // measure 40
0010
0000
0100
0000
0001
1000
0001
0000
,  // measure 41
1000
0100
0000
0100
1000
0000
0010
0000
,  // measure 42
1000
0001
0000
0001
1000
0000
0001
0000
,  // measure 43
0010
0000
0100
0000
0010
0002
0000
0000
,  // measure 44
1003
0000
0010
0000
1000
0200
0000
0000
,  // measure 45
1300
0010
0000
0010
0100
0000
0001
0000
,  // measure 46
0100
0001
0000
0001
0010
0000
0100
0000
,  // measure 47
0010
0000
0001
0000
1000
0200
0000
0000
,  // measure 48
0310
0000
0001
0000
1000
0020
0000
0000
,  // measure 49
0130
0001
1000
0010
,  // measure 50
1000
0100
1000
0010
0000
0000
1001
0000
,  // measure 51
0001
0000
0100
0001
0000
0001
1000
0000
,  // measure 52
0001
0010
0100
1000
0000
1000
0100
0000
,  // measure 53
1001
0010
0100
0001
,  // measure 54
1000
0010
1000
0100
0000
0000
1000
0000
,  // measure 55
0101
0000
0001
0010
0000
0010
0001
0000
,  // measure 56
1000
0100
0010
0001
0000
0001
0100
0000
,  // measure 57
1001
0000
0100
0001
0010
0000
0001
0000
,  // measure 58
1000
0000
0010
1000
0100
0000
1000
0000
,  // measure 59
0001
0000
0100
0001
1000
0000
0010
0000
,  // measure 60
0100
0000
0000
0010
0000
0000
1000
0000
0100
0000
0010
0000
,  // measure 61
0001
0000
1000
0100
0010
0000
0100
0000
,  // measure 62
1000
0000
0001
0100
0010
0000
0100
0000
,  // measure 63
0001
0000
1000
0001
0100
0000
0001
0000
,  // measure 64
1000
0000
0010
0000
1000
0001
1000
0001
,  // measure 65
0100
0001
0000
0001
1000
0000
0001
0000
,  // measure 66
0010
0100
0000
0100
0010
0000
0001
0000
,  // measure 67
1000
0000
1001
0000
0001
1000
0000
1000
,  // measure 68
0001
0000
1001
0000
0010
0100
0000
0100
,  // measure 69
0010
1000
0000
1000
0010
0000
0100
0000
,  // measure 70
0001
0100
0000
0100
0001
0000
1000
0000
,  // measure 71
0100
0000
1100
0000
0010
0001
0000
0001
,  // measure 72
0010
0000
0110
0000
0001
1000
0000
1000
,  // measure 73
0001
0100
0010
1000
,  // measure 74
0001
0100
0001
1000
,  // measure 75
0001
0010
0100
0010
,  // measure 76
0001
0100
0010
1000
,  // measure 77
0001
0000
0000
1001
0000
0000
0110
0000
,  // measure 78
0010
1000
0100
1000
,  // measure 79
0001
0100
0010
1000
,  // measure 80
0100
0010
0001
1000
,  // measure 81
0100
0000
0000
1100
0000
0000
0011
0000
,  // measure 82
0001
0100
0001
1000
,  // measure 83
0010
0100
0001
1000
,  // measure 84
0100
0001
0100
1000
,  // measure 85
0010
0000
0000
0101
0000
0000
1001
0000
,  // measure 86
1000
0010
1000
0001
,  // measure 87
0100
0010
1000
0100
,  // measure 88
0020
0100
0100
0130
,  // measure 89
1100
0000
0000
1000
0100
0000
1000
0000
,  // measure 90
0010
0100
0001
1000
,  // measure 91
0001
0000
0000
0001
0010
0000
0100
0000
,  // measure 92
0010
0000
0001
0000
1000
0001
1000
0000
,  // measure 93
0001
0000
0000
0100
0010
0000
0100
0000
,  // measure 94
0010
1000
0100
1000
,  // measure 95
0001
0000
0000
0100
0001
0000
1000
0000
,  // measure 96
0100
0010
0100
0000
1000
0001
1000
0000
,  // measure 97
1001
0000
0000
0001
0100
0001
0100
0000
,  // measure 98
0010
0000
0000
1000
0100
1000
0100
0000
,  // measure 99
1000
0000
0002
0000
,  // measure 100
0103
0001
0100
0000
0010
0000
1000
0000
,  // measure 101
0001
0010
0100
1000
,  // measure 102
0100
0010
0001
1000
,  // measure 103
0010
1000
0010
0001
,  // measure 104
0010
1000
0100
0001
,  // measure 105
0100
0000
0000
0000
1100
0000
1000
0001
,  // measure 106
1000
0010
1001
0010
,  // measure 107
1000
0100
0220
0330
,  // measure 108
0010
0001
1000
0000
2002
0000
3003
0000
,  // measure 109
0001
0010
0001
0000
0001
0010
0001
0000
,  // measure 110
1000
0100
1000
0000
1000
0100
1000
0000
,  // measure 111
0010
0100
0010
0000
0010
0100
0010
0000
,  // measure 112
1001
0000
0000
0110
0000
0000
1001
0000
,  // measure 113
1000
0100
0010
0001
,  // measure 114
1000
0100
0100
0100
,  // measure 115
1000
0010
0100
0001
,  // measure 116
0010
0001
2002
0000
,  // measure 117
0000
0000
0000
0000
,  // measure 118
0000
0000
0000
0000
,  // measure 119
0000
0000
0000
0000
,  // measure 120
0000
0000
0000
3003
;
