#TITLE:Timepiece phase II;
#SUBTITLE:;
#ARTIST:佐々木博史;
#TITLETRANSLIT:;
#SUBTITLETRANSLIT:;
#ARTISTTRANSLIT:Hirofumi Sasaki;
#GENRE:;
#CREDIT:;
#MENUCOLOR:;
#NEWMETERSYSTEM:NO;
#BANNER:Timepiece phase II.png;
#BACKGROUND:Timepiece phase II-bg.png;
#LYRICSPATH:;
#CDTITLE:./CDTITLES/GUITAR FREAKS & DRUMMANIA.PNG;
#MUSIC:Timepiece phase II.mp3;
#OFFSET:-0.179;
#SAMPLESTART:12.711;
#SAMPLELENGTH:15.000;
#SELECTABLE:YES;
#LISTSORT:;
#DISPLAYBPM:72.000:287.000;
#BPMS:0.000=143.500,24.000=71.750,27.000=287.000,219.000=143.500,251.000=287.000,379.000=143.500,391.000=97.000,392.000=85.000,392.500=80.000;
#STOPS:;
#BGCHANGES:;
#ATTACKS:;

//---------------dance-single - ----------------
#NOTES:
     dance-single:
     :
     Beginner:
     7:
     0.216,0.234,0.057,0.000,0.000:
0000
0000
0000
0000
,
0000
0000
0000
0000
,
0000
0000
0000
0000
,
0000
0000
0000
0000
,
1000
0000
1000
0000
,
0001
0000
0001
0000
,
0100
0000
0000
0010
,
0000
0000
0000
1000
,
0000
0000
0000
0001
,
0000
0000
0000
0010
,
0000
0000
0000
0001
,
0000
0000
0000
1000
,
0000
0000
0000
0100
,
0000
0000
0000
1000
,
0000
1000
0000
1000
,
0000
0100
0000
1000
,
0000
0010
0000
0001
,
0000
0100
0000
0001
,
0000
0010
0000
1000
,
0000
1000
0000
0001
,
0000
0001
0000
1000
,
0000
0100
0000
0010
,
0000
0001
0000
1000
,
0000
0000
0000
1000
,
0000
0000
0000
0001
,
0000
0000
0000
0001
,
0000
0000
0000
0010
,
0000
0000
0000
0010
,
0000
0000
0000
0100
,
0000
0000
0000
0100
,
0000
0100
0000
1000
,
0000
0000
0000
0100
,
0000
0000
0000
0010
,
0000
0000
0000
0001
,
0000
0000
0000
0010
,
0000
0000
0000
0001
,
0000
0001
0000
1000
,
0000
1000
0000
0001
,
0000
0000
0000
0100
,
0000
0100
0000
0010
,
0000
0010
0000
1000
,
0000
1000
0000
0001
,
0000
0010
0000
0001
,
0000
1000
0000
0100
,
0000
1000
0000
0010
,
0000
0100
0000
0010
,
0000
0001
0000
1001
,
0000
1000
0000
0100
,
0000
1000
0000
0001
,
0000
1000
0000
0010
,
0000
0100
0000
0001
,
0000
0001
0000
1000
,
0000
1000
0000
0001
,
0000
1000
0000
0001
,
0000
1000
0000
1000
,
0000
0000
0000
0110
,
0000
0000
0000
1001
,
0000
0010
0000
0100
,
0000
0010
0000
0110
,
0000
0000
0000
1001
,
0000
0000
0000
1000
,
0000
1000
0000
0001
,
0000
0100
0000
0010
,
0000
1000
0000
0001
,
0000
0100
0000
0001
,
0000
1000
0000
0100
,
0000
1000
0000
0010
,
0000
0000
0000
0100
,
0000
0000
0000
1000
,
0000
0100
0000
0010
,
0000
0001
0000
0010
,
0000
0000
0000
0100
,
0000
0000
0000
1000
,
0000
0000
0000
0001
,
0000
0000
0000
1000
,
0000
0100
0000
1000
,
0000
0100
0000
0010
,
0000
0000
0000
0010
,
0000
0000
0000
0001
,
0000
0001
0000
0001
,
0000
0001
0000
0001
,
0000
0001
0000
0001
,
0000
0001
0000
1000
,
0000
1000
0000
1000
,
0000
1000
0000
1000
,
0000
1000
0000
1000
,
0000
1000
0000
0010
,
0000
0000
0000
0010
,
0000
0000
0000
0100
,
0000
0000
0000
0100
,
0000
0000
0000
1000
,
0000
0100
0000
0001
,
0000
0100
0000
1000
,
0000
0001
0000
1000
,
0000
0100
0000
0010
,
0000
0010
0000
0100
,
0000
0100
0000
1000
,
0000
0001
0000
1000
,
0000
1001
0000
0000
;

//---------------dance-single - ----------------
#NOTES:
     dance-single:
     :
     Easy:
     10:
     0.641,0.812,0.762,0.114,0.000:
0000
0000
0000
0000
,
0000
0000
0000
0000
,
0000
0000
0000
0000
,
0000
0000
0000
0000
,
1001
1000
1000
1000
,
1001
0001
0001
0001
,
0200
0000
0000
0310
,
1000
0010
1000
0100
,
0001
0100
0001
0100
,
1000
0010
0001
0010
,
1000
0100
0001
0100
,
1000
0010
0100
0001
,
1000
0001
0100
0010
,
1000
0001
1000
0100
,
0010
0100
1100
1001
,
0010
0100
0001
0100
,
0001
0010
0011
1001
,
0001
0100
0010
1000
,
0100
0010
0100
1001
,
0010
0100
0010
1001
,
0100
0010
0100
1001
,
0010
1001
0100
1001
,
1000
1001
0001
0100
,
0001
0010
0001
1000
,
0100
0010
0110
1100
,
0100
1000
0010
0100
,
0010
0001
0110
0101
,
0001
0100
0010
1000
,
0100
0010
1100
1001
,
0010
1000
0010
0100
,
0001
1001
1000
1001
,
0001
0100
0001
0010
,
0001
1000
1100
1010
,
0100
0010
1000
0001
,
0010
0001
0101
0011
,
0100
0010
1000
1001
,
0010
0100
0010
1001
,
1000
1001
0001
0100
,
0100
0100
0100
0010
,
0010
1000
0100
0001
,
0100
1000
0010
0001
,
0001
0010
1000
0100
,
0010
0100
1000
0001
,
0001
1000
0100
1000
,
1000
0010
0100
0010
,
0010
0100
0001
0100
,
0100
0001
1000
1001
,
0001
0100
0001
1000
,
0100
0010
0100
1001
,
0010
0100
0010
1000
,
0001
0100
0010
1100
,
0000
0101
0000
1100
,
0000
0101
0000
1000
,
0001
0100
0010
1001
,
1001
0110
1001
2000
,
0100
3010
1001
0210
,
0001
0310
0101
2001
,
3100
1002
0103
0210
,
0301
0000
0110
0110
0120
0000
0130
0000
,
1000
0001
2001
3100
,
0010
0001
0110
1002
,
1003
2001
3001
0110
,
1001
0000
1000
0001
0100
0010
1000
0000
,
0100
0001
0100
1000
,
0100
0001
0100
1000
,
0010
0001
0010
1000
,
0010
0001
0010
1001
,
0000
0110
0000
1001
,
0000
0101
0101
0010
,
1000
0001
1000
0100
,
0010
0100
1000
1001
,
1000
0100
1000
0010
,
0100
0001
1000
1001
,
0001
0010
0100
0010
,
0001
0100
0010
0110
,
0100
0001
1000
1001
,
0001
0010
0001
1100
,
1000
0010
1000
0001
,
1000
0010
0100
0001
,
0001
1000
1000
0100
,
0100
0010
0010
0100
,
0100
1000
1000
0010
,
0010
0001
0001
0010
,
0010
1000
1000
0100
,
0100
0001
0001
0100
,
0100
1000
1000
0001
,
0001
1000
1000
1001
,
1001
1001
0010
0100
,
0010
1000
0100
1100
,
1000
0001
0100
0010
,
0100
0001
1000
1001
,
0001
0010
0001
1001
,
0100
0010
0100
1001
,
1000
1100
1000
1010
,
1000
1001
1000
1001
,
0110
1001
1100
0011
,
1001
0000
0110
0000
1000
0001
1000
1000
,
0001
0001
0010
0010
0100
0100
0010
0001
,
1000
0100
2002
0000
0000
0000
0000
0000
,
0000
0000
0000
0000
,
0000
3003
0000
0000
;

//---------------dance-single - ----------------
#NOTES:
     dance-single:
     :
     Medium:
     13:
     0.709,1.000,0.676,0.086,0.000:
0000
0000
0000
0000
,
0000
0000
0000
0000
,
0000
0000
0000
0000
,
0000
0000
0000
0000
,
1001
0001
0001
0001
,
1001
1000
1000
1000
,
0020
0000
0000
0130
,
0001
0100
0001
1000
,
0100
1000
0100
0010
,
0100
0010
0100
1000
,
0001
1000
0001
0100
,
0010
0100
0010
1000
,
0001
0010
0100
0010
,
0001
1000
0100
1000
,
0010
0100
0001
1001
,
0010
1000
0001
0100
,
0001
1000
0100
1100
,
0001
0010
0001
0100
,
0010
1000
0001
1001
,
0010
0100
0010
1001
,
0100
0010
0100
1001
,
0001
0110
1000
0110
,
0001
0110
1001
1000
,
0100
1000
0010
1000
,
0001
0100
0001
0000
1000
0000
0010
0000
,
0100
0001
1000
0100
,
0010
0100
0010
0000
0100
0000
1000
0000
,
0001
0100
0001
0010
,
0001
1000
0001
0000
1000
0000
0010
0000
,
0100
0001
1000
0100
,
1000
0100
1000
0000
1001
0000
0110
0000
,
0100
0010
1000
0001
,
1000
0010
1000
0000
0001
0000
0100
0000
,
0001
0010
1000
0010
,
0001
1000
0100
0000
1000
0000
1001
0000
,
0010
0100
0001
0000
0100
0000
0110
0000
,
0100
0001
1000
0000
0001
0000
1001
0000
,
1000
1001
0010
0110
,
0010
0100
0010
0100
0001
0000
1001
0000
,
1000
0100
0000
0100
1000
0000
0001
0010
,
0000
0010
0001
0000
1001
0000
0110
0000
,
0100
0010
0000
0010
1000
0000
0001
0100
,
0000
0100
0001
0000
1100
0000
1001
0000
,
1000
0010
0000
1000
0100
0000
1001
0000
,
0001
0010
0000
0001
0100
0000
1001
0000
,
0100
0010
0000
1000
0001
0000
1001
0000
,
0100
0010
1000
1001
,
0010
1000
0000
0001
0010
0000
1000
0100
,
0000
0001
0100
0000
1100
0000
1001
0000
,
0100
0001
0000
0010
0001
0000
1000
0010
,
0000
0100
0010
0000
1001
0000
0110
0000
,
1000
1010
0001
0101
,
1000
1100
0001
0011
,
0011
0011
0011
1001
,
1001
0000
1001
0000
0110
0000
1001
1000
,
0100
0010
0200
0000
1300
0000
1001
0001
,
0100
0010
0200
0000
0301
0000
1001
0001
,
1000
0000
1001
1000
0001
0000
0110
0100
,
0010
0000
0110
0110
0120
0000
0130
0100
,
0001
1000
0100
1000
1010
0000
1100
1000
,
0001
0100
0001
1000
0011
0000
0101
0001
,
1000
0000
0110
0100
0001
0000
1001
1000
,
0001
0100
0010
1000
0001
0100
0001
0000
,
0010
0000
0001
0000
1000
0000
0100
1000
,
0000
1000
0010
0000
1000
0000
0001
0000
,
0100
0010
1000
0001
,
1000
0000
1000
0000
0001
0000
0010
0001
,
0000
0000
0001
0100
0000
0000
0100
0010
,
0000
0010
1001
1000
,
0100
1000
0001
1000
,
0010
0000
0100
0010
1000
0000
0110
0000
,
0100
0001
1000
0001
,
0010
0000
0001
0100
0001
0000
1000
0000
,
0010
1000
0100
1000
,
0001
0000
1000
0001
1000
0000
0010
0000
,
0100
0010
0100
0000
0001
0000
1000
0000
,
0001
0010
0001
0000
1000
0000
0100
0000
,
1000
0010
0100
0001
,
1001
0000
1001
0000
1001
0000
0001
0100
,
0000
0000
0010
1000
0000
0000
0001
0010
,
0000
0000
0100
1000
0000
0000
0100
0010
,
0000
0000
0001
1000
0000
0000
0010
0100
,
0000
0000
0001
1000
0000
0000
0010
1000
,
0000
0000
0100
0010
0000
0000
0100
1000
,
0000
0000
0001
0100
0000
0000
0001
0010
,
0000
0000
1000
0010
0000
0000
0001
0010
,
0000
0000
1000
0100
0000
0000
1001
0000
,
1001
1001
0010
0100
,
0001
1000
0100
1010
,
0100
0010
0000
0010
1000
0000
0001
0100
,
0000
0100
0001
0000
1000
0000
0100
0000
,
0010
0100
0000
1000
0100
0000
1000
0001
,
0000
0100
0010
0000
0100
0001
0000
1000
,
0010
0000
0100
0001
0000
1000
0100
0000
,
0001
0010
0000
1000
0100
0000
1001
1000
,
0001
0100
0020
0000
0130
0001
2000
0000
,
3001
0010
0200
0000
0310
0001
1000
0100
,
1100
1100
1000
0001
0101
0101
0010
0100
,
0001
1000
2002
0000
0000
0000
0000
0000
,
0000
0000
0000
0000
,
0000
3003
0000
0000
;

//---------------dance-single - ----------------
#NOTES:
     dance-single:
     :
     Hard:
     16:
     0.891,1.000,0.991,0.029,0.143: // measure 1
0000
0000
0000
0000
,  // measure 2
0000
0000
0000
0000
,  // measure 3
0000
0000
0000
0000
,  // measure 4
0000
0000
0000
0000
,  // measure 5
1001
1000
1000
1000
,  // measure 6
1001
0001
0001
0001
,  // measure 7
0200
0010
0010
0010
0010
0010
0010
0010
0010
0010
0010
0310
1001
0000
0000
0000
,  // measure 8
0100
0001
0000
0001
1000
0000
0001
0010
,  // measure 9
0000
0010
0100
0000
0011
0000
1001
0000
,  // measure 10
1000
0010
0000
0010
0100
0000
0001
0010
,  // measure 11
0000
0010
0001
0000
1001
0000
0110
0000
,  // measure 12
0100
0010
1000
0000
0001
0000
1001
0000
,  // measure 13
1000
0100
0010
0000
0100
0000
1100
0000
,  // measure 14
1000
0001
0100
0000
0001
0000
1000
0001
,  // measure 15
1000
0001
0010
0000
0110
0000
1001
0000
,  // measure 16
0001
0100
0000
0100
0001
0000
1000
0010
,  // measure 17
0000
0010
1000
0000
1001
0000
0110
0000
,  // measure 18
0100
0001
0000
1000
0100
0000
0010
0001
,  // measure 19
0000
1000
0010
0000
1010
0000
0101
0000
,  // measure 20
0001
0100
0001
0000
1100
0000
1001
0000
,  // measure 21
0010
0100
0001
0000
0110
0000
1001
0000
,  // measure 22
0001
0010
0100
0000
1100
0000
1000
0001
,  // measure 23
1000
0000
0110
0000
1001
0000
1000
0001
,  // measure 24
1000
0100
0010
1001
,  // measure 25
0010
0100
0001
0000
1001
0000
0010
1000
,  // measure 26
0010
0000
0101
0000
1000
0100
1000
0000
,  // measure 27
0011
0000
1000
0100
0010
0000
1000
0001
,  // measure 28
0100
1001
0010
0110
,  // measure 29
0100
0001
1000
0000
0101
0000
1000
0100
,  // measure 30
1000
0000
1100
0000
0001
0010
0001
0000
,  // measure 31
1001
0000
0110
0000
1000
0001
1000
0000
,  // measure 32
0001
0010
0001
0000
0101
0000
1010
0000
,  // measure 33
0010
0100
0001
0000
1100
0000
0001
0010
,  // measure 34
0001
1100
0010
0110
,  // measure 35
0100
0001
1000
0000
1001
0000
0001
0010
,  // measure 36
0001
0000
0101
0000
0010
1000
0001
0000
,  // measure 37
1000
1100
1000
1001
,  // measure 38
0010
0000
0110
0000
0010
0100
0100
0000
,  // measure 39
0001
1000
1001
0011
,  // measure 40
1000
0100
0000
0010
0001
0000
1000
0100
,  // measure 41
0000
1000
0010
0000
0101
0000
1001
0000
,  // measure 42
0001
0100
0000
0010
1000
0000
0001
0010
,  // measure 43
0000
0100
1000
0000
1100
0000
1001
0000
,  // measure 44
0010
0100
0001
0000
0100
0000
0110
0000
,  // measure 45
0010
1000
0100
0000
1000
0000
1100
0000
,  // measure 46
1000
0001
0100
0000
1001
0000
0001
0010
,  // measure 47
0001
0101
1010
0110
,  // measure 48
0010
0100
0000
0100
0001
0000
0001
1000
,  // measure 49
0000
1000
0001
0000
1001
0000
1100
0000
,  // measure 50
1000
0100
0000
0100
0010
0000
0010
0001
,  // measure 51
0000
0001
1000
0000
1001
0000
0110
0000
,  // measure 52
0010
1000
0100
0000
0010
0001
0100
0000
,  // measure 53
0010
1000
0001
0000
0010
0001
1000
0010
,  // measure 54
1000
0010
0100
0000
0101
0000
0001
0010
,  // measure 55
0001
0010
0100
0000
1100
0000
1001
1000
,  // measure 56
0010
1000
0000
1000
0010
0000
0100
0000
0110
0000
0000
0000
1001
0000
0001
0000
,  // measure 57
1000
0001
0000
0001
1000
0000
0001
0000
0011
0000
0000
0000
0101
0000
0001
0000
,  // measure 58
1000
0010
0000
0010
0100
0000
0001
0000
0010
0001
0000
0001
0010
0000
0100
0000
,  // measure 59
1000
0100
0000
0100
1000
0000
1001
0000
1001
0000
0000
0000
0110
0000
0100
0000
,  // measure 60
0001
1000
0000
0001
0010
0000
0100
0000
0011
0000
0000
0000
0101
0000
0001
0000
,  // measure 61
1000
0010
0000
1000
0100
0000
1000
0000
1001
0000
0000
0000
0110
0000
0100
0000
,  // measure 62
0001
1000
0000
0001
1000
0000
0010
0000
0100
0001
0000
1000
0100
0000
1000
0000
,  // measure 63
0010
0000
1000
0000
0001
0000
1000
0001
1000
0001
1000
0000
1001
0000
0000
0000
,  // measure 64
0010
0000
1000
0100
0000
0100
0010
0000
,  // measure 65
0100
1000
0000
1000
0001
0000
0100
0000
,  // measure 66
0010
0000
0100
0001
0000
0010
0001
0000
,  // measure 67
1000
0010
0000
0100
0001
0000
1001
0000
,  // measure 68
0010
0001
1000
0000
0101
0000
1001
0000
,  // measure 69
1000
0100
0010
0000
1100
0000
1001
0000
,  // measure 70
0100
0010
0100
0000
0001
0000
1000
0001
,  // measure 71
1000
0001
1000
0000
1010
0000
0101
0000
,  // measure 72
1000
0100
0010
0000
0100
0000
1000
0001
,  // measure 73
0000
0001
0100
0000
0001
0000
1001
0000
,  // measure 74
0001
0010
0100
0000
0010
0000
0001
1000
,  // measure 75
0000
1000
0010
0000
0110
0000
0001
0100
,  // measure 76
0001
0100
0001
0000
0100
0000
0010
1000
,  // measure 77
0010
1000
0010
0000
1000
0000
0001
0010
,  // measure 78
0001
0000
1000
0100
1000
0000
0001
1000
,  // measure 79
0001
1000
0001
1000
0001
0000
1000
0010
,  // measure 80
0000
0010
1000
0100
0000
0100
1000
0010
,  // measure 81
0000
0010
1000
0001
0000
0001
0010
0100
,  // measure 82
0000
0100
0010
0001
0000
0001
0100
0010
,  // measure 83
0000
0010
0100
0001
0000
0001
1000
0001
,  // measure 84
0000
1000
0001
1000
0000
0100
0010
0100
,  // measure 85
0000
0010
0100
0010
0000
1000
0100
0010
,  // measure 86
0000
0100
1000
0001
0000
0100
0001
0010
,  // measure 87
0000
0010
0001
1000
0000
0001
1000
0000
,  // measure 88
1001
0000
1001
0000
0010
0000
0100
0010
,  // measure 89
0000
0010
1000
0000
0001
0000
1001
0000
,  // measure 90
1000
0100
0000
0010
0001
0000
1000
0100
,  // measure 91
0010
0000
0100
1000
0001
0000
0100
0001
,  // measure 92
0100
0001
0100
0001
0100
0000
0010
1000
,  // measure 93
0010
1000
0010
1000
0010
0000
1000
0001
,  // measure 94
1000
0001
1000
0000
0001
1000
0001
0000
,  // measure 95
1000
0000
0000
0000
1001
0000
0000
0000
0110
0000
0000
0000
1010
0000
1000
0100
,  // measure 96
0010
0000
0001
0000
1001
0000
0001
0100
0010
0000
0100
0000
0110
0000
0100
0001
,  // measure 97
1000
0000
0001
0000
1001
0000
1000
0100
0010
0000
0100
0000
1100
0000
1001
0000
,  // measure 98
1010
0110
0101
1001
0011
0110
1001
0110
,  // measure 99
1001
0110
2002
0000
0000
0000
0000
0000
,  // measure 100
0000
0000
0000
0000
,  // measure 101
0000
3003
0000
0000
;

//---------------dance-single - ----------------
#NOTES:
     dance-single:
     :
     Challenge:
     18:
     1.000,1.000,0.534,0.029,0.219:
0000
0000
0000
0000
,
0000
0000
0000
0000
,
0000
0000
0000
0000
,
0000
0000
0000
0000
,
1001
0001
1001
0001
,
1001
1000
1001
1000
,
0120
0100
0100
0100
0100
0100
0100
0100
0100
0100
0100
0130
0010
0000
1000
0000
,
0001
0100
0001
0010
0100
1000
0100
0010
,
0001
1000
0100
1000
0001
1000
0010
0100
,
0001
1000
0100
1000
0001
0010
0100
0010
,
0001
1000
0100
1000
0001
0100
0010
1000
,
0010
0100
0001
1000
0001
1000
0010
0100
,
0001
1000
0100
0010
0100
1000
0001
0010
,
0100
0010
0001
1000
0100
1000
0001
0100
,
0010
1000
0001
0100
0001
1000
0010
0100
,
0001
1000
0100
1000
0001
0010
0001
1000
,
0100
1000
0001
1000
0001
1000
0010
0100
,
0001
1000
0100
0010
0100
1000
0001
0100
,
0001
0010
0001
0100
0001
0100
0010
1000
,
0001
1000
0100
0010
0100
1000
0001
0100
,
0010
0100
0001
0010
0001
1000
0100
1000
,
0001
0010
0001
1000
0001
1000
0010
0100
,
0010
0100
0001
1000
0010
0100
1001
0000
,
0010
1000
0100
0000
1100
0000
0010
0001
,
0010
0001
0100
0001
0100
0000
0101
0000
,
0010
1000
0100
0000
1001
0000
0010
0100
,
0010
0100
0001
1000
0001
0000
0110
0000
,
0100
0010
0001
0000
1100
0000
0001
0010
,
0100
1000
0100
0010
0001
0000
1010
0000
,
0001
0010
1000
0000
1100
0000
0001
0100
,
1000
0100
0001
0010
1000
0010
0001
0000
,
0100
0010
1000
0000
0110
0000
0001
1000
,
0100
1000
0001
1000
0100
0000
0101
0000
,
0001
0010
0001
0000
1100
0000
1000
0010
,
1000
0001
0100
0010
1000
0000
0110
0000
,
0010
0100
0001
0000
1001
0000
0110
0000
,
0100
0010
1000
0000
1001
0000
1000
0100
,
0001
0100
1000
0100
0001
0100
1000
0001
,
1000
0001
1000
0010
0001
0010
1000
0001
,
0100
0010
1000
0001
0100
0010
1000
0100
,
0010
0100
1000
0001
1000
0001
0100
0001
,
0010
0001
1000
0100
1000
0010
0100
0001
,
0010
0001
1000
0010
0100
0001
1000
0100
,
0010
0001
0100
0001
0010
1000
0010
0001
,
0100
0010
1000
0010
0100
0001
1000
0001
,
1000
0001
0100
0010
0100
0010
1000
0010
,
0100
0001
0100
0010
0100
0001
0010
0100
,
0010
0001
0010
0100
0010
1000
0010
0001
,
1000
0010
0100
0001
0100
0001
0100
0010
,
0100
0001
0100
0010
0100
1000
0100
0010
,
0100
0001
1000
0001
1000
0010
0110
0000
,
1000
1001
0001
1001
,
0100
0000
0110
0000
0100
0000
1001
0001
,
1000
0001
1000
0010
1000
0010
1000
0100
,
0010
0001
0100
0010
1000
0010
0110
0100
,
0001
1000
0000
1000
0001
0000
1000
0000
1100
0000
0000
0000
1001
0000
1000
0000
,
0010
1000
0000
1000
0010
0000
0100
0000
0101
0000
0000
0000
0011
0000
0001
0000
,
1000
0001
0000
1000
1100
0000
1000
0000
0010
0100
0000
0001
0011
0000
0001
0000
,
0100
0001
0000
0001
1001
0000
1001
0000
1001
0000
0000
0000
0110
0000
0100
0000
,
0010
1000
0000
1000
0001
0000
1000
0000
1100
0000
0000
0000
0011
0000
0001
0000
,
0010
0001
0000
1000
0100
0000
1000
0000
1010
0000
0000
0000
0110
0000
0100
0000
,
0001
1000
0000
1000
1001
0000
0100
0000
0010
0100
0000
0100
0110
0000
0010
1000
,
0100
0000
1000
0000
0001
1000
0000
1000
0001
1000
0001
1000
0010
0000
0100
0000
,
0010
0100
0001
1000
0001
0010
0001
1000
,
0100
1000
0010
0100
0001
1000
0100
0001
,
0100
1000
0010
0001
0010
1000
0001
0100
,
0010
1000
0001
1000
0001
1000
0001
0010
,
0100
1000
0100
0010
0001
1000
0100
1000
,
0010
0100
0001
1000
0001
1000
0010
1000
,
0001
0010
0001
1000
0010
1000
0001
0010
,
0001
0100
0010
1000
0010
0100
0001
1000
,
0001
1000
0010
0100
0001
1000
0100
0010
,
0001
1000
0100
0010
0001
0100
0010
1000
,
0010
0100
0001
1000
0001
0010
0001
0100
,
0010
1000
0001
0100
0010
1000
0001
1000
,
0001
1000
0010
0100
0001
1000
0010
0100
,
0010
1000
0010
0001
0010
0100
0010
1000
,
0001
1000
0001
0010
0001
0010
0001
0100
,
0001
0100
0001
1000
0001
1000
0100
0010
,
0100
1000
0100
0010
0100
1000
0100
0010
,
0100
0001
0100
0010
0100
0001
0100
1000
,
0010
0001
0010
1000
0100
0001
0100
1000
,
0010
0001
0010
1000
0001
1000
0001
0100
,
0010
1000
0010
0100
0001
1000
0010
0100
,
0010
1000
0001
0010
0100
1000
0100
0010
,
0001
1000
0100
1000
0001
0100
0010
1000
,
0010
0100
0001
1000
0001
1000
1001
0000
,
1001
0000
1001
0000
0110
0000
0100
0001
,
0100
0010
0100
0001
1000
0100
1000
0010
,
1000
0001
0100
0001
1000
0001
0010
1000
,
0010
0001
0100
0010
1000
0010
0100
0001
,
1000
0001
1000
0010
0100
0010
1000
0100
,
1000
0100
0010
0001
0010
0001
1000
0010
,
0100
0001
1000
0001
1000
0001
0100
0010
,
0100
0000
0010
0000
1000
0000
0001
0000
1000
0000
0100
0000
1000
0010
1000
0001
,
0100
0001
0100
0001
0100
0000
0001
0010
0100
0010
0001
1000
0001
0000
1000
0010
,
0100
0010
1000
0001
1000
0001
0100
0010
1000
0100
0001
0100
1000
0001
1001
0000
,
0110
0000
1001
0000
0001
1000
1001
0000
0110
0000
0101
0000
1000
0100
1100
0000
,
0011
1100
2002
0000
0000
0000
0000
0000
,
0000
0000
0000
0000
,
0000
3003
0000
0000
;
