#TITLE:THE DETONATOR;
#SUBTITLE:;
#ARTIST:teranoid VS L.E.D.-G;
#TITLETRANSLIT:;
#SUBTITLETRANSLIT:;
#ARTISTTRANSLIT:;
#GENRE:;
#CREDIT:;
#MENUCOLOR:;
#METERTYPE:DDR;
#BANNER:THE DETONATOR.png;
#BACKGROUND:THE DETONATOR-bg.png;
#LYRICSPATH:;
#CDTITLE:./CDTITLES/BEATMANIA IIDX.PNG;
#MUSIC:THE DETONATOR.ogg;
#OFFSET:0.000;
#SAMPLESTART:25.199;
#SAMPLELENGTH:15.000;
#SELECTABLE:YES;
#LISTSORT:;
#BPMS:0.000=173.000;
#STOPS:;
#BGCHANGES:4.000=THE DETONATOR.avi=1.000=0=0=0,
99999=-nosongbg-=1.000=0=0=0 // don't automatically add -songbackground-
;
#ATTACKS:;

//---------------dance-single - ----------------
#NOTES:
     dance-single:
     :
     Beginner:
     3:
     0.168,0.204,0.027,0.000,0.000: // measure 1
0000
0000
0000
0000
,  // measure 2
0000
0000
0000
0000
,  // measure 3
0000
0000
0000
0000
,  // measure 4
1000
0000
0000
0000
,  // measure 5
0000
0000
0000
0000
,  // measure 6
0000
0000
0000
0000
,  // measure 7
0000
0000
0000
0000
,  // measure 8
0100
0000
0100
0000
,  // measure 9
0100
0000
0100
0000
,  // measure 10
0100
0000
0100
0000
,  // measure 11
0100
0000
0100
0000
,  // measure 12
0010
0000
0010
0000
,  // measure 13
0010
0000
0010
0000
,  // measure 14
0010
0000
0010
0000
,  // measure 15
0010
0000
0010
0000
,  // measure 16
1000
0000
1000
0000
,  // measure 17
1000
0000
1000
0000
,  // measure 18
0001
0000
0001
0001
,  // measure 19
0001
0000
0000
0000
,  // measure 20
0100
0000
0100
0000
,  // measure 21
0010
0000
0010
0000
,  // measure 22
1000
0000
1000
0000
,  // measure 23
0001
0000
0001
0000
,  // measure 24
1000
0000
0100
0000
,  // measure 25
0001
0000
0100
0000
,  // measure 26
1000
0000
0010
0000
,  // measure 27
0001
0000
0010
0000
,  // measure 28
1000
0000
0001
0000
,  // measure 29
1000
0000
0001
0000
,  // measure 30
0010
0000
0100
0000
,  // measure 31
0010
0000
0100
0000
,  // measure 32
0010
0000
0001
0000
,  // measure 33
1000
0000
0010
0000
,  // measure 34
1000
0000
0010
0000
,  // measure 35
0100
0000
0000
0000
,  // measure 36
0001
0000
0001
0000
,  // measure 37
0001
0001
0001
0000
,  // measure 38
1000
0000
1000
0000
,  // measure 39
1000
1000
1000
0000
,  // measure 40
0010
0000
0010
0000
,  // measure 41
0010
0010
0010
0000
,  // measure 42
0100
0000
0100
0000
,  // measure 43
0100
0100
0100
0000
,  // measure 44
0000
0000
0000
0000
,  // measure 45
0001
0000
1000
0000
,  // measure 46
0001
0000
1000
0000
,  // measure 47
0010
0000
0100
0000
,  // measure 48
0010
0000
1000
0000
,  // measure 49
0001
0000
1000
0000
,  // measure 50
0100
0000
0010
0000
,  // measure 51
0001
0000
1000
0000
,  // measure 52
0001
0000
0001
0000
,  // measure 53
0001
0000
0001
0000
,  // measure 54
1000
0000
1000
0000
,  // measure 55
1000
0000
1000
0000
,  // measure 56
0010
0000
0100
0000
,  // measure 57
0100
0000
0000
0000
,  // measure 58
0001
0000
1000
0000
,  // measure 59
0001
0000
1000
1000
,  // measure 60
1000
0000
1000
0000
,  // measure 61
1000
0000
1000
0000
,  // measure 62
0100
0000
0010
0000
,  // measure 63
0001
0000
0000
0000
,  // measure 64
0001
0000
0000
0000
,  // measure 65
0000
0000
0000
0000
,  // measure 66
0000
0000
0000
0000
,  // measure 67
0100
0000
0010
0000
,  // measure 68
1001
0000
0000
0000
,  // measure 69
0000
0000
0000
0000
,  // measure 70
1000
0000
0000
0000
,  // measure 71
0001
0000
0000
0000
,  // measure 72
0100
0000
0000
0000
,  // measure 73
0010
0000
0000
0000
,  // measure 74
1000
0000
0000
0000
,  // measure 75
0001
0000
0000
0000
,  // measure 76
0110
0000
0000
0000
,  // measure 77
1001
0000
0000
0000
,  // measure 78
1000
0000
0000
0000
,  // measure 79
0001
0000
0000
0000
,  // measure 80
0100
0000
0100
0000
,  // measure 81
0010
0000
0010
0000
,  // measure 82
1000
0000
0001
0000
,  // measure 83
1000
0000
0000
0000
,  // measure 84
0001
0000
0001
0000
,  // measure 85
0001
0000
0001
0000
,  // measure 86
0001
0000
0001
0000
,  // measure 87
0001
0000
0001
0000
,  // measure 88
1000
0000
1000
0000
,  // measure 89
1000
0000
1000
0000
,  // measure 90
1000
0000
1000
0000
,  // measure 91
1000
0000
1000
0000
,  // measure 92
0010
0000
0010
0000
,  // measure 93
0010
0000
0010
0000
,  // measure 94
0010
0000
0010
0000
,  // measure 95
0010
0000
0010
0000
,  // measure 96
0100
0000
0100
0000
,  // measure 97
0100
0000
0100
0000
,  // measure 98
0100
0000
0100
0000
,  // measure 99
0001
0000
1000
0000
,  // measure 100
0110
0000
0000
0000
;

//---------------dance-single - ----------------
#NOTES:
     dance-single:
     :
     Easy:
     6:
     0.374,0.459,0.089,0.213,0.000: // measure 1
0000
0000
0000
0000
,  // measure 2
0000
0000
0000
0000
,  // measure 3
0000
0000
0000
0000
,  // measure 4
0020
0100
0000
0100
,  // measure 5
0000
0100
0000
0130
,  // measure 6
0002
1000
0000
1000
,  // measure 7
0000
1000
0000
1003
,  // measure 8
1000
1000
1000
1000
,  // measure 9
0100
0100
0100
0100
,  // measure 10
0010
0010
0010
0010
,  // measure 11
0001
0001
0001
0001
,  // measure 12
1000
0001
1000
0001
,  // measure 13
0100
0010
0100
0010
,  // measure 14
1000
1000
0100
0100
,  // measure 15
0010
0010
0001
0001
,  // measure 16
1000
0100
0010
0001
,  // measure 17
1000
0100
0010
0001
,  // measure 18
1000
0010
0100
0001
,  // measure 19
2000
0000
0000
3000
,  // measure 20
1001
0001
0100
1000
,  // measure 21
0100
0001
0010
1000
,  // measure 22
0010
0001
0100
1000
,  // measure 23
0100
0001
0010
1000
,  // measure 24
1001
0100
0001
0100
,  // measure 25
1000
0010
0001
0010
,  // measure 26
1000
0100
0001
0100
,  // measure 27
1000
0010
0100
0110
,  // measure 28
1001
0001
1000
0001
,  // measure 29
1000
0010
0100
0001
,  // measure 30
1000
0100
0010
0001
,  // measure 31
1000
1000
0100
0010
,  // measure 32
1001
0100
0010
0010
,  // measure 33
1000
0010
0001
0001
,  // measure 34
0010
1000
0100
0100
,  // measure 35
2000
0000
0000
3000
,  // measure 36
0001
0010
0100
0100
,  // measure 37
0010
0001
1000
1000
,  // measure 38
0010
0100
0001
0001
,  // measure 39
1000
0010
0100
0110
,  // measure 40
1000
1000
0001
0001
,  // measure 41
1000
1000
0100
0100
,  // measure 42
0010
0010
0001
0001
,  // measure 43
2000
3200
0320
0032
,  // measure 44
2003
0000
0000
3000
,  // measure 45
0001
0100
0010
1000
,  // measure 46
0001
0001
1000
1000
,  // measure 47
0010
0100
0010
1001
,  // measure 48
0100
0100
0010
0010
,  // measure 49
0001
0001
1000
0100
,  // measure 50
1000
1000
0010
0010
,  // measure 51
0100
0001
1000
0001
,  // measure 52
1001
0100
0010
1000
,  // measure 53
0010
0100
0001
1000
,  // measure 54
0001
0010
0100
1000
,  // measure 55
0100
0100
0010
0010
,  // measure 56
0001
1000
0001
0100
,  // measure 57
0020
0000
0000
0100
0000
0000
0130
0000
,  // measure 58
0001
1000
0001
0100
,  // measure 59
0001
0001
1000
1001
,  // measure 60
0010
0010
0100
0100
,  // measure 61
0001
0001
1000
1000
,  // measure 62
0100
0100
0001
0001
,  // measure 63
0100
1000
0010
0100
,  // measure 64
0002
1000
0000
1000
,  // measure 65
0000
0100
0000
0100
,  // measure 66
0010
0010
0010
0013
,  // measure 67
2000
3200
0320
0032
,  // measure 68
2003
0000
0000
0000
,  // measure 69
0000
0000
0000
3000
,  // measure 70
0001
0001
0001
0000
,  // measure 71
0100
0100
0100
0000
,  // measure 72
0010
0010
0010
0000
,  // measure 73
1000
1000
1000
0000
,  // measure 74
0001
1000
0001
0000
,  // measure 75
1000
0001
1000
0000
,  // measure 76
2002
0000
0000
3003
,  // measure 77
0020
0000
0000
0030
,  // measure 78
0200
0000
0000
0300
,  // measure 79
0001
1000
0100
1000
,  // measure 80
0002
0003
2000
3000
,  // measure 81
0020
0030
0200
0300
,  // measure 82
0001
0010
0100
1000
,  // measure 83
0200
0000
0000
0300
,  // measure 84
1000
0100
1000
0010
,  // measure 85
0100
0001
0010
0001
,  // measure 86
1000
0001
0100
0010
,  // measure 87
1000
1000
0001
1001
,  // measure 88
0010
0010
0100
0010
,  // measure 89
0001
0010
0100
0010
,  // measure 90
1000
0100
0010
0100
,  // measure 91
1000
0001
0100
0001
,  // measure 92
1001
0000
0000
1000
0000
1000
0000
1000
,  // measure 93
0001
0000
0000
0010
0000
0010
0000
0010
,  // measure 94
0100
0000
0000
0010
0000
0001
0000
1000
,  // measure 95
0010
0000
0000
0100
0000
0010
0000
1000
,  // measure 96
0001
1000
0001
1000
,  // measure 97
0010
0100
0010
0100
,  // measure 98
0002
0023
0230
2300
,  // measure 99
3100
0000
0010
0001
,  // measure 100
2001
0020
0000
0000
,  // measure 101
0000
0000
0000
0000
,  // measure 102
0000
0000
0000
0000
,  // measure 103
0000
0000
0000
3030
;

//---------------dance-single - ----------------
#NOTES:
     dance-single:
     :
     Medium:
     10:
     0.472,0.600,0.124,0.124,0.000: // measure 1
0000
0000
0000
0000
,  // measure 2
0000
0000
0000
0000
,  // measure 3
0000
0000
0000
0000
,  // measure 4
2000
0001
0001
0001
,  // measure 5
0100
0100
0010
3010
,  // measure 6
0002
1000
1000
1000
,  // measure 7
0100
0100
0010
0013
,  // measure 8
1001
0100
0100
0100
,  // measure 9
0010
0010
0010
0010
,  // measure 10
1000
1000
1000
1000
,  // measure 11
0001
1000
0001
1000
,  // measure 12
0001
0000
0100
0000
0001
0100
0001
0000
,  // measure 13
1000
0000
0100
0000
1000
0100
1000
0000
,  // measure 14
0010
0000
1000
0000
0001
1000
0001
0000
,  // measure 15
0010
0000
0001
0000
1000
0001
1000
0000
,  // measure 16
0001
0000
0100
0100
0100
0000
0100
0000
,  // measure 17
0010
0000
1000
1000
1000
0000
1000
0000
,  // measure 18
0001
0010
0100
1000
,  // measure 19
0220
0000
0000
0330
,  // measure 20
1000
0001
1000
0100
,  // measure 21
0010
0100
1000
1001
,  // measure 22
0001
0100
0010
0100
,  // measure 23
0001
1000
0001
1001
,  // measure 24
0010
0100
0010
1000
,  // measure 25
0010
0100
0010
0110
,  // measure 26
1000
0001
1000
0100
,  // measure 27
0010
0100
1000
0101
,  // measure 28
0001
0010
0001
1000
,  // measure 29
0100
0010
0100
1100
,  // measure 30
0001
0100
0010
0100
,  // measure 31
0001
1000
0001
0011
,  // measure 32
1000
0100
0010
0100
,  // measure 33
1000
0001
0100
0110
,  // measure 34
0010
1000
0001
0100
,  // measure 35
2002
0000
0000
3003
,  // measure 36
0001
0000
0010
0100
0010
0000
0001
0010
,  // measure 37
0001
0000
0010
0100
0010
0000
0001
0000
,  // measure 38
1000
0000
0100
0010
0100
0000
1000
0100
,  // measure 39
0010
0000
0100
1000
0100
0000
1000
0000
,  // measure 40
0001
0000
1000
0001
0100
0000
0001
1000
,  // measure 41
0010
0000
1000
0001
0010
0000
0001
0000
,  // measure 42
1000
0000
0001
1000
0100
0000
1000
0001
,  // measure 43
0100
0000
0001
1000
0010
0000
0100
0000
,  // measure 44
2002
0000
0000
3003
,  // measure 45
0010
0000
0100
0000
0010
0010
0010
0000
,  // measure 46
1000
1000
1000
0000
0001
0001
0001
0000
,  // measure 47
0100
0100
0100
0000
0001
0001
0001
0000
,  // measure 48
0010
0010
0010
0000
0100
0100
0100
0000
,  // measure 49
1000
1000
1000
0000
0100
0100
1000
0000
,  // measure 50
0001
0001
0100
0000
0010
0010
1000
0000
,  // measure 51
0001
0010
0100
1000
,  // measure 52
1001
0000
0100
0010
1000
0000
0001
0000
,  // measure 53
0001
0000
0100
0001
0010
0000
0100
0000
,  // measure 54
0100
0000
0010
0001
1000
0000
0001
0000
,  // measure 55
0001
0000
1000
0010
0100
0000
0010
0000
,  // measure 56
1000
0000
0010
0000
0100
0010
1000
0000
,  // measure 57
1002
0000
0000
0100
0000
0000
0013
0000
,  // measure 58
1000
0100
0010
0001
,  // measure 59
1000
0100
1000
0000
0001
0001
1010
0000
,  // measure 60
0100
0100
0010
0010
,  // measure 61
1000
1000
0001
0001
,  // measure 62
1000
1000
0100
0100
,  // measure 63
0010
0001
1000
0001
0010
0001
1000
0001
,  // measure 64
0100
0010
1000
0001
,  // measure 65
0100
0100
0001
1001
,  // measure 66
1000
0100
0010
0100
,  // measure 67
2000
3002
2003
3100
,  // measure 68
0220
0000
0000
0000
,  // measure 69
0000
0000
0000
0330
,  // measure 70
0100
0000
0100
0000
0001
0100
0000
0100
,  // measure 71
0000
0000
0001
0000
1000
0001
0000
1000
,  // measure 72
0010
0000
1000
0000
0100
1000
0000
1000
,  // measure 73
0000
0000
0100
0000
0010
0001
0000
0010
,  // measure 74
0001
0000
0100
0000
0010
0100
0000
0001
,  // measure 75
0000
0000
1000
0000
0001
1000
0000
0001
,  // measure 76
1000
0000
0010
0000
0100
0000
0010
1000
,  // measure 77
0001
0000
1000
0000
0100
0000
0010
0100
,  // measure 78
1000
0000
0001
0000
0100
0000
0001
1000
,  // measure 79
0000
1001
0000
0010
0100
0000
0010
1000
,  // measure 80
0100
1000
1000
1000
,  // measure 81
0001
0100
0100
0100
,  // measure 82
0001
0010
0100
0000
1000
0100
0010
0000
,  // measure 83
0002
0000
0000
1000
0000
1000
0000
1003
,  // measure 84
0100
1000
0100
0000
1000
0010
0000
1000
,  // measure 85
0000
0001
0100
0000
0001
0010
0000
0001
,  // measure 86
0000
1000
0001
0000
0100
0010
0000
1000
,  // measure 87
0000
0010
1000
0000
0010
0010
0010
0100
,  // measure 88
0000
0001
0010
0000
0100
0010
0000
0001
,  // measure 89
0000
1000
0100
0000
0010
0100
0000
1000
,  // measure 90
0000
0001
1000
0000
0010
0100
0000
0001
,  // measure 91
1000
0001
0000
1000
0001
0001
0001
1000
,  // measure 92
0010
0100
0000
0010
0000
1000
0000
0001
,  // measure 93
0100
0001
0000
1000
0000
0100
0000
0010
,  // measure 94
0100
1000
0000
0001
0000
0100
0000
0001
,  // measure 95
0010
1000
0000
0010
0000
0001
0000
1000
,  // measure 96
0100
0100
0100
0100
1000
1000
1000
1000
,  // measure 97
0001
0001
0001
0001
0010
0010
0010
0010
,  // measure 98
0001
0100
0010
1000
0001
0100
0010
1000
,  // measure 99
0002
0000
1000
0103
,  // measure 100
2001
0020
0000
0000
,  // measure 101
0000
0000
0000
0000
,  // measure 102
0000
0000
0000
0000
,  // measure 103
0000
0000
0000
3030
;

//---------------dance-single - ----------------
#NOTES:
     dance-single:
     :
     Hard:
     15:
     0.740,1.000,0.268,0.110,0.295: // measure 1
0000
0000
0000
0000
,  // measure 2
0000
0000
0000
0000
,  // measure 3
0000
0000
0000
0000
,  // measure 4
0020
0000
0000
0000
,  // measure 5
0000
0000
0000
0030
,  // measure 6
0200
0000
0000
0000
,  // measure 7
0000
0000
0000
0300
,  // measure 8
1001
0010
0100
0010
,  // measure 9
0001
0100
0001
0000
1000
0100
0010
0100
,  // measure 10
1000
0010
0100
0001
,  // measure 11
1000
0010
1000
0000
0001
0010
0001
1000
,  // measure 12
0010
0100
0010
0110
,  // measure 13
0010
1000
0001
1001
,  // measure 14
0001
0001
0001
0000
0010
0000
0100
0000
,  // measure 15
0010
0001
0100
0001
0010
0000
0011
0000
,  // measure 16
1001
0001
0001
0001
1000
0010
0100
0001
,  // measure 17
1000
1000
1000
1000
0100
0010
0001
1000
,  // measure 18
0010
0000
0100
0001
0100
0000
0001
0010
0001
0000
1000
0100
1000
0000
0001
1000
,  // measure 19
0020
0000
0000
0030
,  // measure 20
1010
0010
1000
1000
0100
0100
0010
0010
,  // measure 21
0001
0000
0001
0000
0100
0000
0100
0000
0010
0000
0010
0000
0100
0000
0001
1000
,  // measure 22
0001
0001
0010
0010
0100
0100
1000
1000
,  // measure 23
0001
0000
0001
0000
0100
0000
0100
0000
0010
1000
0010
0000
1000
0001
1000
0000
,  // measure 24
1001
0001
0010
0010
0001
0001
1000
1000
,  // measure 25
0010
0000
0010
0000
0100
0000
0100
0000
0001
0000
0001
0000
1000
0000
0010
0100
,  // measure 26
0010
0100
0001
1000
0001
0010
0100
1000
,  // measure 27
0001
0000
0000
0011
0000
0000
0101
0000
0001
0100
0001
1000
,  // measure 28
0010
0010
0100
0100
0010
0010
1000
1000
,  // measure 29
0100
0100
0001
0001
0100
0100
1000
0010
,  // measure 30
1010
0010
0100
0100
0001
0001
0010
0010
,  // measure 31
0001
0000
0001
0000
0100
0000
0100
0000
0001
0010
0001
0000
1000
0010
1000
0000
,  // measure 32
1001
1000
0010
0010
0001
0001
0010
0010
,  // measure 33
1000
0000
1000
0000
0100
0000
0100
0000
0001
0000
0100
0000
0010
0000
0100
0010
,  // measure 34
0001
0001
0100
0100
1000
1000
0100
0100
,  // measure 35
0120
0000
2000
3030
,  // measure 36
1000
0000
0001
0000
0010
0001
0010
0000
0001
0000
1000
0000
0010
1000
0010
0000
,  // measure 37
1000
0000
0001
0000
0100
0001
0100
0000
0001
0000
0010
0000
0100
0000
1000
0000
,  // measure 38
0010
0000
0100
0000
0010
1000
0010
0000
0100
0000
0001
0000
0010
0001
0010
0000
,  // measure 39
0001
0000
1000
0100
1000
0000
0010
0000
0100
0000
0001
0000
1000
0000
0010
0000
,  // measure 40
1000
0000
0100
0000
0010
0100
0010
0000
0001
0000
0100
0000
0010
0100
0010
0000
,  // measure 41
0100
0000
0001
0000
1000
0010
1000
0000
0001
0000
0010
0000
1000
0000
0010
0000
,  // measure 42
0001
0000
0100
0000
0010
0100
0001
0000
1000
0000
0010
0000
0100
0010
1000
0000
,  // measure 43
0002
0000
0000
2003
0000
0000
3100
0000
0100
1000
0010
0100
,  // measure 44
0002
0000
0000
1003
,  // measure 45
1001
0000
0010
0000
0100
0010
0100
0000
0010
0000
0001
0000
0100
0000
0010
0000
,  // measure 46
1000
0000
0010
0000
0100
0010
0100
0000
0001
0000
0010
0000
0100
0010
0100
0000
,  // measure 47
0010
0000
0001
1000
0100
0000
1000
0000
0001
0000
0010
0001
0010
0000
0001
0000
,  // measure 48
1000
0000
0010
0000
0100
0010
0100
0000
0010
0000
1000
0000
0001
0010
0001
0000
,  // measure 49
1000
0000
0001
0000
0010
0100
0010
0000
0001
0000
0100
0000
1000
0000
0100
0000
,  // measure 50
0001
0000
0010
0000
0100
0010
0100
0000
0010
0000
0001
0000
1000
0010
1000
0000
,  // measure 51
0001
0100
0010
1001
,  // measure 52
1010
0000
0010
0000
1000
0000
1000
0000
0100
0000
0100
0000
0010
0000
0001
0100
,  // measure 53
0010
0010
0100
0100
0001
0001
1000
0001
,  // measure 54
0010
0000
0010
0000
0001
0000
0001
0000
0100
0000
0100
0000
0010
0000
1000
0010
,  // measure 55
0100
0000
0100
0000
0010
0000
0010
0000
1000
0100
1000
0000
0001
0100
0001
0000
,  // measure 56
0100
0000
0100
0000
0010
0000
0010
0000
1000
0000
1000
0000
0001
1000
0100
1000
,  // measure 57
0001
0000
0010
0001
0010
0000
0001
1000
0001
1000
0001
0000
0100
0010
0100
0010
,  // measure 58
1000
0000
1000
0000
0100
0000
0100
0000
0010
0000
0100
1000
0100
0000
1000
0001
,  // measure 59
0100
0000
0010
0100
0010
0000
1000
0000
0001
0000
0001
0000
1010
0000
0000
0000
,  // measure 60
0101
0001
0010
0100
,  // measure 61
1000
0000
0010
0000
0100
0000
0001
1000
,  // measure 62
0100
1000
0001
0010
,  // measure 63
0001
0000
0100
0001
0100
0000
0001
0000
1000
0000
0100
1000
0100
0000
1000
0000
,  // measure 64
0001
0000
0100
0000
0010
1000
0001
1000
,  // measure 65
0010
0000
0100
0000
0001
1000
0100
1000
,  // measure 66
0001
0000
1000
0000
0010
0100
0001
1000
,  // measure 67
0001
0010
0001
0010
0001
1000
0001
1000
0001
0100
0001
0100
0010
0000
0000
0000
,  // measure 68
0110
0000
0000
0000
,  // measure 69
0000
0000
0000
0000
,  // measure 70
0100
0001
0001
0000
0100
0100
0000
0010
,  // measure 71
1000
0001
0001
0000
0010
0100
0000
0010
,  // measure 72
0001
1000
1000
0000
0010
0100
0000
0010
,  // measure 73
1000
0100
0100
0000
0010
0100
0000
1000
,  // measure 74
0010
0100
0100
0000
0001
0010
0000
0001
,  // measure 75
1000
0010
0010
0000
0100
0010
0000
1000
,  // measure 76
2001
0000
0010
0000
0100
0000
3001
1000
,  // measure 77
1002
0000
0010
0000
0100
0000
1003
0010
,  // measure 78
0120
0000
1000
0000
0100
0000
0031
0101
,  // measure 79
0000
1100
0000
0001
0012
0000
1003
0001
,  // measure 80
1001
1000
1000
1000
1001
0001
0001
0001
,  // measure 81
0101
0100
0100
0100
0110
0010
0010
0010
,  // measure 82
1000
0000
0100
1000
0100
0000
1000
0001
1000
0000
0001
0010
0001
0000
0100
0010
,  // measure 83
2000
0000
0000
0010
0000
0001
0000
3100
,  // measure 84
1000
0000
0100
1000
0100
0000
1000
0000
0010
0000
0010
0000
1000
0000
0001
0000
,  // measure 85
0010
0000
0001
0010
0001
0000
1000
0000
0001
0000
0001
0000
0100
0000
0010
0000
,  // measure 86
1000
0000
0010
0100
0010
0000
1000
0000
0100
0000
0100
0000
0010
0000
0100
0000
,  // measure 87
1000
0000
0001
0010
0001
0000
1000
0000
0001
0000
0001
0000
0100
0000
0010
0000
,  // measure 88
0100
0000
0001
0100
0001
0000
0010
0000
0001
0000
0001
0000
1000
0000
0001
0000
,  // measure 89
0100
0000
0010
1000
0010
0000
1000
0000
0001
0000
0001
0000
1000
0000
0100
1000
,  // measure 90
0100
0000
1000
0100
1000
0000
0010
0000
0100
0000
0100
0000
0110
0000
0000
0000
,  // measure 91
0001
0000
0000
0101
0000
0000
1000
0000
0100
0000
0010
0000
0002
0000
0000
0000
,  // measure 92
1003
0010
1000
0010
1000
1010
0010
0000
,  // measure 93
1000
0100
0010
0100
1000
1100
0100
0010
,  // measure 94
0011
0001
0010
0001
0100
0001
0101
0000
,  // measure 95
0110
0010
1000
0001
0101
0000
1100
0000
,  // measure 96
0011
0000
0001
0000
0001
0000
1000
0001
0100
0000
0100
0000
0010
0000
1000
0000
,  // measure 97
0010
1000
0010
1000
0010
0000
0100
0000
0001
0010
0001
0010
0001
0000
1000
0000
,  // measure 98
0100
1000
0100
1000
0001
1000
0001
1000
0010
0100
0010
0100
0010
1000
0010
1000
,  // measure 99
0001
0010
0000
0001
0000
1000
0001
0000
,  // measure 100
0210
2000
0000
0000
,  // measure 101
0000
0000
0000
0000
,  // measure 102
0000
0000
0000
0000
,  // measure 103
0000
0000
0000
3300
;

//---------------dance-single - ----------------
#NOTES:
     dance-single:
     :
     Challenge:
     17:
     0.981,1.000,0.776,0.117,0.666: // measure 1
0000
0000
0000
0000
,  // measure 2
0000
0000
0000
0000
,  // measure 3
0000
0000
0000
0000
,  // measure 4
0020
1000
0100
0001
,  // measure 5
0100
1000
0001
1030
,  // measure 6
0002
0010
1000
0103
,  // measure 7
2000
0010
0001
3100
,  // measure 8
1001
0010
1000
0001
,  // measure 9
1000
0000
0100
0000
0010
0000
0100
0000
1000
0000
0001
0100
0001
0000
1000
0010
,  // measure 10
1000
0000
0000
0000
0001
0000
0000
0000
0010
0000
0000
0000
0100
0000
0010
0001
,  // measure 11
0010
0000
0001
0000
1000
0000
0001
0000
0100
0000
0001
0010
0001
0000
1000
0100
,  // measure 12
1000
0010
1010
0010
1010
1000
1001
0001
,  // measure 13
0010
0000
0001
0000
0011
0000
0001
0000
0101
0000
0001
0000
1001
0000
1000
0001
,  // measure 14
0100
0010
1010
0010
0110
0100
0101
0100
,  // measure 15
0001
0000
0000
0010
0000
0000
0011
0000
0000
0001
0000
0000
1001
0000
0000
1000
0000
0000
0100
0000
1000
0000
0010
0000
,  // measure 16
1000
0000
0010
0000
1000
0010
0100
0010
1000
0000
0001
0000
0010
0100
0010
0001
,  // measure 17
1000
0000
0001
0000
0100
0010
1000
0010
0100
0000
0010
0000
1000
0001
0100
0001
,  // measure 18
1000
0000
0100
0010
0001
0000
0010
0100
1000
0000
0100
0010
0001
0000
1000
0001
,  // measure 19
0020
0000
0002
0033
,  // measure 20
1001
0001
0101
0100
0110
0010
1010
1000
,  // measure 21
1100
0000
0100
0000
0110
0000
0100
0000
1100
0000
1000
0000
1010
0000
0010
1000
,  // measure 22
0100
1000
1100
1000
1010
1010
0110
0100
,  // measure 23
0101
0000
0001
0000
1001
0000
0001
0000
0010
0100
1000
0100
0010
0100
1000
0100
,  // measure 24
0010
0001
0011
0001
1001
0001
0101
0100
,  // measure 25
0110
0000
0010
0000
1010
0000
1000
0000
1001
0000
1000
0000
1001
0000
0100
0010
,  // measure 26
0001
0010
0011
0001
0101
0100
0110
0010
,  // measure 27
2010
0000
0000
3200
0000
0000
1300
0000
0001
0100
0001
1000
,  // measure 28
0001
1000
1010
0010
1010
1000
1001
0001
,  // measure 29
0011
0000
0001
0000
0101
0000
0001
0000
1001
0000
1000
0000
1010
0000
0010
0100
,  // measure 30
0001
0010
0110
0100
1100
1000
1010
0110
,  // measure 31
1010
0000
1000
0000
1001
0000
1000
0000
0001
0010
0100
0010
0001
0010
0100
1000
,  // measure 32
0001
0100
0101
0100
0110
0010
1010
1000
,  // measure 33
1001
0000
1000
0000
1100
0000
0100
0000
0110
0000
0010
0001
1000
0000
0010
1000
,  // measure 34
0001
0000
0010
0000
0110
0000
0010
0000
0011
0000
0001
1000
0010
0000
1000
0001
,  // measure 35
0200
0000
0020
0330
,  // measure 36
0010
0000
1000
0000
0001
0100
0010
0100
0001
0000
1000
0000
0100
0010
0001
0010
,  // measure 37
0100
0000
1000
0000
0010
1000
0001
1000
0010
0000
1000
0000
0001
0000
0100
0000
,  // measure 38
0001
0000
0010
0000
0001
0100
0010
0100
0001
0000
1000
0000
0010
1000
0100
1000
,  // measure 39
0010
0000
0100
0000
0001
1000
0100
1000
0001
0000
0010
0000
0001
0100
0010
0100
,  // measure 40
0001
0000
1000
0000
0100
0010
0001
0010
0100
0000
1000
0000
0010
0100
0001
0100
,  // measure 41
0010
0000
1000
0000
0001
0010
0001
1000
0010
0000
1000
0000
0100
0000
0010
0000
,  // measure 42
0100
0000
1000
0000
0010
1000
0001
1000
0010
0100
0001
1000
0001
1000
0001
0010
,  // measure 43
0001
0000
0000
0000
0000
0000
1000
0000
0000
0000
0000
0000
0001
0000
0000
0010
0000
0000
0100
0000
0000
1000
0000
0000
0001
0000
0000
0000
0000
0000
0000
0000
1000
0000
0000
0000
0010
0000
0000
0000
1000
0000
0000
0000
0001
0000
0000
0000
,  // measure 44
0200
0000
0000
0000
0310
0100
0001
1000
0001
0000
0000
0000
1001
0000
0000
0000
,  // measure 45
1100
0000
0010
0000
0100
1000
0010
1000
0001
0000
0100
0001
1000
0000
0001
0000
,  // measure 46
0010
0000
0001
0000
0100
0001
0010
0001
0100
0000
0010
0000
1000
0010
0100
0010
,  // measure 47
1000
0000
0001
0010
0100
0000
1000
0100
0010
0001
1000
0001
1000
0000
0010
0100
,  // measure 48
0001
0000
0100
0000
0010
1000
0001
1000
0010
0000
1000
0000
0100
1000
0001
1000
,  // measure 49
0010
0000
0100
0000
0001
0010
0100
0010
0001
0000
1000
0100
0010
0000
0001
0000
,  // measure 50
0100
0000
0010
0000
1000
0010
0100
0001
1000
0000
0001
0000
0010
0100
0010
0001
,  // measure 51
1000
0000
0001
0100
0000
1000
0100
0000
0001
0010
0100
1000
,  // measure 52
0001
0000
0001
0000
0011
0000
0001
0000
0101
0000
0001
0000
1001
0000
0001
1000
,  // measure 53
0100
0000
0100
0000
1100
0000
0100
0000
1100
0000
1000
0000
1010
0000
0010
0100
,  // measure 54
0001
0000
0010
0000
0011
0000
0011
0000
1010
0000
0010
0000
0011
0000
0001
0100
,  // measure 55
0010
0000
0100
0000
0101
0000
0100
0000
0001
0010
0100
1000
0001
0010
0100
1000
,  // measure 56
0010
0000
1000
0000
1010
0000
0010
0000
0110
0000
0110
0000
0101
0000
0001
1000
,  // measure 57
0100
1000
0100
1000
0010
0000
0100
0001
0100
0001
0010
0000
0100
1000
0001
1000
,  // measure 58
0010
0000
0010
0000
0110
0000
0110
0000
0100
0001
1000
0001
0010
0001
1000
0001
,  // measure 59
0100
0010
0100
0010
1000
0100
0010
0000
0001
0000
0001
0000
1010
0000
0000
0000
,  // measure 60
0101
1001
1100
1001
,  // measure 61
1010
0000
0000
0000
1001
0000
0000
0000
0011
0000
0000
0000
1001
0000
0001
1000
,  // measure 62
0100
1000
1100
0000
0010
0001
0011
0000
,  // measure 63
0100
0001
0100
0001
1000
0001
1000
0001
0010
0001
0010
0001
1000
0001
0100
0001
,  // measure 64
0100
0000
0010
0000
1000
0001
0010
0001
,  // measure 65
1000
0000
0001
0000
0100
0001
0010
0001
,  // measure 66
0100
0000
0001
0000
1000
0010
0100
0010
,  // measure 67
1000
0100
1000
0100
0010
0001
0010
0001
0100
0010
1000
0001
0020
0000
0000
0000
,  // measure 68
0031
0000
0000
0000
,  // measure 69
0000
0000
0000
0000
,  // measure 70
1000
0010
0010
1000
0100
0100
0010
0001
,  // measure 71
0100
0010
0010
1000
0010
0001
0010
1000
,  // measure 72
0100
0010
0010
0100
1000
1000
0001
0010
,  // measure 73
0100
0010
0010
0001
0100
1000
0100
0001
,  // measure 74
0010
0100
0100
0010
0001
0001
1000
0010
,  // measure 75
0100
0000
0001
0000
0001
0000
1000
0000
0001
0010
0001
0000
1000
0000
0100
0000
,  // measure 76
0110
0001
0001
0100
0010
1000
0001
1001
,  // measure 77
1001
0000
0010
0000
0010
0000
1000
0000
0100
0000
0010
0000
0100
1000
0001
1000
,  // measure 78
0010
0100
0100
0001
0010
0010
0001
1001
,  // measure 79
0001
0000
0101
0000
0001
0000
0011
0000
0011
0000
0000
0000
1000
0000
0001
0010
,  // measure 80
0100
0000
0100
0000
0110
0000
0001
1000
0100
0000
0100
0000
1100
0000
1000
0001
,  // measure 81
0010
0000
0010
0000
0011
0000
0001
1000
0010
0000
0010
0000
1010
0000
0010
1000
,  // measure 82
0001
0100
0001
0100
0010
1000
0010
1000
0001
0010
0100
1000
0001
0010
0100
1000
,  // measure 83
0002
0000
0000
0100
0000
1000
0000
0013
,  // measure 84
0001
0000
0100
0001
0100
0000
0010
1000
0010
0000
0010
0000
1000
0000
0100
0010
,  // measure 85
0001
0000
1000
0100
0010
0000
0100
1000
0010
0000
0010
0000
0100
0000
0001
1000
,  // measure 86
0100
0000
1000
0001
0010
0000
0001
1000
0010
0000
0010
0000
1000
0000
0001
0100
,  // measure 87
0010
0000
0100
0001
0010
0000
0100
0010
0001
0010
0001
0000
1000
0100
1000
0000
,  // measure 88
0010
0000
0100
0001
0010
0000
0100
1000
0010
0000
0010
0000
0100
0000
0001
1000
,  // measure 89
0100
0000
1000
0001
0010
0000
0001
1000
0010
0000
0010
0000
0100
0000
0001
0100
,  // measure 90
0010
0000
1000
0100
0010
0000
0100
1000
0001
0000
0001
0000
0100
0000
0001
0100
,  // measure 91
0010
0000
0000
0110
0000
0000
0001
0000
1000
0000
1100
0000
0002
0000
0000
0000
,  // measure 92
1003
0000
0010
0000
1010
0000
0010
0000
1010
0000
0010
0000
1000
0000
0100
0010
,  // measure 93
0001
0000
0010
0000
0011
0000
0001
0000
0011
0000
0010
0000
0001
0000
0100
0010
,  // measure 94
1000
0000
0001
0000
0101
0000
0001
0000
1001
0000
1000
0000
0100
0000
0010
0100
,  // measure 95
1000
0000
0010
0000
0110
0000
0010
0100
0001
0000
1000
0000
0001
1000
0100
1000
,  // measure 96
0001
0000
0010
0000
0011
0000
0001
0100
0010
0000
0100
0000
0101
0000
0001
1000
,  // measure 97
0010
1000
0010
1000
0001
0100
0001
0100
0001
0010
0001
0010
0001
1000
0001
1000
,  // measure 98
0001
0010
0100
1000
0001
0010
0100
1000
0002
0000
0000
0000
0023
0000
0000
0000
,  // measure 99
0031
0100
0000
0110
0000
1001
0010
0000
,  // measure 100
0210
0002
0000
0000
,  // measure 101
0000
0000
0000
0000
,  // measure 102
0000
0000
0000
0000
,  // measure 103
0000
0000
0000
0303
;
