#TITLE:大切なもの;
#SUBTITLE:;
#ARTIST:Long Run Music, Inc.;
#TITLETRANSLIT:TAISETSUNAMONO;
#SUBTITLETRANSLIT:;
#ARTISTTRANSLIT:;
#GENRE:;
#CREDIT:;
#MENUCOLOR:;
#NEWMETERSYSTEM:NO;
#BANNER:TAISETSUNAMONO.png;
#BACKGROUND:TAISETSUNAMONO-bg.png;
#LYRICSPATH:;
#CDTITLE:./CDTITLES/NONE.PNG;
#MUSIC:TAISETSUNAMONO.mp3;
#OFFSET:-1.258;
#SAMPLESTART:76.099;
#SAMPLELENGTH:15.000;
#SELECTABLE:YES;
#LISTSORT:;
#BPMS:0.000=205.000;
#STOPS:;
#BGCHANGES:;
#ATTACKS:;

//---------------dance-single - ----------------
#NOTES:
     dance-single:
     :
     Beginner:
     4:
     0.217,0.252,0.030,0.000,0.000:
0000
0000
0000
0000
,
0000
0000
0000
0000
,
0000
0000
0000
0000
,
0000
0000
0000
0000
,
0001
0000
0000
0000
,
0010
0000
0000
0000
,
0100
0000
0000
0000
,
0010
0000
0000
0000
,
1001
0000
0000
0000
,
1000
0000
0000
0000
,
0100
0000
0000
0000
,
0010
0000
0000
0000
,
0100
0000
0000
0000
,
0001
0000
0000
0000
,
1000
0000
0001
0000
,
0100
0000
0010
0000
,
0000
1000
0000
0100
,
0000
0010
0000
0100
,
0000
0001
0000
0100
,
0000
0010
0000
1000
,
0000
0001
0000
1000
,
0000
0100
0000
0010
,
0000
0100
0000
0001
,
0000
0100
0100
0100
,
0000
0010
0000
1000
,
0000
0001
0000
1000
,
0000
0100
0000
1000
,
0000
0100
0000
0010
,
0000
0001
0000
0010
,
0000
0001
0000
0100
,
0000
0000
1000
0000
,
0001
0000
0010
0000
,
0001
0000
0100
0000
,
0010
0000
1000
0000
,
1000
0000
0100
0000
,
0010
0000
0001
0000
,
0001
0000
1000
0000
,
1000
0000
0001
0000
,
0010
0000
0001
0000
,
1000
0000
0100
0000
,
1000
0000
0010
0000
,
0100
0000
0001
0000
,
0001
0000
0100
0000
,
0010
0000
1000
0000
,
1000
0000
0001
0000
,
1000
0000
0001
0000
,
0100
0000
0010
0000
,
0001
0000
1000
1000
,
1000
0000
0001
0000
,
0100
0000
0010
0010
,
0010
0000
0100
0000
,
0010
0000
0001
0001
,
0001
0000
1000
0000
,
0100
0000
0010
0000
,
0100
0000
1000
0000
,
0001
0000
0100
0100
,
0100
0000
0010
0000
,
0100
0000
1000
0000
,
0001
0000
0010
0000
,
0001
0000
0100
0000
,
1000
0000
0000
0000
,
0000
0000
0000
0000
,
1001
0000
0000
0000
,
0001
0000
1000
0000
,
0000
0010
0000
0100
,
0000
0001
0000
0100
,
0000
1000
0000
0100
,
0000
1000
0000
0100
,
0000
0010
0000
0001
,
0000
0010
0000
0001
,
0000
1000
0000
0001
,
0000
0100
0000
0010
,
0000
1000
0000
0001
,
0000
1000
0000
0100
,
0000
1000
0000
0100
,
0000
0010
0000
0001
,
0000
0000
1000
0000
,
0000
0000
0010
0000
,
0100
0000
0001
0000
,
1000
0000
0100
0000
,
1000
0000
0100
0000
,
0010
0000
0001
0000
,
1000
0000
0001
0000
,
0010
0000
0001
0000
,
0100
0000
0010
0000
,
0110
0000
0000
0000
;

//---------------dance-single - ----------------
#NOTES:
     dance-single:
     :
     Easy:
     6:
     0.393,0.503,0.079,0.316,0.000:
0200
0000
0000
0000
,
0000
0000
0000
0300
,
0020
0000
0000
0000
,
0000
0000
0000
0030
,
2000
0000
0000
0000
,
0000
0000
0000
3000
,
0002
0000
0000
0003
,
2000
3000
0001
0001
,
0002
0000
0000
0003
,
0200
0000
0000
0300
,
0020
0000
0000
0030
,
2000
0000
0000
3000
,
0002
0000
0000
0003
,
0020
0000
0000
0030
,
0200
0000
0000
0300
,
0020
0030
1000
1000
,
0001
0000
0100
0000
,
0010
0000
1000
0100
,
1000
0010
0100
0001
,
1000
0000
1000
0001
,
0010
0000
0010
0001
,
0100
0000
0100
0010
,
1000
0001
1000
0010
,
0100
0010
1000
0001
,
1001
0000
0100
0000
,
0010
0000
1000
0100
,
0010
0100
1000
0001
,
0100
0000
0001
0100
,
0010
0010
1000
1000
,
0001
0001
0100
0100
,
0002
0000
2000
0000
,
0000
0000
0000
3003
,
2100
0100
0100
3100
,
0020
1000
1000
1030
,
0002
0100
0100
0103
,
0020
0100
0100
0130
,
0002
0010
0010
0013
,
0200
1000
1000
1300
,
0020
1000
1000
1030
,
0001
0100
0010
1000
,
0001
0010
0100
0010
,
0001
0000
0100
0010
,
1000
0100
1000
0010
,
1000
0000
1000
0001
,
0100
0010
1000
1000
,
0001
0001
0100
0010
,
2002
0000
0000
3003
,
0100
0100
0010
0100
,
0110
0000
0001
0000
,
1000
0000
0100
1000
,
0010
0100
0001
1000
,
0001
0000
1000
0100
,
1000
0100
0001
0100
,
1000
0010
0001
0010
,
1000
0000
0001
1000
,
0010
0100
0010
0110
,
1000
0000
0001
0000
,
0010
0000
0001
0100
,
0001
0001
1000
1000
,
0020
0000
0000
0030
,
0100
0100
0100
0100
,
0100
0100
0100
0100
,
0010
0010
0010
0010
,
2002
0000
0000
3003
,
1000
0001
0000
0001
,
0100
0001
0000
1000
,
0020
0030
2000
3000
,
0002
0003
0200
0300
,
0001
0010
0000
0010
,
0100
0010
0000
0001
,
1000
0001
0000
1000
,
0010
0100
0010
1000
,
0100
0001
0100
1000
,
0010
0001
0010
1000
,
0200
0000
0000
0300
,
1000
0010
1000
0001
,
0100
0100
0001
0001
,
0010
0010
0001
0001
,
1001
0000
0100
0000
,
0010
0100
0001
1000
,
0001
0000
1000
0000
,
0100
0010
0100
1000
,
0001
0000
0010
0000
,
0001
0010
1000
0010
,
0001
0000
0100
0000
,
0110
0000
0000
0000
;

//---------------dance-single - ----------------
#NOTES:
     dance-single:
     :
     Medium:
     9:
     0.532,0.628,0.237,0.316,0.000: // measure 1
0020
0000
0000
0030
,  // measure 2
2000
0000
0000
3000
,  // measure 3
0002
0000
0000
0003
,  // measure 4
0200
0000
0000
0300
,  // measure 5
0002
0000
0000
0003
,  // measure 6
0020
0000
0000
0030
,  // measure 7
0200
0000
0000
0300
,  // measure 8
2000
0000
0000
3000
,  // measure 9
0001
0100
0001
0100
,  // measure 10
0020
0030
0100
0001
,  // measure 11
1000
0001
1000
0100
,  // measure 12
2000
3000
0001
0010
,  // measure 13
0100
0100
0010
0010
,  // measure 14
0001
1000
0001
1000
,  // measure 15
0020
0000
0000
0030
,  // measure 16
0100
0010
1000
0001
,  // measure 17
1001
1000
0001
0100
,  // measure 18
0001
0010
0100
0010
,  // measure 19
0001
0001
1000
0010
,  // measure 20
1000
1000
0100
0010
,  // measure 21
0100
1000
0001
0100
,  // measure 22
0010
1000
0001
1000
,  // measure 23
0010
0100
0001
1000
,  // measure 24
0100
0010
1100
1001
,  // measure 25
0001
0100
0001
0010
,  // measure 26
0001
1000
0010
0100
,  // measure 27
0010
0010
1000
1000
,  // measure 28
0001
0010
0100
1000
,  // measure 29
0100
0100
0010
0010
,  // measure 30
0001
1000
0001
0100
,  // measure 31
0020
0030
0200
0300
,  // measure 32
0001
1000
0000
0001
0000
1000
0000
0001
,  // measure 33
0200
0000
0310
0100
0010
0100
0010
0000
,  // measure 34
2000
0000
3001
1000
0001
1000
0001
0000
,  // measure 35
0020
0000
0130
0010
0100
0010
0100
0000
,  // measure 36
0200
0000
1300
0100
1000
0100
1000
0000
,  // measure 37
0002
0000
0103
0001
0100
0001
0100
0000
,  // measure 38
0020
0000
1030
0010
1000
0010
1000
0000
,  // measure 39
0002
0000
1003
0001
1000
0001
1000
0000
,  // measure 40
0001
0100
0010
1000
,  // measure 41
0001
0010
0100
1000
,  // measure 42
0100
1000
0010
0100
,  // measure 43
0001
0001
0010
1000
,  // measure 44
0010
0010
0001
0100
,  // measure 45
0010
0100
0001
1000
,  // measure 46
0010
0100
0010
1000
,  // measure 47
2002
0000
0000
3003
,  // measure 48
1000
0001
1001
0110
,  // measure 49
0100
0010
1000
0100
,  // measure 50
0010
0100
1000
0001
,  // measure 51
0100
0000
0001
0000
0010
0000
0001
1000
,  // measure 52
0000
1000
0001
0000
1000
0000
0100
0000
,  // measure 53
1000
0010
0100
0100
,  // measure 54
0010
1000
0001
0001
,  // measure 55
0010
0001
0100
0010
,  // measure 56
1000
0001
0110
1001
,  // measure 57
0001
0100
0001
0010
,  // measure 58
1000
0010
0001
0100
,  // measure 59
0010
0000
1000
0000
0001
0000
1000
0100
,  // measure 60
0000
0100
1000
0000
0001
0000
0010
0000
,  // measure 61
0002
0000
0103
0010
0100
0010
0100
0000
,  // measure 62
0020
0000
1030
0001
1000
0001
1000
0000
,  // measure 63
0200
0000
0310
0100
0010
0100
0010
0000
,  // measure 64
0100
1000
0010
1000
,  // measure 65
0001
1001
0000
1001
,  // measure 66
0000
0110
0000
0110
,  // measure 67
0200
0300
0002
0003
,  // measure 68
2000
3000
0020
0030
,  // measure 69
1000
1100
0000
0011
,  // measure 70
0000
0101
0000
1001
,  // measure 71
0000
0110
0000
1001
,  // measure 72
0001
0010
0100
0010
,  // measure 73
0001
0101
0000
1001
,  // measure 74
0000
1100
0000
1001
,  // measure 75
0000
1010
0000
0110
,  // measure 76
0010
0100
0001
1000
,  // measure 77
0001
1000
0100
0010
,  // measure 78
0100
1000
0001
0100
,  // measure 79
0010
1000
0000
1000
0010
0000
0010
1000
,  // measure 80
0000
1000
0001
0000
0001
0200
0000
0000
,  // measure 81
0301
0010
0000
0010
0001
0000
0001
0010
,  // measure 82
0000
0010
0001
0000
0001
2000
0000
0000
,  // measure 83
3010
0100
0000
0100
0010
0000
0010
0100
,  // measure 84
0000
0100
0010
0000
1000
0200
0000
0000
,  // measure 85
1300
0100
0000
0100
1000
0001
1000
0001
;

//---------------dance-single - ----------------
#NOTES:
     dance-single:
     :
     Hard:
     12:
     0.742,0.754,0.494,0.326,0.000: // measure 1
2000
0001
0001
3001
,  // measure 2
0200
0010
0010
0310
,  // measure 3
0002
1000
1000
1003
,  // measure 4
0020
0100
0100
0130
,  // measure 5
0002
1000
1000
1003
,  // measure 6
0020
1000
1000
1030
,  // measure 7
0200
0001
0001
0301
,  // measure 8
2000
0100
0010
3001
,  // measure 9
2001
0001
0001
3001
,  // measure 10
0120
0100
0100
0130
,  // measure 11
2100
0100
0100
3100
,  // measure 12
0012
0010
0010
0013
,  // measure 13
2001
0001
0001
3001
,  // measure 14
0120
0100
0100
0130
,  // measure 15
1002
0100
1000
0013
,  // measure 16
0100
0000
0110
0000
0010
1000
0001
0000
,  // measure 17
1000
0000
1100
0000
0100
1000
0001
0000
,  // measure 18
0100
0000
0101
0000
0010
0100
0001
0000
,  // measure 19
0010
0000
0011
0000
0001
0010
0100
1000
,  // measure 20
0000
1000
0100
0000
1000
0001
0100
0000
,  // measure 21
0010
0000
1010
0000
0001
0100
0001
0000
,  // measure 22
0100
0000
1100
0000
0001
0010
0100
0000
,  // measure 23
0010
0000
0011
0000
0100
1000
0001
0100
,  // measure 24
0000
0100
0010
0000
0100
0001
1000
0000
,  // measure 25
0001
0000
1001
0000
0010
1000
0100
0000
,  // measure 26
1000
0000
1001
0000
0010
0001
0100
0000
,  // measure 27
0010
0000
0110
0000
0010
1000
0001
0100
,  // measure 28
0000
0100
0001
0000
1000
0100
1000
0000
,  // measure 29
0001
0000
0011
0000
0001
0010
0100
0000
,  // measure 30
1000
0000
1010
0000
1000
0010
0100
0000
,  // measure 31
0010
1000
0001
0000
1000
0001
0100
0000
,  // measure 32
0001
1000
0000
1001
0000
0110
0000
0100
,  // measure 33
0020
0000
1030
0100
1000
0100
1000
0010
,  // measure 34
2000
0000
3001
0100
0001
0100
0001
0010
,  // measure 35
0002
0000
0103
0010
0100
0001
0100
0010
,  // measure 36
0200
0000
0310
1000
0001
1000
0100
0010
,  // measure 37
0200
0000
1300
0100
0010
0001
0100
0010
,  // measure 38
2000
0000
3010
1000
0001
1000
0010
1000
,  // measure 39
0020
0000
1030
0010
0100
0001
0010
0001
,  // measure 40
0200
0000
0301
0010
0100
1000
0100
0010
,  // measure 41
0001
0000
0100
0000
0001
0010
0001
0000
,  // measure 42
1000
0000
0100
0000
1000
0010
1000
0000
,  // measure 43
0100
0000
0010
0000
0100
1000
0001
0000
,  // measure 44
0100
0000
0010
0000
1000
0001
1000
0000
,  // measure 45
0001
0000
0010
0000
1000
0010
0100
0000
,  // measure 46
0001
0000
0100
0000
0010
1000
0001
0000
,  // measure 47
1000
0000
1100
0000
0001
0010
0100
0000
,  // measure 48
0010
0000
0011
0000
1000
0001
1000
0001
,  // measure 49
0100
0000
0110
0000
0010
1000
0100
0000
,  // measure 50
0010
0000
0011
0000
0001
0010
0100
0000
,  // measure 51
1000
0000
1001
0000
0001
0100
0001
0010
,  // measure 52
0000
0010
0001
0000
1000
0100
1000
0000
,  // measure 53
0010
0000
1010
0000
0010
1000
0100
0000
,  // measure 54
0010
0000
0011
0000
0010
0001
0100
0000
,  // measure 55
0100
0000
0101
0000
0001
1000
0001
0100
,  // measure 56
0000
0100
0010
0000
0110
0000
1001
0000
,  // measure 57
1000
0000
1100
0000
0100
1000
0001
0000
,  // measure 58
0100
0000
0101
0000
0100
0001
1000
0000
,  // measure 59
0001
0000
0011
0000
0001
0010
0100
0010
,  // measure 60
0000
0010
0001
0000
1000
0100
1000
0000
,  // measure 61
0020
0000
1030
0010
1000
0010
1000
0010
,  // measure 62
2000
0000
3100
1000
0100
1000
0100
1000
,  // measure 63
0200
0000
0310
0001
1000
0001
0100
0010
,  // measure 64
1000
0100
0100
1000
0001
0001
1001
0000
,  // measure 65
0110
0000
0100
0000
0001
0010
0001
0000
,  // measure 66
1100
0000
0100
0000
1000
0010
1000
0000
,  // measure 67
1020
0000
1030
0000
1000
0010
0100
0000
,  // measure 68
0012
0000
0013
0000
0001
0010
0001
0000
,  // measure 69
1001
0000
0001
0000
1000
0001
0100
0000
,  // measure 70
0110
0000
0100
0000
0010
1000
0001
0000
,  // measure 71
1100
0000
0110
0000
0100
1000
0001
0000
,  // measure 72
0100
0001
1000
0000
0010
0100
0001
0010
,  // measure 73
0001
0000
0011
0000
0001
0010
0100
0000
,  // measure 74
1000
0000
1010
0000
1000
0010
0100
0000
,  // measure 75
2100
0000
3100
0000
0010
0100
1000
0000
,  // measure 76
0102
0000
0103
0000
0010
1000
0001
0000
,  // measure 77
1001
0010
0100
0010
,  // measure 78
1001
0100
0010
0100
,  // measure 79
1000
0001
0000
0001
0100
0000
0010
1000
,  // measure 80
0000
1000
0001
0000
0100
0020
0000
0000
,  // measure 81
0130
0001
0000
1000
0100
0000
0010
0001
,  // measure 82
0000
1000
0010
0000
1000
0002
0000
0000
,  // measure 83
1003
0010
0000
0100
0010
0000
1000
0100
,  // measure 84
0000
0010
0001
0000
0100
0020
0000
0000
,  // measure 85
0130
0001
0000
1000
0001
1000
0001
1001
;

//---------------dance-single - ----------------
#NOTES:
     dance-single:
     :
     Challenge:
     10:
     0.484,0.545,0.237,0.316,0.000: // measure 1
0020
0000
0030
MMMM
,  // measure 2
2000
0000
3000
MMMM
,  // measure 3
0002
0000
0003
MMMM
,  // measure 4
0200
0000
0300
MMMM
,  // measure 5
0002
0000
0003
MMMM
,  // measure 6
0020
0000
0030
MMMM
,  // measure 7
0200
0000
0300
MMMM
,  // measure 8
2000
0000
3000
MMMM
,  // measure 9
0001
0100
0001
0100
,  // measure 10
0020
0030
MMMM
0001
,  // measure 11
1000
0001
1000
0100
,  // measure 12
2000
3000
MMMM
0010
,  // measure 13
0100
0100
0010
0010
,  // measure 14
0001
1000
0001
1000
,  // measure 15
0020
0000
0030
MMMM
,  // measure 16
0100
0010
1000
0001
,  // measure 17
1001
MMMM
0001
0100
,  // measure 18
0001
0010
0100
0010
,  // measure 19
0001
MMMM
1000
0010
,  // measure 20
1000
1000
0100
0010
,  // measure 21
0100
MMMM
0001
0100
,  // measure 22
0010
1000
0001
1000
,  // measure 23
0010
MMMM
0001
1000
,  // measure 24
0100
0010
1100
1001
,  // measure 25
0001
MMMM
0001
0010
,  // measure 26
0001
1000
0010
0100
,  // measure 27
0010
MMMM
1000
1000
,  // measure 28
0001
0010
0100
1000
,  // measure 29
0100
MMMM
0010
0010
,  // measure 30
0001
1000
0001
0100
,  // measure 31
0020
0030
0200
0300
,  // measure 32
0001
1000
MMMM
0001
0000
1000
MMMM
0001
,  // measure 33
0200
0000
0310
0100
0010
0100
MMMM
0000
,  // measure 34
2000
0000
3001
1000
0001
1000
MMMM
0000
,  // measure 35
0020
0000
0130
0010
0100
0010
MMMM
0000
,  // measure 36
0200
0000
1300
0100
1000
0100
MMMM
0000
,  // measure 37
0002
0000
0103
0001
0100
0001
MMMM
0000
,  // measure 38
0020
0000
1030
0010
1000
0010
MMMM
0000
,  // measure 39
0002
0000
1003
0001
1000
0001
MMMM
0000
,  // measure 40
0001
0100
0010
1000
,  // measure 41
0001
MMMM
0100
1000
,  // measure 42
0100
MMMM
0010
0100
,  // measure 43
0001
MMMM
0010
1000
,  // measure 44
0010
MMMM
0001
0100
,  // measure 45
0010
MMMM
0001
1000
,  // measure 46
0010
MMMM
0010
1000
,  // measure 47
2002
0000
3003
MMMM
,  // measure 48
1000
0001
1001
0110
,  // measure 49
MMMM
0010
1000
0100
,  // measure 50
0010
0100
1000
0001
,  // measure 51
MMMM
0000
0001
0000
0010
0000
0001
1000
,  // measure 52
MMMM
1000
0001
0000
1000
0000
0100
0000
,  // measure 53
MMMM
0010
0100
0100
,  // measure 54
0010
1000
0001
0001
,  // measure 55
MMMM
0001
0100
0010
,  // measure 56
1000
0001
0110
1001
,  // measure 57
MMMM
0100
0001
0010
,  // measure 58
MMMM
0010
0001
0100
,  // measure 59
MMMM
0000
1000
0000
0001
0000
1000
0100
,  // measure 60
MMMM
0100
1000
0000
0001
0000
0010
0000
,  // measure 61
0002
0000
0103
0010
0100
0010
MMMM
0000
,  // measure 62
0020
0000
1030
0001
1000
0001
MMMM
0000
,  // measure 63
0200
0000
0310
0100
0010
0100
MMMM
0000
,  // measure 64
0100
1000
0010
1000
,  // measure 65
0001
1001
MMMM
1001
,  // measure 66
MMMM
0110
MMMM
0110
,  // measure 67
0200
0300
0002
0003
,  // measure 68
2000
3000
0020
0030
,  // measure 69
1000
1100
MMMM
0011
,  // measure 70
MMMM
0101
MMMM
1001
,  // measure 71
MMMM
0110
MMMM
1001
,  // measure 72
0001
0010
0100
0010
,  // measure 73
0001
0101
MMMM
1001
,  // measure 74
MMMM
1100
MMMM
1001
,  // measure 75
MMMM
1010
MMMM
0110
,  // measure 76
0010
0100
0001
1000
,  // measure 77
MMMM
1000
0100
0010
,  // measure 78
MMMM
1000
0001
0100
,  // measure 79
0010
1000
MMMM
1000
0010
0000
0010
1000
,  // measure 80
MMMM
1000
0001
0000
0001
0200
0000
0000
,  // measure 81
0301
0010
MMMM
0010
0001
0000
0001
0010
,  // measure 82
MMMM
0010
0001
0000
0001
2000
0000
0000
,  // measure 83
3010
0100
MMMM
0100
0010
0000
0010
0100
,  // measure 84
MMMM
0100
0010
0000
1000
0200
0000
0000
,  // measure 85
1300
0100
MMMM
0100
1000
0001
1000
0001
;
