#TITLE:SKA a go go (SKACORE MIX);
#SUBTITLE:;
#ARTIST:KEN MATSUMOTO;
#TITLETRANSLIT:;
#SUBTITLETRANSLIT:;
#ARTISTTRANSLIT:;
#GENRE:;
#CREDIT:;
#MENUCOLOR:;
#NEWMETERSYSTEM:NO;
#BANNER:SKA a go go (SKACORE MIX).png;
#BACKGROUND:SKA a go go (SKACORE MIX)-bg.png;
#LYRICSPATH:;
#CDTITLE:./CDTITLES/BEATMANIA.PNG;
#MUSIC:SKA a go go (SKACORE MIX).mp3;
#OFFSET:-0.161;
#SAMPLESTART:61.794;
#SAMPLELENGTH:15.000;
#SELECTABLE:YES;
#LISTSORT:;
#BPMS:0.000=170.000;
#STOPS:;
#BGCHANGES:;
#ATTACKS:;

//---------------dance-single - ----------------
#NOTES:
     dance-single:
     :
     Beginner:
     1:
     0.134,0.174,0.025,0.000,0.000:
0000
0000
0000
0000
,
0000
0000
0000
0000
,
0100
0000
0000
0000
,
0100
0000
0000
0000
,
0100
0000
0000
0000
,
0100
0000
0000
0000
,
0010
0000
0000
0000
,
1000
0000
0000
0000
,
0001
0000
0000
0000
,
0100
0000
0000
0000
,
0001
0000
0000
0000
,
0010
0000
0000
0000
,
1000
0000
0000
0000
,
0100
0000
0000
0000
,
0001
0000
0000
0000
,
0010
0000
0000
0000
,
1000
0000
0001
0000
,
1001
0000
0000
0000
,
0010
0000
0100
0000
,
0110
0000
0000
0000
,
0001
0000
0000
0000
,
0100
0000
0000
0000
,
0010
0000
0000
0000
,
1000
0000
0000
0000
,
0100
0000
0000
0000
,
0010
0000
0000
0000
,
1000
0000
0000
0000
,
0100
0000
0000
0000
,
0001
0000
0000
0000
,
0001
0000
0000
0000
,
0100
0000
0000
0000
,
0010
0000
0000
0000
,
1000
0000
0000
0000
,
0010
0000
0000
0000
,
0100
0000
0000
0000
,
0001
0000
0000
0000
,
1000
0000
0001
0000
,
1000
0000
0000
0000
,
0001
0000
1000
0000
,
0001
0000
0000
0000
,
0010
0000
0100
0000
,
0010
0000
0000
0000
,
0100
0000
0001
0000
,
1000
0000
0000
0000
,
0001
0001
0000
0000
,
1000
1000
0000
0000
,
0001
0001
0000
0000
,
1000
1000
0000
0000
,
0001
0001
0000
0000
,
1000
1000
0000
0000
,
0001
0001
0000
0000
,
1000
1000
0000
0000
,
0010
0000
0010
0000
,
0010
0000
0010
0000
,
0010
0000
0010
0000
,
0100
0100
0000
0000
;

//---------------dance-single - ----------------
#NOTES:
     dance-single:
     :
     Easy:
     6:
     0.348,0.384,0.114,0.063,0.000:
0000
0000
0000
0000
,
0000
0000
0000
0000
,
1000
0000
0001
0000
,
1000
0000
0001
0000
,
0100
0100
0100
0100
,
0100
0100
0100
0100
,
0010
1000
0001
0100
,
0010
1000
0001
0001
,
1000
0100
0010
0001
,
1000
0100
0010
0010
,
0100
1000
0001
0100
,
0010
1000
0001
0100
,
0001
0001
0010
0010
,
0100
0100
1000
1000
,
0002
1000
0000
1000
,
0000
1000
0000
1003
,
0010
0000
0100
0000
,
0220
0000
0000
0330
,
1000
0000
0001
0000
,
2002
0000
0000
3003
,
1000
0000
1000
0000
,
0100
0010
0001
0100
,
0010
0000
0010
0000
,
0100
0001
1000
0010
,
1000
0000
0100
0000
,
0010
0100
1000
0001
,
0100
0000
0001
0000
,
0010
0001
0010
1000
,
0010
0000
0100
0000
,
1000
0000
0100
0100
,
1000
0000
0001
0000
,
0100
0000
0010
0010
,
0001
0000
1000
0000
,
0001
0100
0010
1000
,
0001
0000
1000
0000
,
0100
0010
0100
1000
,
0001
1000
0001
1000
,
0001
1000
0001
1000
,
0001
1000
0001
1000
,
0001
1000
0001
1001
,
0010
0100
0010
0100
,
0010
0100
0010
0100
,
0010
0100
0010
0100
,
0010
0100
0010
0110
,
0010
1000
0001
0100
,
0001
0010
0100
1100
,
1000
0100
0010
0001
,
0100
0010
1000
1001
,
0001
0010
0100
1000
,
0100
0010
0001
0100
,
0010
1000
0010
0100
,
0001
1001
0010
0110
,
0010
1000
0010
1000
,
0001
0100
0001
0100
,
0001
0010
0100
1000
,
0100
0110
0000
0000
;

//---------------dance-single - ----------------
#NOTES:
     dance-single:
     :
     Medium:
     10:
     0.512,0.593,0.152,0.189,0.000:
0000
0000
0000
0000
,
0000
0000
0000
0000
,
0001
0000
1000
0000
,
0001
0000
1000
0000
,
0010
0010
0010
0010
,
0010
0010
0100
1001
,
1000
0000
0001
0000
0100
0001
0100
0000
,
1000
0000
0100
0000
0010
0001
0010
0000
,
0100
0000
0010
0000
1000
0001
1000
0000
,
0001
0000
0010
0000
0100
1000
0100
0000
,
0011
0000
1000
0000
0010
0100
0001
0000
,
0100
0000
0001
0000
1000
0001
0100
0000
,
0010
0000
1000
0000
0001
0010
0100
0000
,
0010
0000
0001
0000
1000
0100
0001
0000
,
1000
0100
1000
0100
1000
0100
1000
0100
,
1000
0010
1000
0010
1000
0001
1000
0001
,
0100
0010
0000
1000
0001
0000
1000
0200
,
0000
0000
0000
0310
,
1000
0001
0000
0001
1000
0000
1000
0002
,
0000
0000
0000
0003
,
0100
0100
0020
0030
,
1000
0001
1000
0002
0000
0000
0103
0000
,
0001
0001
0020
0030
,
0100
0010
0001
0000
1000
0000
0100
0000
,
1000
1000
0002
0003
,
1000
0010
0100
0020
0000
0000
1030
0000
,
0001
0001
0020
0030
,
0001
0010
0100
0000
0010
0200
0000
0000
,
1300
0001
0200
0300
,
0010
1000
0010
2000
0000
0000
3001
0000
,
0010
0010
0002
0003
,
1000
0100
0000
0010
0000
0100
0000
1000
,
0100
0100
0020
0030
,
1000
0001
0100
0020
0000
0000
1030
0000
,
0001
0001
0200
0300
,
0010
0010
0010
1001
,
1000
0100
0010
0000
0100
0000
0100
0000
,
1000
0100
0010
0000
0001
0000
0001
0000
,
0001
0100
0010
0000
0100
0000
0100
0000
,
0001
0100
0010
0000
1000
0000
1000
0000
,
0001
1000
0010
0000
0100
0000
0100
0000
,
0001
1000
0010
0000
1000
0000
1000
0000
,
0100
0010
0001
0000
1000
0000
0100
0000
,
0010
0001
0100
0000
0010
0000
1000
0000
,
0001
0100
0001
0100
0001
0000
1001
0000
,
1000
0100
1000
0100
0010
0000
0110
0000
,
0010
0100
0010
0100
1000
0000
1001
0000
,
0001
0100
0001
0000
1000
0000
0110
0000
,
0010
0100
0010
0100
0010
0000
0011
0000
,
1000
0100
1000
0100
1000
0000
1001
0000
,
0010
1000
0010
1000
0010
0000
0101
0000
,
1000
0100
0001
0100
1000
0000
1001
0000
,
1000
0001
1000
0001
0100
0010
0100
0010
,
1000
0100
1000
0100
0010
0001
0010
0001
,
0100
0010
1000
0001
0100
0010
1000
0100
,
0010
0110
0000
0000
;

//---------------dance-single - ----------------
#NOTES:
     dance-single:
     :
     Hard:
     15:
     0.819,1.000,0.253,0.189,0.379: // measure 1
0000
0000
0000
0000
,  // measure 2
0000
0000
0000
0000
,  // measure 3
1000
0100
0010
0001
,  // measure 4
1000
0100
0010
0001
,  // measure 5
1000
1000
1000
1001
,  // measure 6
0001
0000
0000
0000
0001
0000
0000
0000
0001
1000
0001
1000
0001
1000
0001
0000
,  // measure 7
1000
0000
0100
1000
0100
0000
1000
0000
0001
0000
0100
0000
0001
0000
1000
0000
,  // measure 8
0001
0000
0100
0001
0100
0000
0001
0000
1000
0000
0100
0000
1000
0000
0001
0000
,  // measure 9
0100
0000
0010
0100
0010
0000
0100
0000
0001
0000
1000
0000
0100
0000
1000
0000
,  // measure 10
0001
0000
1000
0010
1000
0000
0001
0000
0100
0000
0010
0000
1000
0000
0001
0000
,  // measure 11
1000
0000
0100
0010
0100
0000
1000
0001
1000
0000
0001
1000
0001
0000
1000
0000
,  // measure 12
0001
0000
0100
0010
0100
0000
0001
1000
0001
0000
1000
0001
1000
0000
0001
0000
,  // measure 13
1000
0000
0010
1000
0010
0000
0100
0001
0100
0000
0001
0010
0001
0000
1000
0000
,  // measure 14
0001
0000
0010
0001
0010
0000
0100
1000
0100
0000
1000
0010
1000
0000
0001
0000
,  // measure 15
1000
0100
1000
0100
1000
0100
1000
0100
1000
0100
1000
0100
1000
0100
1000
0100
,  // measure 16
1000
0010
1000
0010
1000
0010
1000
0010
1000
0001
1000
0001
1000
0001
1000
0001
,  // measure 17
0100
0110
0000
1000
1001
0000
0001
0012
,  // measure 18
0000
0000
0000
0103
,  // measure 19
1010
1010
0000
1001
1001
0000
0110
2002
,  // measure 20
0000
0000
0000
3003
,  // measure 21
1000
0100
1000
0010
2000
0000
3001
0100
,  // measure 22
0001
1000
0010
0200
0000
0310
1000
0001
,  // measure 23
1000
0100
0010
0001
2000
0000
3001
0010
,  // measure 24
0100
0010
0001
0100
0010
0100
0001
0000
,  // measure 25
0100
0010
1000
0010
2000
0000
3001
0010
,  // measure 26
0100
0010
0001
0020
0000
0031
0100
0001
,  // measure 27
1000
0001
0100
0010
2000
0000
3001
0100
,  // measure 28
0001
1000
0100
0010
0100
1000
0001
0000
,  // measure 29
1000
0001
0010
0100
0020
0000
0031
1000
,  // measure 30
0010
1000
0100
2000
0000
3001
0010
1000
,  // measure 31
0010
0001
1000
0010
0200
0000
0301
0010
,  // measure 32
0001
0100
0000
1001
0000
1010
0000
0001
,  // measure 33
0100
0010
0100
0001
2000
0000
3001
0100
,  // measure 34
0001
1000
0100
0020
0000
0130
1000
0001
,  // measure 35
0200
0000
0000
0300
,  // measure 36
0010
0000
0010
0000
0010
0100
1001
0000
,  // measure 37
1000
0100
1000
0100
0010
0001
1000
0001
,  // measure 38
0100
0001
0100
0001
0010
1000
0010
0001
,  // measure 39
1000
0001
1000
0001
0100
0010
1000
0001
,  // measure 40
0100
0001
0100
0001
0010
1000
0010
0100
,  // measure 41
0010
0001
0010
0001
1000
0100
0010
0001
,  // measure 42
0100
0010
0100
0010
1000
0001
0100
0010
,  // measure 43
1000
0010
1000
0010
0100
0001
1000
0001
,  // measure 44
0100
0000
0010
0000
0100
0000
0010
0000
1000
0000
0001
0000
1000
0001
1000
0000
,  // measure 45
0001
0100
0001
0100
0010
1000
0001
1000
,  // measure 46
0100
0010
0001
1000
0100
1000
0001
0100
,  // measure 47
0010
1000
0010
1000
0001
0100
0010
1000
,  // measure 48
0001
1001
0000
0000
0110
0110
0000
0000
,  // measure 49
1000
0100
0010
0001
1000
0001
0100
0010
,  // measure 50
1000
0010
0100
0001
1000
0100
0001
0100
,  // measure 51
1000
0001
0100
0010
0001
0010
1000
0100
,  // measure 52
1000
1001
0000
0000
0011
1010
0000
0000
,  // measure 53
0001
1000
0001
1000
0001
1000
0001
1000
0001
1000
0001
1000
0001
1000
0001
1000
,  // measure 54
0010
0100
0010
0100
0010
0100
0010
0100
0010
0100
0010
0100
0010
0100
0010
0100
,  // measure 55
0001
0100
0001
0100
0001
0100
0001
0100
0010
1000
0010
1000
0010
1000
0010
1000
,  // measure 56
0001
1001
0000
0000
;
