#TITLE:Rock to Infinity;
#SUBTITLE:;
#ARTIST:千本松 仁;
#TITLETRANSLIT:;
#SUBTITLETRANSLIT:;
#ARTISTTRANSLIT:Jin Senbonmatsu;
#GENRE:;
#CREDIT:;
#MENUCOLOR:;
#NEWMETERSYSTEM:NO;
#BANNER:Rock to Infinity.png;
#BACKGROUND:Rock to Infinity-bg.png;
#LYRICSPATH:;
#CDTITLE:./CDTITLES/GUITAR FREAKS & DRUMMANIA.PNG;
#MUSIC:Rock to Infinity.mp3;
#OFFSET:-0.168;
#SAMPLESTART:80.740;
#SAMPLELENGTH:15.000;
#SELECTABLE:YES;
#LISTSORT:;
#BPMS:0.000=308.000;
#STOPS:;
#BGCHANGES:;
#ATTACKS:;

//---------------dance-single - ----------------
#NOTES:
     dance-single:
     :
     Beginner:
     7:
     0.318,0.411,0.076,0.000,0.000: // measure 1
0000
0000
0000
0000
,  // measure 2
0000
0000
0000
0000
,  // measure 3
0000
0000
0000
0000
,  // measure 4
0000
0000
0000
0000
,  // measure 5
1000
0000
1000
0000
,  // measure 6
1000
0000
1000
0000
,  // measure 7
0001
0000
0000
0000
,  // measure 8
0000
0000
0100
0000
,  // measure 9
0010
0000
0000
0000
,  // measure 10
1000
0000
0000
0000
,  // measure 11
0001
0000
0001
0000
,  // measure 12
0001
0000
0001
0000
,  // measure 13
0100
0000
0100
0000
,  // measure 14
0100
0000
0100
0000
,  // measure 15
0010
0000
0010
0000
,  // measure 16
0010
0000
0010
0000
,  // measure 17
1000
0000
1000
0000
,  // measure 18
1000
0000
1000
0000
,  // measure 19
0100
0000
0010
0000
,  // measure 20
0001
0000
1000
0000
,  // measure 21
0100
0000
1000
0000
,  // measure 22
0001
0001
0001
0001
,  // measure 23
0001
0000
0100
0000
,  // measure 24
0010
0000
1000
0000
,  // measure 25
0010
0000
0100
0000
,  // measure 26
0001
0000
1000
0000
,  // measure 27
0100
0000
0010
0000
,  // measure 28
0001
0000
1000
0000
,  // measure 29
0001
0000
0100
0000
,  // measure 30
0010
0000
0000
0000
,  // measure 31
1000
0000
1000
0000
,  // measure 32
0001
0000
0001
0000
,  // measure 33
0100
0000
0100
0000
,  // measure 34
0010
0000
0010
0000
,  // measure 35
1000
0000
0100
0000
,  // measure 36
0010
0000
0001
0000
,  // measure 37
1001
0000
0000
0000
,  // measure 38
0000
0000
0000
0000
,  // measure 39
0001
0000
0000
0000
,  // measure 40
0100
0100
0100
0000
,  // measure 41
0000
0000
0010
0010
,  // measure 42
0010
0000
0000
0000
,  // measure 43
1000
1000
1000
0000
,  // measure 44
0000
0000
0001
0001
,  // measure 45
0001
0000
0100
0000
,  // measure 46
0010
0000
1000
0000
,  // measure 47
0100
0000
0010
0000
,  // measure 48
0001
0000
1000
0000
,  // measure 49
0100
0000
1000
0000
,  // measure 50
0001
0000
0100
0000
,  // measure 51
0010
0000
0000
0000
,  // measure 52
0000
0000
0000
0000
,  // measure 53
1001
0000
0010
0000
,  // measure 54
0100
0000
0001
0000
,  // measure 55
1000
0000
0100
0000
,  // measure 56
1000
0000
0001
0000
,  // measure 57
1001
0000
0001
0000
,  // measure 58
0100
0000
0010
0000
,  // measure 59
1000
0000
0010
0000
,  // measure 60
0100
0000
0001
0000
,  // measure 61
0110
0000
0010
0000
,  // measure 62
1000
0000
0100
0000
,  // measure 63
0010
0000
0001
0000
,  // measure 64
1000
0000
0100
0000
,  // measure 65
0110
0000
0100
0000
,  // measure 66
1000
0000
0010
0000
,  // measure 67
0100
0000
0001
0000
,  // measure 68
1000
0000
0001
0000
,  // measure 69
1000
0000
1000
0000
,  // measure 70
0001
0000
0001
0000
,  // measure 71
0100
0000
0100
0000
,  // measure 72
0010
0000
0010
0000
,  // measure 73
1000
1000
1000
0000
,  // measure 74
0001
0000
0100
0000
,  // measure 75
0001
0001
0001
0000
,  // measure 76
0010
0000
0100
0000
,  // measure 77
1000
0000
0000
0000
,  // measure 78
0100
0000
0000
0000
,  // measure 79
0001
0000
0010
0000
,  // measure 80
1000
0000
0000
0000
,  // measure 81
0010
0000
0100
0000
,  // measure 82
0001
0001
0001
0000
,  // measure 83
0010
0000
0100
0000
,  // measure 84
1000
1000
1000
0000
,  // measure 85
0100
0000
0000
0000
,  // measure 86
1000
0000
0000
0000
,  // measure 87
0001
0000
0100
0000
,  // measure 88
0110
0000
0000
0000
,  // measure 89
0010
0010
0010
0000
,  // measure 90
1000
1000
1000
0000
,  // measure 91
0001
0001
0001
0000
,  // measure 92
0100
0100
0100
0000
,  // measure 93
0001
0000
0000
1000
,  // measure 94
0000
0000
1001
0000
,  // measure 95
0000
0000
0000
0000
,  // measure 96
0000
0100
0000
0000
0000
0000
0000
0000
,  // measure 97
1000
1000
0000
0000
,  // measure 98
0001
0000
0000
0000
,  // measure 99
0100
0000
0000
0000
,  // measure 100
0010
0000
0000
0000
,  // measure 101
0100
0100
0000
0000
,  // measure 102
0001
0000
0000
0000
,  // measure 103
0010
0000
0000
0000
,  // measure 104
0100
0000
0000
0000
,  // measure 105
1000
0000
1000
0000
,  // measure 106
1000
0000
1000
0000
,  // measure 107
0001
0000
0001
0000
,  // measure 108
0001
0000
0001
0000
,  // measure 109
0100
0000
0100
0000
,  // measure 110
0100
0000
0100
0000
,  // measure 111
0010
0000
0010
0000
,  // measure 112
0010
0000
0010
0000
,  // measure 113
1000
1000
1000
0000
,  // measure 114
0100
0000
0010
0000
,  // measure 115
0001
0000
0100
0000
,  // measure 116
0010
0000
1000
0000
,  // measure 117
0001
0001
0001
0000
,  // measure 118
0100
0000
0010
0000
,  // measure 119
0100
0000
0001
0000
,  // measure 120
0010
0000
1000
0000
,  // measure 121
0010
0010
0010
0000
,  // measure 122
0100
0000
1000
0000
,  // measure 123
0010
0010
0010
0000
,  // measure 124
0100
0000
0001
0000
,  // measure 125
1000
1000
1000
0000
,  // measure 126
0001
0000
0100
0000
,  // measure 127
0001
0000
0010
0000
,  // measure 128
0100
0000
1000
0000
,  // measure 129
1001
0000
0000
0000
,  // measure 130
0010
0010
0000
0000
,  // measure 131
0100
0000
0000
0000
,  // measure 132
1000
1000
0000
0000
,  // measure 133
0010
0000
0000
0000
,  // measure 134
0001
0001
0000
0000
,  // measure 135
1000
0000
0000
0000
,  // measure 136
0100
0100
0000
0000
,  // measure 137
0001
0000
1000
0000
,  // measure 138
0100
0000
0010
0000
,  // measure 139
0001
0000
1000
0000
,  // measure 140
0001
0000
0000
1001
;

//---------------dance-single - ----------------
#NOTES:
     dance-single:
     :
     Easy:
     11:
     0.733,0.938,0.942,0.311,0.017: // measure 1
0000
0000
0000
0000
,  // measure 2
0000
0000
0000
0000
,  // measure 3
0000
0000
0000
0000
,  // measure 4
0000
0000
0000
0000
,  // measure 5
1000
1000
1000
1000
,  // measure 6
0001
0001
0001
0001
,  // measure 7
0100
0010
1000
0001
,  // measure 8
0100
0001
2002
3003
,  // measure 9
1100
0000
0000
0000
0100
0000
0000
0000
0010
0000
0000
0000
,  // measure 10
1100
0000
0000
0000
0100
0000
0000
0000
0001
0000
0000
0000
,  // measure 11
1001
0001
0100
0001
,  // measure 12
0010
0100
1001
0001
,  // measure 13
0100
0010
1010
0100
,  // measure 14
0001
1000
1001
0010
,  // measure 15
0001
0010
1100
0100
,  // measure 16
0001
0010
1010
0100
,  // measure 17
0001
1000
1001
0010
,  // measure 18
0100
0010
1001
0000
,  // measure 19
0001
0001
1000
1000
,  // measure 20
0100
0100
0010
0010
,  // measure 21
0001
0100
0010
1000
,  // measure 22
0001
0001
1000
1000
,  // measure 23
1001
0010
0100
0001
,  // measure 24
0000
0100
0001
1000
,  // measure 25
0100
0001
0010
1000
,  // measure 26
0000
0010
0001
0100
,  // measure 27
1000
0100
0001
0010
,  // measure 28
1000
0010
0001
0100
,  // measure 29
0010
1000
0001
0100
,  // measure 30
0010
1000
2002
3003
,  // measure 31
1000
1000
0100
1000
,  // measure 32
1001
1000
0100
1000
,  // measure 33
1001
1000
0100
1000
,  // measure 34
1001
1000
0100
1000
,  // measure 35
1001
0000
0101
0000
,  // measure 36
1010
0000
1100
0000
,  // measure 37
0022
0000
0000
0000
,  // measure 38
0000
0000
0000
0033
,  // measure 39
0101
0100
0001
0010
,  // measure 40
0011
0000
1100
0100
,  // measure 41
1000
0010
1010
0000
,  // measure 42
0110
0010
0100
0001
,  // measure 43
1001
0000
1001
1000
,  // measure 44
0100
0010
0110
0000
,  // measure 45
0110
0010
0001
0010
,  // measure 46
0110
0110
0110
0010
,  // measure 47
1000
0010
0110
0110
,  // measure 48
1001
0001
0100
0001
,  // measure 49
1001
1001
1001
1000
,  // measure 50
0010
1000
0001
0100
,  // measure 51
0010
1000
0001
0000
,  // measure 52
0100
0100
0100
0100
,  // measure 53
1001
0001
0100
1000
,  // measure 54
0100
0001
0100
1000
,  // measure 55
0010
0001
0010
1000
,  // measure 56
0100
0001
0100
1000
,  // measure 57
0011
0100
0010
1000
,  // measure 58
0001
0100
0010
1000
,  // measure 59
0100
0001
0010
1000
,  // measure 60
0010
0100
0110
0001
,  // measure 61
1100
0100
0001
0100
,  // measure 62
1000
0001
0100
0010
,  // measure 63
1000
0010
0100
0001
,  // measure 64
0100
0001
0010
0001
,  // measure 65
0101
0100
1000
0010
,  // measure 66
0001
0010
1000
0100
,  // measure 67
0010
0100
1000
0001
,  // measure 68
0100
0010
0001
1000
,  // measure 69
1001
0010
1001
0010
,  // measure 70
1001
0010
2002
3003
,  // measure 71
1001
0100
1001
0100
,  // measure 72
1001
0100
2002
3003
,  // measure 73
1100
0010
1100
0010
,  // measure 74
1100
0010
2002
3003
,  // measure 75
0101
0010
0101
0010
,  // measure 76
0101
0010
2002
3003
,  // measure 77
0001
0100
0010
1000
,  // measure 78
0100
0010
0001
1000
,  // measure 79
0200
0300
0010
0001
,  // measure 80
0200
0000
0000
0300
,  // measure 81
1010
0100
1010
0100
,  // measure 82
1010
0100
2020
3030
,  // measure 83
0011
0100
0011
0100
,  // measure 84
0011
0100
0022
0033
,  // measure 85
1000
0001
0100
0010
,  // measure 86
1000
1000
0100
0100
,  // measure 87
0010
0001
0100
0010
,  // measure 88
0220
0000
0000
0330
,  // measure 89
1000
0001
1001
0001
,  // measure 90
1000
0001
1001
0010
,  // measure 91
1001
0100
0010
0100
,  // measure 92
1001
0100
0110
0010
,  // measure 93
2000
3000
0001
0200
,  // measure 94
0300
0010
2000
0000
,  // measure 95
0000
0000
0000
3000
,  // measure 96
0000
0002
0000
0000
0000
0000
0003
0000
,  // measure 97
1000
0100
0110
1000
,  // measure 98
1001
0000
0001
0101
,  // measure 99
0010
1000
0001
1000
,  // measure 100
0100
0010
0100
1000
,  // measure 101
0001
0101
0010
1000
,  // measure 102
1001
0000
1000
1100
,  // measure 103
0010
0001
0100
0010
,  // measure 104
1000
0001
1000
1001
,  // measure 105
0000
0000
0110
0000
,  // measure 106
1001
0000
0101
0000
,  // measure 107
1100
0000
0011
0000
,  // measure 108
1010
0000
1100
1001
,  // measure 109
0000
0000
0101
0000
,  // measure 110
0110
0000
1001
0000
,  // measure 111
1000
0100
0010
0001
,  // measure 112
1000
0100
0100
0100
,  // measure 113
1000
0010
0100
0001
,  // measure 114
1000
0001
0100
0001
,  // measure 115
0010
0001
1000
0100
,  // measure 116
0010
0100
1000
0001
,  // measure 117
2002
0000
0000
3003
,  // measure 118
1000
0100
0010
0100
,  // measure 119
0220
0000
0000
0330
,  // measure 120
0100
1000
0010
0100
,  // measure 121
0001
0100
1000
0010
,  // measure 122
0022
0000
0000
0033
,  // measure 123
1000
0100
0001
0010
,  // measure 124
2200
0000
0000
3300
,  // measure 125
0100
0001
1000
0010
,  // measure 126
0100
0001
1000
0010
,  // measure 127
2000
0001
0001
0001
,  // measure 128
0001
0000
0001
3000
,  // measure 129
1001
0000
0010
0100
,  // measure 130
0110
0110
0001
0000
,  // measure 131
1100
0000
0001
0100
,  // measure 132
0011
0011
0100
0000
,  // measure 133
1010
0000
0100
0001
,  // measure 134
1001
1001
0100
0000
,  // measure 135
0011
0000
1000
0100
,  // measure 136
1010
1010
0100
0000
,  // measure 137
1001
0001
0100
0010
,  // measure 138
1000
0100
0010
0001
,  // measure 139
1100
0001
0101
0010
,  // measure 140
1000
0001
1000
0220
,  // measure 141
0000
0000
0000
0000
,  // measure 142
0000
0000
0000
0000
,  // measure 143
0000
0000
0000
0000
,  // measure 144
0000
0000
0000
0000
,  // measure 145
0000
0000
0000
0000
,  // measure 146
0000
0000
0000
0000
,  // measure 147
0000
0000
0000
0000
,  // measure 148
0000
0000
0000
0000
,  // measure 149
0000
0000
0000
0330
;

//---------------dance-single - ----------------
#NOTES:
     dance-single:
     :
     Medium:
     13:
     0.759,0.875,0.673,0.143,0.097: // measure 1
0000
0000
0000
0000
,  // measure 2
0000
0000
0000
0000
,  // measure 3
0000
0000
0000
0000
,  // measure 4
0000
0000
0000
0000
,  // measure 5
1001
1000
1000
1000
,  // measure 6
0001
0001
0001
0001
,  // measure 7
0100
0010
1000
0001
,  // measure 8
0100
0001
2002
3003
,  // measure 9
0101
0000
0000
0000
0110
0000
0000
0000
0101
0000
0000
0000
,  // measure 10
1001
0000
0000
0000
1100
0000
0000
0000
1001
0000
0000
0000
,  // measure 11
0110
0000
0010
0000
0100
0000
0001
1000
,  // measure 12
0000
1000
0000
0100
0001
0000
0100
0000
,  // measure 13
1000
0000
0010
0000
0001
0000
0010
0100
,  // measure 14
0000
0100
0000
0001
0010
0000
0100
0000
,  // measure 15
0010
0000
0001
0000
1000
0000
0100
0001
,  // measure 16
0000
0001
0000
0100
1000
0000
0010
0000
,  // measure 17
0100
0001
1000
0100
,  // measure 18
0001
0100
1000
0001
,  // measure 19
1001
0000
0000
0000
0010
0000
0100
0000
0000
0000
0100
0000
,  // measure 20
0001
0000
0000
0000
0001
0000
1000
0000
0000
0000
1000
0000
,  // measure 21
0100
0000
0000
0000
0100
0000
1000
0000
0000
0000
1000
0000
,  // measure 22
0001
1001
1001
1001
,  // measure 23
0100
0000
0010
0000
0100
0000
0001
0010
,  // measure 24
0000
0001
0100
0001
,  // measure 25
1000
0000
0100
0000
0010
0000
0100
1000
,  // measure 26
0000
0001
1000
0100
,  // measure 27
1000
0000
0010
0000
0100
0000
0001
1000
,  // measure 28
0000
0001
0010
0100
,  // measure 29
0010
0001
1000
0001
,  // measure 30
0100
0010
2002
3003
,  // measure 31
1000
0000
0001
0000
0100
0000
0001
1000
,  // measure 32
0100
0000
1000
0000
0001
0000
0100
0001
,  // measure 33
1000
0000
0001
0000
1000
0000
0100
1000
,  // measure 34
0001
1000
0001
0100
,  // measure 35
1001
0000
0000
0001
0010
0000
0000
0010
,  // measure 36
0100
0000
0000
0100
1000
0000
0000
1000
,  // measure 37
0001
0100
0001
1000
,  // measure 38
0010
0100
0001
1000
,  // measure 39
1001
0000
0000
0001
0010
0000
0100
0000
,  // measure 40
0010
0000
0011
0000
0100
0000
0000
0100
,  // measure 41
0010
1000
0001
1001
,  // measure 42
1000
0000
0000
0100
1000
0000
0100
0000
,  // measure 43
0010
0000
0011
0000
0001
0000
0000
0100
,  // measure 44
0001
0100
0010
0110
,  // measure 45
1001
0001
1000
0100
,  // measure 46
1001
1001
1001
0010
,  // measure 47
0100
0001
0110
0110
,  // measure 48
0101
1000
0100
0010
,  // measure 49
1100
1100
1001
1000
,  // measure 50
0100
0010
0001
0010
,  // measure 51
0100
0010
0110
0000
,  // measure 52
0010
0010
0010
0010
,  // measure 53
1001
0000
0001
0000
0100
0000
0010
1000
,  // measure 54
0000
1000
0010
0000
0100
0000
0001
0000
,  // measure 55
1000
0000
0100
0000
0010
0000
0001
0100
,  // measure 56
0000
0100
0001
0000
1000
0000
0100
0000
,  // measure 57
0011
0000
1000
0000
0100
0000
1000
0001
,  // measure 58
0000
0100
0010
0000
1000
0000
0001
0000
,  // measure 59
0100
0000
0001
0000
1000
0000
0100
1000
,  // measure 60
0000
0001
0100
0000
0001
0000
1000
0000
,  // measure 61
0001
0000
0010
0000
0100
0000
0010
0001
,  // measure 62
0000
0010
0001
0000
0100
0000
1000
0000
,  // measure 63
0100
0000
0001
0000
0010
0000
1000
0010
,  // measure 64
0000
1000
0010
0000
0001
0000
0100
0000
,  // measure 65
0010
0000
0100
0000
0001
0000
1000
0001
,  // measure 66
0000
1000
0001
0000
0100
0000
0001
0000
,  // measure 67
1000
0000
0010
0000
0100
0000
0010
1000
,  // measure 68
0000
0010
1000
0000
0001
0000
0100
0000
,  // measure 69
1001
0001
1001
0001
,  // measure 70
1001
1000
1001
1000
,  // measure 71
0110
0010
0110
0010
,  // measure 72
0110
0100
0110
0100
,  // measure 73
1001
1000
1100
1000
,  // measure 74
1001
1000
1100
1000
,  // measure 75
1001
0001
0101
0001
,  // measure 76
1001
0001
0101
0001
,  // measure 77
1001
0000
0000
0000
0001
0000
0010
0000
0000
0000
0010
0000
,  // measure 78
0100
0000
0000
0000
0100
0000
1000
0000
0000
0000
1000
0000
,  // measure 79
0001
0000
0000
0000
1000
0000
0010
0000
0000
0000
0100
0000
,  // measure 80
0202
0000
0000
0303
,  // measure 81
1010
0010
1010
0010
,  // measure 82
1100
0100
1100
0100
,  // measure 83
0011
0001
0011
0001
,  // measure 84
0101
0100
0101
0100
,  // measure 85
0010
0000
0000
0000
0100
0000
0001
0000
0000
0000
1000
0000
,  // measure 86
0100
0000
0000
0000
0100
0000
0010
0000
0000
0000
0010
0000
,  // measure 87
0001
0000
0000
0000
0001
0000
1000
0000
0010
0000
1000
0000
,  // measure 88
2200
0000
0000
3300
,  // measure 89
1000
0100
1000
0000
0100
0000
0100
0000
,  // measure 90
1000
0001
1000
0000
0001
0000
0001
0000
,  // measure 91
0100
0001
0100
0000
0010
0000
0010
0000
,  // measure 92
0100
0001
0100
0000
0001
0000
0001
0000
,  // measure 93
1001
0000
0001
1000
0001
1000
0001
0000
,  // measure 94
1000
0100
1000
0100
0020
0000
0000
0000
,  // measure 95
0000
0000
0000
0030
,  // measure 96
0000
0002
0000
0000
0000
0000
0003
0000
,  // measure 97
1000
0100
1000
0001
,  // measure 98
1001
0000
0010
0100
,  // measure 99
0001
0100
0010
1000
,  // measure 100
0100
0001
0010
1000
,  // measure 101
0010
0001
0100
1000
,  // measure 102
1010
0000
0010
0100
,  // measure 103
0001
0010
1000
0100
,  // measure 104
1000
0010
0001
0101
,  // measure 105
0000
0000
0000
0001
1000
0000
0001
0000
,  // measure 106
0100
0001
1000
0100
,  // measure 107
1000
0010
0100
0001
,  // measure 108
1000
0001
1000
1010
,  // measure 109
0000
0000
0000
0010
0100
0000
0010
0000
,  // measure 110
1000
0100
0001
0010
,  // measure 111
1000
0100
1000
0001
,  // measure 112
0100
0001
1000
0010
,  // measure 113
0100
0010
0100
0000
0010
0000
1000
0000
,  // measure 114
0001
0100
0001
1000
,  // measure 115
0001
1000
0001
0000
0010
0000
0100
0000
,  // measure 116
1000
0100
0010
0001
,  // measure 117
2000
0000
0000
3000
,  // measure 118
0010
0000
0100
0001
0100
0000
0001
0000
,  // measure 119
0200
0000
0000
0300
,  // measure 120
0001
0000
0010
0100
1000
0000
0100
0000
,  // measure 121
1000
0000
0100
1000
0100
0000
1000
0000
,  // measure 122
0200
0000
0000
0300
,  // measure 123
0001
0000
0100
0001
0100
0000
0001
0000
,  // measure 124
0020
0000
0000
0030
,  // measure 125
0100
0000
1000
0100
1000
0000
0001
1000
,  // measure 126
0001
0000
1000
0010
1000
0000
0001
1000
,  // measure 127
0002
0000
0000
0000
,  // measure 128
0000
0000
0000
0003
,  // measure 129
1100
0010
0100
0001
,  // measure 130
1001
1001
0010
0100
,  // measure 131
0110
0010
0100
0001
,  // measure 132
0101
0101
0010
0001
,  // measure 133
1100
0010
1000
0001
,  // measure 134
1001
1001
0010
0100
,  // measure 135
0011
1000
0100
0001
,  // measure 136
1100
1100
0001
0100
,  // measure 137
0010
1000
1001
0100
,  // measure 138
0010
1000
0011
1000
,  // measure 139
0100
1000
0001
0100
,  // measure 140
0010
1000
0001
2002
,  // measure 141
0000
0000
0000
0000
,  // measure 142
0000
0000
0000
0000
,  // measure 143
0000
0000
0000
0000
,  // measure 144
0000
0000
0000
0000
,  // measure 145
0000
0000
0000
0000
,  // measure 146
0000
0000
0000
0000
,  // measure 147
0000
0000
0000
0000
,  // measure 148
0000
0000
0000
0000
,  // measure 149
0000
0000
0000
3003
;

//---------------dance-single - ----------------
#NOTES:
     dance-single:
     :
     Hard:
     17:
     1.000,1.000,0.757,0.143,0.324: // measure 1
0000
0000
0000
0000
,  // measure 2
0000
0000
0000
0000
,  // measure 3
0000
0000
0000
0000
,  // measure 4
0000
0000
0000
0000
,  // measure 5
1001
1000
1000
1000
,  // measure 6
1001
0001
0001
0001
,  // measure 7
0001
0100
0010
1000
0001
0100
0001
1000
,  // measure 8
0100
0010
0001
1000
2002
0000
3003
0000
,  // measure 9
0101
0000
0000
0000
1010
0000
0000
0000
1100
0000
0000
0000
,  // measure 10
0011
0000
0000
0000
1001
0000
0000
0000
0110
0000
0000
0000
,  // measure 11
1010
0000
1000
0000
1001
0000
0001
0100
,  // measure 12
0000
0100
0001
1000
0010
0000
0100
0000
,  // measure 13
0110
0000
0010
0000
1010
0000
1000
0100
,  // measure 14
0000
0100
0010
0001
1000
0000
0001
0000
,  // measure 15
1001
0000
0001
0000
0101
0000
0010
1000
,  // measure 16
0000
0010
0100
0001
1000
0000
0100
0000
,  // measure 17
1000
0100
1000
0000
0001
0100
0001
0000
,  // measure 18
1000
0010
0100
0010
1000
0001
0100
0000
,  // measure 19
0001
0000
1000
0000
0100
0000
1000
0000
0010
0000
0100
0000
,  // measure 20
0001
0000
0010
0000
0001
0000
1000
0000
0100
0000
0001
0000
,  // measure 21
0100
0000
0000
0000
1000
0000
0000
0000
0010
0000
0000
0000
0100
0000
0000
0000
0000
0000
0001
0000
0000
1000
0000
0000
,  // measure 22
0001
1001
1001
1001
,  // measure 23
0010
0000
0100
0001
0010
0000
0100
1000
,  // measure 24
0000
1000
0100
0000
1000
0010
0100
0000
,  // measure 25
0010
0000
1000
0001
0010
0000
0001
1000
,  // measure 26
0000
1000
0010
0000
0100
0001
0010
0000
,  // measure 27
1001
0000
0010
1000
0100
0000
0011
0000
,  // measure 28
0001
0100
0010
0000
1001
0000
0100
0000
,  // measure 29
1010
0000
0100
0001
1000
0000
0110
0000
,  // measure 30
1000
0001
0100
0000
2002
0000
3003
0000
,  // measure 31
1000
0000
1100
0000
1001
0000
1000
0001
,  // measure 32
1000
0000
1100
0000
1001
0000
1000
0001
,  // measure 33
1000
0000
0101
0000
1001
0000
0001
1000
,  // measure 34
0001
0101
1001
0010
,  // measure 35
0110
0000
0010
1000
0001
0000
1000
0001
,  // measure 36
0100
0000
0001
0100
0010
0000
1000
0100
,  // measure 37
0010
0000
1001
0000
1010
0000
1000
0001
,  // measure 38
0100
0000
1000
0001
1000
0001
0010
0001
,  // measure 39
1001
0000
0010
0100
0001
0000
0100
0000
,  // measure 40
0101
0000
0101
0000
1001
0000
0010
0100
,  // measure 41
1000
0100
1100
1100
,  // measure 42
1010
0000
0010
1000
0001
0000
0010
0000
,  // measure 43
0011
0000
0011
0000
1001
0000
0010
0001
,  // measure 44
1000
0010
1010
1010
,  // measure 45
1000
0000
0010
0000
0100
0000
0001
0000
1000
0000
0100
0000
,  // measure 46
0010
0000
0100
0000
1000
0000
0001
0000
0100
0000
0010
0000
,  // measure 47
1000
0000
0100
0000
0001
0000
0100
0000
1000
0000
0010
0000
,  // measure 48
0001
0000
0010
0000
1000
0000
0100
0000
0001
0000
0100
0000
,  // measure 49
1000
0000
0100
0000
0010
0000
0001
0000
1000
0000
0010
0000
,  // measure 50
0100
0000
0000
0001
0000
0000
1000
0000
0000
0001
0000
0000
1000
0000
0000
0000
0001
0000
0000
0000
1000
0000
0000
0000
,  // measure 51
0010
0000
0010
0000
0100
0000
0110
0000
0000
0000
0000
0000
,  // measure 52
0010
0100
0010
0100
0010
0100
0010
0100
,  // measure 53
1001
0000
0001
0010
0100
0000
0010
0001
,  // measure 54
0000
0001
1000
0010
0100
0010
1000
0000
,  // measure 55
1100
0000
1000
0100
0010
0000
0100
1000
,  // measure 56
0000
1000
0010
0100
0001
1000
0001
0000
,  // measure 57
1010
0000
0010
1000
0001
0000
0100
0001
,  // measure 58
0000
1000
0100
1000
0001
0100
0010
0000
,  // measure 59
0110
0000
0010
0100
0001
0000
1000
0100
,  // measure 60
0000
0001
0010
0001
0100
0010
1000
0000
,  // measure 61
0101
0000
1000
0100
0001
0000
0100
1000
,  // measure 62
0000
0010
0001
0010
1000
0100
0010
0000
,  // measure 63
1100
0000
0100
0010
0001
0000
1000
0100
,  // measure 64
0000
0001
0100
1000
0010
0100
0001
0000
,  // measure 65
1010
0000
0010
0100
0001
0000
1000
0010
,  // measure 66
0000
1000
0100
1000
0010
0100
0001
0000
,  // measure 67
0001
0000
1000
0000
0010
0000
0110
0000
0010
0000
1000
0000
,  // measure 68
2001
0001
0001
3001
,  // measure 69
1000
0100
0010
0100
1000
0100
0010
0100
,  // measure 70
1000
0100
0010
0100
1000
0100
0010
0100
,  // measure 71
1000
0010
0100
0010
1000
0010
0100
0010
,  // measure 72
1000
0010
0100
0010
1000
0010
0100
0010
,  // measure 73
1001
0100
0010
0100
0001
0100
0010
0100
,  // measure 74
0001
0100
0010
0100
0001
0100
0010
0100
,  // measure 75
0001
0010
0100
0010
0001
0010
0100
0010
,  // measure 76
0001
0010
0100
0010
0001
0010
0100
0010
,  // measure 77
0001
0000
0010
0000
0001
0000
1000
0000
0010
0000
1000
0000
,  // measure 78
0001
0000
0100
0000
0010
0000
1000
0000
0100
0000
0001
0000
,  // measure 79
0100
0000
0000
0000
0100
0000
1000
0000
0010
0000
0100
0000
,  // measure 80
2020
0000
0000
3030
,  // measure 81
0010
1000
0010
1000
0001
0100
0001
0100
,  // measure 82
0010
1000
0001
0100
0010
1000
0001
0100
,  // measure 83
0001
1000
0001
1000
0010
0100
0010
0100
,  // measure 84
0001
1000
0010
0100
0001
1000
0010
0100
,  // measure 85
0010
0000
1000
0000
0001
0000
0100
0000
0001
0000
1000
0000
,  // measure 86
0100
0000
0010
0000
0001
0000
1000
0000
0010
0000
0100
0000
,  // measure 87
0001
0000
0010
0000
1000
0000
0010
0000
0001
0000
1000
0000
,  // measure 88
0022
0000
0000
0033
,  // measure 89
1000
0100
0010
0100
1000
0100
0010
0100
,  // measure 90
1000
0001
0100
0001
1000
0001
0100
0001
,  // measure 91
1001
0100
0010
0100
0001
0100
0010
0100
,  // measure 92
0001
1000
0100
1000
0001
1000
0100
1000
,  // measure 93
1001
0000
0010
1000
0010
1000
0100
0000
,  // measure 94
0010
0001
0010
0001
2000
0000
0000
0000
,  // measure 95
0000
0000
0000
3000
,  // measure 96
0000
0002
0000
0000
0000
0000
0003
0000
,  // measure 97
1001
0000
0010
1000
0010
0000
0100
0000
,  // measure 98
0101
0000
0001
1001
,  // measure 99
0010
0000
1000
0100
0010
0000
0001
0000
,  // measure 100
0101
0000
0010
1000
0001
0000
1000
0000
,  // measure 101
1001
0000
0010
1000
0001
0000
0100
0000
,  // measure 102
1100
0000
0010
0011
,  // measure 103
0000
0000
0001
1000
0100
0000
1000
0000
,  // measure 104
1001
0000
1000
0010
0100
0000
0010
0000
,  // measure 105
1010
0000
0000
0010
1000
0000
0010
0000
,  // measure 106
0100
0001
1001
0001
,  // measure 107
0010
0100
0110
0001
,  // measure 108
1000
0001
1001
0101
,  // measure 109
0000
0000
1000
0000
1001
0000
0000
0001
,  // measure 110
1000
0001
1001
0010
,  // measure 111
0100
0010
0100
0010
0100
0010
1000
0001
,  // measure 112
0100
0001
1000
0000
0001
0100
0001
0100
,  // measure 113
0010
0000
1000
0100
0010
0000
0100
1000
,  // measure 114
0000
1000
0001
0000
0100
0001
0010
0000
,  // measure 115
0001
0000
0100
0010
1000
0000
0001
0100
,  // measure 116
0000
0100
0001
0000
1000
0100
0010
0000
,  // measure 117
0100
0000
1000
0010
1000
0000
0001
0010
,  // measure 118
0000
0001
0100
0000
0010
1000
0001
0000
,  // measure 119
1000
0000
0100
0010
0001
0000
1000
0100
,  // measure 120
0000
1000
0010
0000
1000
0001
0100
0000
,  // measure 121
0001
0100
0001
0100
0010
1000
0001
1000
,  // measure 122
0200
1000
1000
1300
,  // measure 123
1000
0001
0100
0001
1000
0010
0100
0001
,  // measure 124
0200
0001
0001
0301
,  // measure 125
0001
0100
0010
1000
0010
0100
0001
1000
,  // measure 126
0100
0010
0001
1000
0001
0000
0001
1000
,  // measure 127
0002
1000
1000
1003
,  // measure 128
0020
0100
0100
0130
,  // measure 129
1010
0000
0010
1000
0010
1000
0100
0010
,  // measure 130
0110
0000
1001
0000
0001
0100
0001
0100
,  // measure 131
0110
0000
0010
1000
0010
1000
0001
1000
,  // measure 132
1001
0000
0011
0000
1000
0100
0010
0100
,  // measure 133
1100
0000
0001
0010
0100
0010
0001
0100
,  // measure 134
0101
0000
1010
0000
0010
0100
0001
1000
,  // measure 135
1001
0000
1000
0100
0001
0100
1000
0100
,  // measure 136
1100
0000
0101
0000
1000
0010
0100
0001
,  // measure 137
1000
0000
0100
0000
0010
0000
0001
0000
0100
0000
0010
0000
,  // measure 138
1000
0000
0100
0000
0001
0000
0100
0000
1000
0000
0001
0000
,  // measure 139
0100
0000
0100
0000
0100
0000
0010
0000
0010
0000
0010
0000
,  // measure 140
1000
0001
1000
0001
1000
0000
2002
0000
,  // measure 141
0000
0000
0000
0000
,  // measure 142
0000
0000
0000
0000
,  // measure 143
0000
0000
0000
0000
,  // measure 144
0000
0000
0000
0000
,  // measure 145
0000
0000
0000
0000
,  // measure 146
0000
0000
0000
0000
,  // measure 147
0000
0000
0000
0000
,  // measure 148
0000
0000
0000
0000
,  // measure 149
0000
0000
0000
3003
;

//---------------dance-single - ----------------
#NOTES:
     dance-single:
     :
     Challenge:
     20:
     1.000,1.000,1.000,0.269,0.290: // measure 1
0000
0000
0000
0000
,  // measure 2
0000
0000
0000
0000
,  // measure 3
0000
0000
0000
0000
,  // measure 4
0000
0000
0000
0000
,  // measure 5
1001
0000
1000
1000
1000
0000
1000
1000
,  // measure 6
1000
0000
1000
1000
1000
0000
1000
0001
,  // measure 7
0001
0100
0010
1000
0001
0010
0100
1000
,  // measure 8
0100
0010
0001
1000
0202
0000
0303
0000
,  // measure 9
1100
0000
0000
0000
0011
0000
0000
0000
0101
0000
0000
0000
,  // measure 10
0110
0000
0000
0000
1001
0000
0000
0000
1100
0000
0000
0000
,  // measure 11
1010
0000
0010
1000
1100
0000
0001
0101
,  // measure 12
0000
0010
1000
0001
1001
0000
0100
0010
,  // measure 13
0011
0000
1000
0100
0110
0000
0010
1100
,  // measure 14
0000
0001
0100
0010
1001
0000
0001
0100
,  // measure 15
0101
0000
0010
1000
1001
0000
1000
0110
,  // measure 16
0000
0001
0100
0010
1001
0000
0100
0000
,  // measure 17
1000
0010
1000
0001
0100
0010
1000
0001
,  // measure 18
0010
0001
0010
0100
0010
0001
1001
0000
,  // measure 19
1100
0000
0010
0000
0100
0000
0101
0000
0010
0000
1000
0000
,  // measure 20
0011
0000
0100
0000
0001
0000
1100
0000
0010
0000
1000
0000
,  // measure 21
0110
0000
0000
0000
0001
0000
0000
0000
1000
0000
0000
0000
0101
0000
0000
0000
0000
0000
1000
0000
0000
0001
0000
0000
,  // measure 22
1001
1001
1001
1001
,  // measure 23
0011
0000
1000
0100
0011
0000
0100
0101
,  // measure 24
0000
0010
1000
0001
1001
0000
0100
0010
,  // measure 25
1010
0000
0010
0100
0101
0000
1000
1100
,  // measure 26
0000
0010
0001
1000
1001
0000
0100
0010
,  // measure 27
1100
0000
0001
0100
0011
0000
1000
0110
,  // measure 28
0000
0001
1000
0100
0110
0000
0010
1000
,  // measure 29
1001
0000
0100
0010
1001
0000
0110
0000
,  // measure 30
1000
0100
0011
0000
2002
0000
3003
0000
,  // measure 31
0001
0100
0001
0100
0110
0100
0001
0100
,  // measure 32
0001
1000
0001
1000
1001
1000
0100
0010
,  // measure 33
0100
1000
0100
0010
0110
0010
0100
1000
,  // measure 34
0001
0100
0010
1000
1001
0001
0100
0001
,  // measure 35
2100
0000
3010
1000
1002
0000
0103
0001
,  // measure 36
0021
0000
0031
0010
2100
0000
3100
0010
,  // measure 37
1001
0000
1000
0001
1000
0000
0010
0100
,  // measure 38
1001
0100
0010
1000
1001
0000
0001
0100
,  // measure 39
0011
0000
1000
0100
0110
0000
1100
0000
,  // measure 40
1001
0000
1001
0000
1010
0000
0100
0010
,  // measure 41
0011
0110
0101
0101
,  // measure 42
1001
0000
0100
0001
1001
0000
0110
0000
,  // measure 43
1001
0000
1001
0000
0011
0000
1000
0100
,  // measure 44
0110
1100
0101
0101
,  // measure 45
1000
0000
0000
0001
0000
0000
0100
0000
0000
0001
0000
0000
1001
0000
0000
0000
0010
0000
0000
0000
0100
0000
0000
0000
,  // measure 46
0011
0000
0000
0000
0100
0000
0000
0000
0001
0000
0000
0000
1000
0000
0000
0100
0000
0000
1000
0000
0000
0100
0000
0000
,  // measure 47
1010
0000
0100
0000
0001
0000
0110
0000
0100
0000
0001
0000
,  // measure 48
1000
0000
0000
0010
0000
0000
1000
0000
0000
0001
0000
0000
1001
0000
0000
0000
0010
0000
0000
0000
0100
0000
0000
0000
,  // measure 49
1001
0000
0100
0000
0010
0000
1100
0000
0010
0000
0001
0000
,  // measure 50
0101
0000
0010
0000
1000
0000
1001
0000
1001
0000
1001
0000
,  // measure 51
0110
0000
0110
0000
1001
0000
1001
0000
0000
0000
0000
0000
,  // measure 52
1000
0100
0001
0100
1000
0100
0001
0100
,  // measure 53
1001
0000
0100
0001
0011
0000
1000
1100
,  // measure 54
0000
0010
0100
0001
1001
0000
0010
1000
,  // measure 55
1100
0000
0010
0001
1001
0000
0100
0110
,  // measure 56
0000
0010
0100
0001
0011
0000
1000
0100
,  // measure 57
0011
0000
1000
0100
1010
0000
0100
0101
,  // measure 58
0000
0001
0100
0010
1010
0000
0100
0001
,  // measure 59
1001
0000
0010
1000
0101
0000
1000
1100
,  // measure 60
0000
0010
0001
1000
1001
0000
0110
0000
,  // measure 61
1001
0001
0100
0001
1100
0010
0100
0010
,  // measure 62
1100
0000
1001
0000
0011
0001
1000
0001
,  // measure 63
0110
0010
0100
0001
1001
1000
0100
0010
,  // measure 64
0110
0000
1100
0000
1001
0010
0100
0010
,  // measure 65
0101
0001
1000
0100
1010
0010
0100
0001
,  // measure 66
1001
0000
1100
0000
0011
1000
0100
0010
,  // measure 67
1001
0010
1001
0000
0110
1000
0100
0001
,  // measure 68
1100
0000
0101
0000
1001
0100
0010
1000
,  // measure 69
1001
0100
1000
0100
0001
0100
1000
0100
,  // measure 70
1001
0010
1000
0010
0001
0010
1000
0010
,  // measure 71
1001
0100
0001
0100
1000
0100
0001
0100
,  // measure 72
1001
0100
0010
1000
0001
0100
0010
1000
,  // measure 73
0011
0100
0001
0010
0001
0100
0001
0010
,  // measure 74
1100
0010
1000
0100
1000
0010
1000
0100
,  // measure 75
1001
0100
0010
1000
0100
0001
0010
1000
,  // measure 76
0101
0010
0001
0100
1000
0010
0001
0100
,  // measure 77
1001
0000
0001
0000
0100
0000
0011
0000
1000
0000
0100
0000
,  // measure 78
1010
0000
0010
0000
0100
0000
1001
0000
0100
0000
0011
0000
,  // measure 79
1100
0000
0000
0000
1000
0000
1010
0000
0101
0000
0110
0000
,  // measure 80
2200
0000
0000
3300
,  // measure 81
1001
0001
1000
0001
1000
0001
1000
0001
,  // measure 82
0101
0010
1000
0100
1000
0010
1000
0100
,  // measure 83
1001
1000
0001
1000
0001
1000
0001
1000
,  // measure 84
0011
0100
0001
0010
0001
0100
0001
0010
,  // measure 85
1100
0000
0100
0000
1000
0000
0110
0000
0001
0000
1000
0000
,  // measure 86
0101
0000
0010
0000
0100
0000
1100
0000
0001
0000
0010
0000
,  // measure 87
1001
0000
0100
0000
0001
0000
1010
0000
0110
0000
0101
0000
,  // measure 88
0022
0000
0000
0033
,  // measure 89
1001
0100
0001
0100
1000
0010
0001
0100
,  // measure 90
1001
0010
0001
0010
1000
0100
0001
0010
,  // measure 91
1001
0010
0100
0001
1000
0010
0001
0100
,  // measure 92
1001
0100
0010
1000
0001
0010
1000
0100
,  // measure 93
1100
0000
0010
0010
0010
0010
0101
0000
,  // measure 94
0001
0001
0001
0001
2002
0000
0000
0000
,  // measure 95
0000
0000
0000
3003
,  // measure 96
0000
0220
0000
0000
0000
0000
0330
0000
,  // measure 97
1001
0000
0100
0100
0110
0000
0010
0000
,  // measure 98
1010
0000
0001
0000
0101
0000
0010
1000
,  // measure 99
0001
1001
1100
0020
,  // measure 100
1030
0002
0103
0002
,  // measure 101
1003
0000
1000
1000
0011
0000
1000
0000
,  // measure 102
1100
0000
0010
0000
0110
0000
0001
1000
,  // measure 103
1010
0020
0130
0002
,  // measure 104
1003
2000
3100
0010
,  // measure 105
0011
0000
0000
0001
1000
0000
0001
0000
,  // measure 106
1010
0100
1001
0010
,  // measure 107
0110
1000
1001
0001
,  // measure 108
0011
0000
1000
0100
1100
0000
1001
0000
,  // measure 109
0000
0000
0010
0000
1010
0000
0000
0001
,  // measure 110
0100
0001
1000
0000
0011
0000
1000
0000
,  // measure 111
0001
1000
0100
0001
0010
1000
0100
0001
,  // measure 112
0010
0100
1000
0000
0001
1000
0001
1000
,  // measure 113
0110
0000
0010
1000
0010
1000
0100
0001
,  // measure 114
0100
1000
0010
0001
0010
1000
0100
0010
,  // measure 115
0001
1000
0100
1000
0010
0001
0010
1000
,  // measure 116
0100
1000
0001
1000
0010
0100
0001
1000
,  // measure 117
0012
0000
1003
1000
,  // measure 118
0100
1000
0010
1000
0001
0100
0010
0100
,  // measure 119
1020
0000
0130
0000
,  // measure 120
0001
1000
0001
1000
0010
0100
0010
0100
,  // measure 121
0101
0010
1000
0010
1001
0100
0010
0001
,  // measure 122
2100
0010
0001
3100
,  // measure 123
1001
0100
0010
1000
0101
0010
1000
0100
,  // measure 124
0012
1000
1000
1003
,  // measure 125
0110
0100
0001
1000
0011
1000
0100
0001
,  // measure 126
1100
0010
1000
0001
0110
0000
0010
1000
,  // measure 127
1001
0000
0001
1000
0001
1000
0010
0100
,  // measure 128
0001
0010
1000
0010
0001
0100
1000
0100
,  // measure 129
1001
0000
0100
0010
1000
0100
0010
0001
,  // measure 130
1100
0000
0101
0000
0001
0010
0100
1000
,  // measure 131
0011
0000
1000
0100
0010
0100
1000
0001
,  // measure 132
0110
0000
1001
0000
0001
0100
0010
1000
,  // measure 133
0102
0000
1003
0100
0010
0100
1000
0001
,  // measure 134
1001
0000
0210
0000
0310
0100
0010
0100
,  // measure 135
1002
0000
1003
0010
0001
0010
1000
0001
,  // measure 136
1001
0000
1200
0000
1300
0100
0010
0001
,  // measure 137
1001
0000
1010
0000
1100
0000
0101
0000
0011
0000
1010
0000
,  // measure 138
0110
0000
1001
0000
0101
0000
1100
0000
0011
0000
1001
0000
,  // measure 139
0110
0000
1001
0000
1100
0000
0011
0000
0011
0000
0011
0000
,  // measure 140
1000
0100
0001
0010
1000
0000
2002
0000
,  // measure 141
0000
0000
0000
0000
,  // measure 142
0000
0000
0000
0000
,  // measure 143
0000
0000
0000
0000
,  // measure 144
0000
0000
0000
0000
,  // measure 145
0000
0000
0000
0000
,  // measure 146
0000
0000
0000
0000
,  // measure 147
0000
0000
0000
0000
,  // measure 148
0000
0000
0000
0000
,  // measure 149
0000
0000
0000
3003
;
