#TITLE:螺子之人;
#ARTIST:あさき;
#TITLETRANSLIT:Neji no hito;
#ARTISTTRANSLIT:Asaki;
#BANNER:Neji no hito.png;
#BACKGROUND:Neji no hito-bg.png;
#JACKET:Neji no hito-jacket.png;
#CDTITLE:./CDTITLES/EE'MALL.PNG;
#MUSIC:Neji no hito.ogg;
#SAMPLESTART:42.67;
#SAMPLELENGTH:15;
#DISPLAYBPM:100:170;
#BPMS:0=100,12=170,181=120,223.75=170;
#STOPS:111.5=0.17647058823529411764705882352941,115=0.17647058823529411764705882352941,118.5=0.17647058823529411764705882352941,127.5=0.35294117647058823529411764705882,131=0.17647058823529411764705882352941,134.5=0.17647058823529411764705882352941,147.5=0.17647058823529411764705882352941;
#BGCHANGES:4=Neji no hito.mp4=1=0=0=1=====;

//---------------dance-single - t7r----------------
#NOTES:
     dance-single:
     t7r:
     Beginner:
     3:
     :
0000
0000
0000
0000
,
0000
0000
0000
0000
,
0000
0000
0000
0000
,
1000
0000
0000
0000
,
0000
0010
0000
0000
,
0000
0000
0100
0000
,
0000
0000
0000
1000
,
0000
0000
0000
0000
,
0000
0000
1000
1000
,
0000
0000
0000
0000
,
0001
0000
0000
0000
,
0000
0010
0000
0000
,
0000
0000
0100
0100
,
0100
0000
1000
0000
,
0000
0000
0001
0000
,
0000
0000
0010
0000
,
0100
0000
0010
0000
,
0100
0000
0010
0010
,
0000
0000
0000
1000
,
0000
0000
0000
0001
,
0000
0000
0000
1000
,
0000
0100
0000
1000
,
1000
0000
1000
0000
,
1000
1000
1000
0000
,
0001
0000
0001
0000
,
0001
0001
0001
0000
,
0010
0000
0000
0000
,
0100
0000
0000
0000
,
0002
0000
0000
0000
,
0000
0000
0000
0000
,
0000
0000
0000
0000
,
0000
0000
0000
0000
,
0000
0000
0000
0000
,
0000
0000
0000
0000
,
0000
0000
0000
0000
,
0000
0000
0003
0000
0000
2000
0000
0000
,
0000
0000
0000
3000
,
0000
0001
0000
0001
,
0000
1000
0000
0010
,
0000
0100
0000
0001
,
0000
1000
0000
0100
,
0000
1000
0000
0010
,
0000
0001
0001
0000
,
0000
0000
1000
1000
,
0000
0000
0000
0000
,
0010
0010
0000
0000
,
0000
0000
0000
0000
,
0000
1001
0000
0000
,
0000
0110
0000
0010
,
0000
0100
0000
0100
,
0000
1000
0000
1000
,
1000
1000
0000
0001
,
0000
1000
0000
0010
,
0010
0010
0000
0100
,
0000
0001
0000
1000
,
1000
1000
0000
0000
,
1000
0000
0010
0000
,
0100
0100
0000
0001
,
0000
1000
1000
0000
,
0010
0000
0100
0100
,
0000
1000
1000
0000
;

//---------------dance-single - t7r----------------
#NOTES:
     dance-single:
     t7r:
     Easy:
     7:
     :
0000
0000
0000
0000
,
0000
0000
0000
0000
,
0000
0000
0000
0000
,
1000
0000
0000
0001
0000
0000
1000
0000
,
0010
0000
0100
0000
0000
0001
0000
0000
,
0010
0000
0100
0000
1000
0000
0000
0001
,
0000
0100
0010
0100
,
0000
0001
0000
0000
0010
0000
1000
0000
,
0010
0100
1001
0001
,
0001
1000
1000
1000
,
0110
0010
0100
0100
,
0100
1001
0001
0010
,
0010
0010
1100
0001
,
0200
0300
0010
0010
,
0010
1001
0100
0100
,
0010
1000
0100
0010
,
0001
0010
1000
0010
,
0001
0100
1000
0110
,
1000
0001
0101
0001
,
1000
0100
0010
0100
,
1000
0001
0100
0001
,
1000
1001
0010
0010
,
0200
0300
0200
0300
,
0010
0010
2002
3003
,
1000
1000
0100
0100
,
0010
0010
0001
0001
,
1000
0001
0100
0010
,
1000
0001
0100
0010
,
0000
1000
0000
0100
0000
0010
0000
0000
,
0001
0000
0100
0000
0010
0000
0000
1000
,
0000
0001
0000
0100
0000
0110
0000
0110
,
0000
1001
0000
1001
0000
0020
0000
0130
,
0000
1000
0000
0001
0000
0010
0000
0000
,
0001
0000
0100
0000
0010
0000
0000
1000
,
0000
0100
0000
0001
0000
0100
0000
0100
,
0000
1000
0000
1000
0000
0010
0000
0110
,
0000
1000
0000
0001
0000
0110
0000
1001
,
0001
0001
0010
0010
,
0100
0100
1000
1000
,
0100
0100
0001
0001
,
0010
0010
1000
0100
,
1001
0001
0100
0001
,
1000
1000
0010
0100
,
0001
0010
0010
0100
,
1000
0100
0010
0010
,
0001
2002
0000
0000
,
3003
0000
0000
0000
,
0000
0220
0000
0000
,
0330
2020
3030
0102
,
0103
1000
1000
1000
,
1000
1000
1000
1000
,
0110
0001
0001
0001
,
0001
0001
0001
0001
,
1001
0010
0010
0010
,
0010
0010
0010
0010
,
0100
0000
0001
0000
0000
1001
0000
0000
,
1000
0100
0100
0100
,
0100
0110
0001
0001
,
0001
0001
1001
0010
,
0010
0010
0010
0100
,
0001
0110
1000
0000
;

//---------------dance-single - t7r----------------
#NOTES:
     dance-single:
     t7r:
     Medium:
     11:
     :
0000
0000
0000
0000
,
0000
0000
0000
0000
,
0000
0000
0000
0000
,
1000
0010
0010
0100
0001
0001
1000
0001
,
0100
0000
0001
0010
0010
0100
1000
1000
,
0001
1000
0010
0000
0100
0001
0001
1000
,
0010
0010
1000
0100
0010
0000
0100
1000
,
1000
0001
0100
0100
0010
0100
0001
0000
,
0010
0100
1001
0110
,
1000
0001
1000
0000
1000
0000
1000
0000
,
1001
0000
0001
0010
0100
0000
0010
0000
,
0100
0000
0011
0000
1000
0100
0010
0000
,
0001
0000
1000
0000
1010
0000
0010
0100
,
0002
0000
0003
0000
1000
0100
1000
0000
,
0010
0100
1000
0000
0001
0100
0001
1000
,
0000
1001
0000
0110
0010
0000
0100
0000
,
0001
1000
0100
0010
,
0001
0000
1000
0001
0100
0100
0010
0000
,
1000
0010
0101
1000
,
0100
0000
0010
0001
0000
1100
0000
0001
,
0100
0000
0001
0000
1000
0000
0010
0100
,
0000
0001
1000
0000
1000
0001
0000
0001
,
0100
0010
0000
0010
0100
0001
0000
0001
,
1000
0100
1000
0000
2200
0000
3300
0000
,
0010
0100
0001
0000
1000
0100
0001
0000
,
0100
1000
0010
0100
0010
0000
1000
0000
,
0001
0000
0000
0001
0000
0000
1000
0000
0000
1001
0000
0000
0100
0000
0010
0000
,
0100
0000
0000
0100
0000
0000
0010
0000
0000
1010
0000
0000
0100
0000
0001
0000
,
1100
0000
0001
0010
0000
0010
0000
0101
,
0000
0001
1000
0000
1000
0000
1001
0000
,
0010
0100
0000
0100
0000
0010
0100
0001
,
0000
1000
0100
0010
0000
1001
0000
0110
,
1000
0000
0001
0100
0000
0001
0000
1100
,
0000
1000
0100
0000
0010
0000
1001
0000
,
0010
0100
0000
0100
0000
0001
1000
0100
,
0000
1000
0001
0100
0000
0010
0000
0110
,
0000
1000
0000
0010
0000
0100
0000
1001
,
0001
0000
0001
0000
0010
0100
0010
0000
,
1000
0000
1000
0000
0010
0100
0010
0000
,
0100
0000
0001
0000
1000
0000
0001
1000
,
0100
0000
1000
0000
0100
0000
0010
0001
,
0010
0000
1001
0000
0001
0100
0001
0000
,
0100
0000
0100
0000
1001
0000
1000
0010
,
1000
0010
0010
0110
,
1000
0100
0010
0000
0100
0000
1000
0000
,
0001
0100
0002
0000
0003
0000
2000
0000
,
3000
0020
0030
0200
,
0300
0000
2002
0000
3003
0000
0010
1000
,
0100
0022
0033
0102
,
0013
0000
1001
0100
0000
0100
0000
0100
,
0010
0100
0000
0100
0000
0100
0000
0100
,
0001
0000
1001
0010
0000
0010
0000
0010
,
0100
0001
0000
0001
0000
0001
0000
1000
,
0001
0000
1100
0010
0000
1000
0000
0001
,
0100
0001
0000
1000
0000
0010
0000
0100
,
0001
0000
1001
0000
0000
0110
0000
0000
,
0001
0100
0001
0100
0001
0100
0001
0100
,
0001
0000
1000
0100
1000
0100
1000
0100
,
1000
0100
1000
0000
0010
0100
0010
0100
,
0010
0100
0010
1000
0001
0000
1000
0001
,
0100
0010
1001
0000
0000
0000
0000
0000
;

//---------------dance-single - t7r----------------
#NOTES:
     dance-single:
     t7r:
     Hard:
     13:
     :
0000
0000
0000
0000
,
0000
0000
0000
0000
,
0000
0000
0000
0000
,
0001
0100
0100
0010
1000
1000
0001
0010
,
0100
1000
0100
0010
0010
0001
1000
1000
,
0010
1000
0001
0100
0010
1000
1000
0001
,
1000
1000
0001
0010
0100
0010
0001
0100
,
0100
0010
0100
0100
0001
1000
0010
1000
,
0001
0000
0100
0000
0010
0000
1000
0000
1001
0000
0000
0000
0001
0000
0000
0001
,
0010
0100
0010
0001
1000
0010
0100
0001
,
1000
0000
0000
1000
0010
0000
0100
0000
0010
0000
1000
0000
0001
0000
0100
0000
,
0001
0000
1000
0000
0010
0000
0000
0010
0100
0000
0001
0000
1000
0000
0100
0000
,
0010
0000
0001
0000
1000
0000
0100
0000
1000
0000
0000
0001
0100
0001
1000
0020
,
0000
0000
0030
0000
0100
0001
1000
0001
,
0100
0001
1001
0010
1000
0100
1000
0001
,
0000
0101
0000
1100
0010
1000
0001
0100
,
0001
1000
0010
0100
0001
1000
0100
0010
,
0001
1000
0010
0100
0100
0100
1001
0001
,
0100
0001
1000
0010
1100
1000
0001
0100
,
0001
1000
0001
0011
0000
1100
1000
0100
,
1000
0010
0100
0001
1000
0001
0100
0010
,
0000
1001
0000
0001
0100
0001
1000
0010
,
2000
0001
0001
3001
0200
0010
0010
0310
,
2000
0100
0100
3100
1000
0001
0100
0010
,
1000
0000
0000
0001
0100
0000
0000
0000
0001
0000
0000
1000
0010
0000
0000
0000
,
1000
0100
0100
0100
0010
0001
0001
0001
,
1001
0000
0000
0101
0000
0000
1100
0000
0000
0011
0000
0000
1000
0000
0010
0000
,
0110
0000
0000
1001
0000
0000
1100
0000
0000
0101
0000
0000
1000
0000
0001
0000
,
0101
0000
0000
0000
0010
0000
1000
0000
0010
0100
0000
0100
0010
0000
1100
0000
,
0000
0000
1000
0000
0100
0000
0010
0001
0000
0001
1000
0000
0101
0000
0000
0000
,
0001
0000
0100
0000
0010
1000
0000
0001
1000
0000
0001
0000
0100
0000
0010
0000
,
1000
0001
0010
0100
1000
1100
0000
0101
,
1001
0000
0000
0000
0010
0000
1000
0000
0001
0100
0000
0010
1000
0000
1100
0000
,
0000
0000
0010
0000
0001
0000
1000
0100
0000
0010
0001
0000
0110
0000
0000
0000
,
0010
0000
1000
0000
0001
0100
0000
0100
0001
0000
1000
0000
0010
0000
0100
0000
,
0001
1000
0010
0100
0001
1000
0000
1001
,
0000
0010
1000
0001
0100
0010
1000
1001
,
0101
0000
0000
0001
0010
0000
0100
0000
0010
0000
0001
0000
1000
0000
0100
0000
,
0010
0100
1000
0001
0100
0010
0100
0001
,
1000
0010
0100
0010
1000
0001
1000
0010
,
0100
0001
1000
0001
0010
0100
0010
0000
,
1000
1000
1001
0010
0100
0010
1000
0100
,
1000
0010
0100
0001
0101
0001
1000
0010
,
1000
0100
0010
0100
1000
0001
1010
0100
,
0010
1000
0001
0100
0001
1000
0010
0100
,
0001
1000
0001
1000
0010
0000
1000
0000
0200
0000
0000
0000
0310
0000
0001
0000
,
0200
0000
0301
1000
0010
1000
0001
0100
,
0002
2003
0010
0100
,
3001
0002
0103
0110
,
1001
0000
1100
0010
0000
0010
0000
0010
,
1000
0010
0000
0010
0000
0010
0000
0100
,
0001
0100
1001
0100
0000
0100
0000
0100
,
0010
0000
0001
0000
0000
0000
0001
0000
0000
0000
1001
0000
0000
0000
1000
0010
,
0100
0010
1001
1000
0000
1000
0000
1000
,
0001
0100
0000
0100
0000
0100
0000
0010
,
1000
0001
0101
0000
0010
1100
0000
0000
,
0001
1000
0010
0000
0100
0000
0010
1000
,
0010
1000
0101
0000
1100
0000
1000
0100
,
1000
0000
0100
0000
1000
0010
0000
0010
1000
0000
0001
0000
0110
0000
0000
0000
,
0010
1000
0001
0100
0010
1000
0001
0010
,
0100
0000
0000
1000
0100
1000
0010
0100
0000
0000
0000
0000
0000
0000
0000
0000
;

//---------------dance-single - t7r----------------
#NOTES:
     dance-single:
     t7r:
     Challenge:
     15:
     :
0000
0000
0000
0000
,
0000
0000
0000
0000
,
0000
0000
0000
0000
,
1001
0100
0100
1010
1000
1000
0001
0100
,
0001
0010
0011
0100
0100
1001
0001
0001
,
1000
0000
0001
0000
0100
0010
1000
0001
1000
0000
0001
0000
0001
0000
1100
0000
,
0010
0010
0101
1000
0001
0100
0110
0001
,
0001
0000
1100
0000
1000
0000
1000
0000
0001
0000
0100
0000
1001
0000
0010
0100
,
0001
0000
1000
0000
0100
1000
0000
1000
0002
0000
0000
0000
1003
0010
0000
1000
,
0100
0000
1000
0000
0001
0100
0000
0001
0010
0000
0001
0000
1000
0000
0001
0000
,
0100
0001
0000
0100
0010
0000
0100
0000
0001
1000
0000
0001
0010
0000
0100
0000
,
0010
0000
0001
0000
1000
0100
0000
0100
0001
0000
0100
0000
1000
0010
0000
0010
,
0001
0000
0010
0000
1000
0000
0100
0000
0010
0001
0000
0001
1000
0001
1000
0002
,
0000
0000
0003
0000
1000
0100
0010
0100
,
1000
0001
1001
0010
0100
0001
0100
0010
,
0000
0110
0000
1001
0001
0100
1000
0100
,
0001
0010
1000
0010
0001
0100
1000
0100
,
0001
0010
0100
1000
0100
1000
0011
1000
,
0100
1000
0010
0100
1001
0001
0100
0001
,
1000
0001
0010
0110
0000
1001
0000
0001
,
0100
0001
0100
0000
0001
1000
0001
0000
1000
0000
0010
0000
0100
0000
0001
1000
,
0000
0000
1001
0000
0000
0000
0010
0000
0100
0000
0001
0000
1000
0100
1000
0000
,
0010
0000
0100
0001
0100
0000
0001
0000
1000
0000
0001
1000
0001
0000
1000
0000
,
0100
0000
0010
0100
1000
0000
0001
0000
0101
0000
0001
0000
1000
0000
0010
0000
,
0100
0000
0001
1000
0001
0000
0000
0000
1000
0000
0100
0010
0100
0000
0000
0000
,
0010
0000
0001
1000
0001
0000
0100
0000
0010
0000
1000
0000
0001
0000
1000
0000
,
1001
0000
0000
0110
0000
0000
1010
0000
0000
0101
0000
0000
1100
0000
0101
0000
,
0011
0000
0000
1010
0000
0000
0101
0000
0000
1001
0000
0000
0001
1000
0001
0000
,
1001
0000
0000
0000
0010
0000
0100
0000
0001
1000
0000
0001
0100
0000
1100
0000
,
0000
0000
0010
0000
0001
0000
1000
0100
0000
0010
0001
0000
0101
0000
0000
0000
,
0010
0000
0100
0000
0001
1000
0000
0010
1000
0000
0001
0000
0100
0001
0100
0000
,
1000
0000
0100
0000
0010
0100
0010
0000
1000
0000
0001
0000
0000
0000
1001
0000
,
0110
0000
0000
0000
0010
0000
1000
0000
0001
1000
0000
0010
0100
0000
0011
0000
,
0000
0000
1000
0000
0100
0000
0010
0001
0000
1000
0010
0000
0110
0000
0000
0000
,
1000
0000
0100
0000
1000
0001
0000
0100
0001
0000
1000
0000
0100
1000
0100
0000
,
1000
0000
0001
0000
0100
0001
0100
0000
0010
0000
0100
0000
0000
0100
0001
0000
,
0000
0001
1000
0000
0001
1000
0001
0000
1000
0000
0010
0100
0000
0100
0010
0000
,
1000
0000
0010
1000
0010
0000
1000
0000
0001
0100
0000
0100
0001
0000
1000
0000
,
0100
0010
0000
0010
0100
0000
1000
0100
1000
0000
0001
0000
0100
0001
0000
0001
,
1000
0000
0001
0000
0010
0000
0100
0000
0010
0000
0001
0010
0001
0000
1000
0000
,
0010
1000
0000
1000
0010
0000
0100
0000
0001
0000
1000
0000
1001
0000
0000
0001
,
1000
0001
1000
0001
0100
0000
0010
0000
1000
0100
0000
0100
1000
0000
0001
0000
,
0100
0001
0000
0001
0010
0000
0001
0000
1000
0000
0100
0000
0010
0100
0000
0100
,
1000
0000
0001
0000
0100
0010
0000
0010
0001
0000
0010
0000
1000
0000
0100
0000
,
0001
0100
0000
0100
1000
0000
0001
0000
1000
0100
0000
0100
0001
0000
0100
0000
,
0010
0100
1000
0000
1001
0000
0010
0000
1000
0000
0001
0000
0101
0000
0100
0000
,
0010
1000
0110
0010
1000
0001
1001
0010
,
0100
1000
2001
0000
0010
0000
0010
0000
,
3010
0210
0310
0102
,
0103
0010
1000
0000
1001
0000
0100
0000
0001
0000
0100
0000
1000
0000
0100
0000
,
0001
0100
1000
0100
0001
0100
1000
0100
,
0010
0100
1001
0100
0001
0100
1000
0100
,
0001
0000
0100
0000
1000
0000
0010
0000
0001
0000
0010
0000
1000
0000
0100
0100
,
0010
0100
1100
0010
1000
0010
0001
0010
,
1000
0100
0001
0100
1000
0010
0001
0010
,
1000
0001
1001
0000
0010
0110
0000
0000
,
1000
0000
0000
0000
0001
0000
0000
0000
1000
0000
0000
0000
0001
0000
0000
0000
0000
0000
0000
0000
0000
0001
0000
0000
0100
0000
0000
0000
0000
0000
0001
0000
0000
0000
0000
0000
0010
0000
0000
0001
0000
0000
0000
0000
0000
0001
0000
0000
,
0010
0000
0001
0000
1000
0000
0001
0000
1000
0100
0000
0010
0001
0000
1000
0000
,
0100
0010
0000
0010
0001
0000
1000
0000
0010
0000
0100
0000
0001
0100
0000
0010
,
1000
0000
0001
0000
0100
0010
0000
0010
1000
0000
0001
0000
1000
0000
0100
0000
,
0010
0001
0000
1000
0001
0100
0010
1000
0000
0000
0000
0000
0000
0000
0000
0000
;
