#TITLE:Narcissus At Oasis;
#SUBTITLE:;
#ARTIST:Ryu☆;
#TITLETRANSLIT:;
#SUBTITLETRANSLIT:;
#ARTISTTRANSLIT:;
#GENRE:;
#CREDIT:;
#MENUCOLOR:;
#NEWMETERSYSTEM:NO;
#BANNER:Narcissus At Oasis.png;
#BACKGROUND:Narcissus At Oasis-bg.png;
#LYRICSPATH:;
#CDTITLE:./CDTITLES/BEATMANIA IIDX.PNG;
#MUSIC:Narcissus At Oasis.mp3;
#OFFSET:-1.184;
#SAMPLESTART:81.234;
#SAMPLELENGTH:15.000;
#SELECTABLE:YES;
#LISTSORT:;
#BPMS:0.000=170.000,292.000=85.000;
#STOPS:;
#BGCHANGES:0.000=Narcissus At Oasis.avi=1.000=1=1=0,
99999=-nosongbg-=1.000=0=0=0 // don't automatically add -songbackground-
;
#ATTACKS:;

//---------------dance-single - ----------------
#NOTES:
     dance-single:
     :
     Beginner:
     3:
     0.124,0.222,0.008,0.000,0.000:
0000
0000
0000
0000
,
0000
0000
0000
0000
,
0010
0000
0000
0000
,
0100
0000
0000
0000
,
0001
0000
0000
0000
,
1000
0000
0000
0000
,
0001
0000
0000
0000
,
0010
0000
0000
0000
,
0100
0000
0000
0000
,
1000
0000
0000
0000
,
0100
0000
0000
0000
,
1000
0000
0000
0000
,
0010
0000
0000
0000
,
0100
0000
0000
0000
,
0001
0000
0000
0000
,
1000
1000
1000
1000
,
1000
0000
0000
0000
,
0000
0000
0000
0000
,
0000
0000
0000
0000
,
0000
0000
0000
0000
,
0001
0000
0000
0000
,
1000
0000
0000
0000
,
0010
0000
0000
0000
,
0100
0000
0000
0000
,
0001
0000
0000
0000
,
0010
0000
0000
0000
,
0100
0000
0000
0000
,
1000
0000
0000
0000
,
0100
0000
0000
0000
,
0010
0000
0000
0000
,
0001
0000
0000
0000
,
1000
0000
0000
0000
,
0100
0000
0100
0000
,
0010
0000
0001
0000
,
1000
0000
0100
0000
,
0010
0000
0001
0000
,
1000
1000
0000
0000
,
0000
0000
0000
0000
,
0000
0000
0000
0000
,
0000
0000
0000
0000
,
0000
0000
0000
0000
,
0001
0000
0000
0000
,
0100
0000
0000
0000
,
0010
0000
0000
0000
,
1000
0000
0000
0000
,
0001
0000
0000
0000
,
1000
0000
0000
0000
,
0010
0000
0000
0000
,
0100
0000
0000
0000
,
0001
0001
0001
0000
,
1000
1000
1000
0000
,
0010
0010
0010
0000
,
0100
0100
0100
0000
,
0001
0000
1000
0000
,
0001
0000
1000
0000
,
0010
0000
0100
0000
,
1001
0000
0000
0000
,
0000
1000
0000
1000
,
0000
0001
0000
0001
,
0000
0100
0000
0100
,
0000
0010
0000
0010
,
0000
1000
0000
0100
,
0000
0010
0000
0001
,
0000
1000
0000
0100
,
0000
0010
0000
0001
,
0001
0000
0100
0000
,
0010
0000
1000
0000
,
0010
0000
1000
0000
,
0100
0000
0001
0000
,
0100
0000
0000
0000
,
0010
0010
0010
0010
,
0010
0000
0000
0000
,
1000
0000
0000
0000
,
0001
0000
0000
0000
,
1000
0000
0000
0000
,
0010
0000
0000
0000
,
0100
0100
0000
0000
;

//---------------dance-single - ----------------
#NOTES:
     dance-single:
     :
     Easy:
     5:
     0.199,0.289,0.017,0.242,0.000:
0000
0000
0000
0000
,
0000
0000
0000
0000
,
0002
0000
0000
0003
,
2000
0000
0000
3000
,
0020
0000
0000
0030
,
0200
0000
0000
0300
,
0002
0000
0000
0003
,
0200
0000
0000
0300
,
0020
0000
0000
0030
,
2000
0000
0000
3000
,
0100
0000
0100
0000
,
0020
0000
0000
0030
,
0001
0000
0001
0000
,
2000
0000
0000
3000
,
0020
0000
0000
0030
,
0100
0100
0100
0010
,
2000
0000
0000
3000
,
0002
0000
0000
0003
,
0000
0000
0000
0000
,
0100
0000
0000
0000
,
0010
0000
0000
0000
,
1000
0000
1000
0001
,
1000
0000
0000
0000
,
0001
0000
0100
0010
,
0100
0000
0000
0000
,
0010
0000
1000
0001
,
1000
0000
0000
0000
,
0001
0001
0000
1000
,
1000
0000
0000
0010
,
0010
0000
0000
0100
,
0100
0000
0000
0001
,
0001
0000
0000
1000
,
0100
0000
1000
0000
,
0010
0000
0100
0000
,
0001
0000
1000
0000
,
0001
0010
0100
1000
,
0010
0220
0000
0000
,
0000
0000
0000
0000
,
0000
0000
0000
0000
,
0000
0000
0000
0330
,
0000
0000
0000
0000
,
2000
0000
0000
3000
,
0200
0000
0000
0300
,
0020
0000
0000
0030
,
0002
0000
0000
0003
,
0200
0000
0000
0300
,
0020
0000
0000
0030
,
2000
0000
0000
3000
,
0002
0000
0000
0003
,
1000
1000
1000
0000
,
0001
0100
0001
0001
,
0010
0010
0010
0000
,
0001
0010
0100
1000
,
0002
0000
0000
0003
,
2000
0000
0000
3000
,
0010
0010
0010
0010
,
0200
0000
0000
0300
,
0010
0000
1000
0000
,
0001
0000
0100
0000
,
0001
0000
1000
0000
,
0010
0000
1000
0000
,
0100
0010
0001
0000
,
0100
0010
1000
0000
,
0010
0100
0001
0000
,
1000
0001
0100
0000
,
1001
0000
0010
0000
,
1000
0000
0001
0000
,
0100
0000
0001
0000
,
1000
0000
0010
0000
,
2000
0100
0100
0100
,
0010
0010
0010
0010
,
0001
0001
0001
0001
,
0002
0000
0000
3003
,
0010
0000
0100
0000
,
0001
0000
1000
0000
,
0010
0000
1000
0000
,
0100
0020
0000
0000
,
0030
0000
0000
0000
;

//---------------dance-single - ----------------
#NOTES:
     dance-single:
     :
     Medium:
     9:
     0.439,0.802,0.067,0.591,0.021:
0000
0000
0000
0000
,
0000
0000
0000
0000
,
0002
0000
0000
1003
0000
0000
0100
0000
,
0020
0000
0000
0130
0000
0000
0000
0001
,
2000
0000
0000
3001
0000
0000
0010
0000
,
0002
0000
0000
0013
0000
0000
0100
0000
,
0020
0000
0000
0130
0000
0000
1000
0000
,
0002
0000
0000
1000
1003
0000
0000
0100
,
0020
0000
0000
0130
0000
0000
0001
0000
,
0020
0000
0000
0001
0031
0000
1000
0000
,
0200
0000
0000
1300
0000
0000
0001
0000
,
2000
0000
0000
0010
3010
0000
0000
0001
,
0200
0000
0000
0301
0000
0000
1000
0000
,
0002
0000
0000
1003
0000
0000
0010
0000
,
0100
0001
0010
1000
,
0020
0032
0203
0320
,
2030
0000
0000
3000
,
0002
0000
0000
0003
,
0000
0000
0000
0000
,
0100
0000
0000
0000
,
1001
0000
0010
0000
0000
0100
0000
0001
,
0100
0001
1000
0010
,
0100
0000
0010
0000
0000
1000
0000
0100
,
1000
0010
1000
0001
,
0100
0000
0001
0000
0000
1000
0000
0001
,
0010
0100
0010
0001
,
1000
0000
0100
0000
0000
0010
0000
0100
,
1000
0001
0000
0010
,
0100
0000
0002
0000
0000
1003
0000
0000
,
0010
0000
2000
0000
0000
0001
3001
0000
,
0100
0000
0002
0000
0000
0013
0000
0000
,
1000
0000
0020
0000
0000
0001
0031
0000
,
1000
0100
0010
0001
,
1000
0000
0100
0000
0001
0100
0100
0000
,
0001
0100
1000
0010
,
0100
0000
0001
0000
1000
0001
0001
0000
,
1000
0000
2001
0000
0000
0010
0000
0000
,
0100
0000
0001
0000
0000
0100
0200
0000
,
0000
0000
0000
0000
,
0000
0000
0000
3300
,
0000
0000
0000
0000
,
2000
0000
0000
3020
0000
0000
0230
0000
,
0302
0000
0000
1003
2000
0000
0000
3100
,
2000
0000
0000
3020
0000
0000
0230
0000
,
0320
0000
0000
0230
0000
0000
0302
0000
,
2003
0000
0000
3002
0000
0000
0023
0000
,
0032
0000
0000
0103
0200
0000
0000
0310
,
2000
0000
0000
3002
0000
0000
2003
0000
,
3002
0000
0000
1000
1003
0000
0010
0000
,
0100
0000
0001
0000
1000
0010
0000
1000
,
0100
0000
0010
0100
0100
0000
1000
0000
,
0001
0000
0100
0000
0001
0010
0000
0001
,
0100
0000
0001
0000
1000
1000
0001
0000
,
1001
0000
0010
0000
0010
0000
0100
0010
,
2000
3200
0302
0203
,
1300
0010
0100
0001
,
2002
3003
0000
0010
,
1001
0000
0001
0100
0001
0000
1000
0010
,
1000
0000
0001
1000
1000
0000
0001
0100
,
0001
0000
1000
0100
0010
0000
0100
1000
,
0010
0000
0100
0010
0100
0000
0010
0000
,
1000
0000
0001
1000
0100
0000
1000
0001
,
0010
0000
0001
1000
1000
0000
0001
0100
,
1000
0000
1000
0100
0001
0000
1000
0010
,
1000
0000
0001
0100
0100
0000
0010
0000
,
1001
0000
0001
0010
0100
0000
1000
0100
,
0010
0000
1000
0001
0001
0000
0100
0001
,
0010
0000
1000
0010
0100
0000
1000
0001
,
0100
0000
0001
1000
0000
1000
0001
0000
,
1001
0000
0010
0000
0010
0000
0100
0001
,
0020
0230
2300
3200
,
1300
0001
0100
0010
,
2002
0000
3003
0100
,
0020
0000
0000
1030
0000
0000
0001
0000
0200
0000
0000
0001
0301
0000
0000
0001
,
2000
0000
0000
3100
0000
0000
0010
0000
0200
0000
0000
0310
0000
0000
0001
0000
,
0200
0302
2003
3020
2030
3200
0320
0032
,
2003
3200
2000
0000
0000
0000
0000
0000
,
3300
0000
0000
0000
;

//---------------dance-single - ----------------
#NOTES:
     dance-single:
     :
     Hard:
     11:
     0.553,0.898,0.150,0.583,0.029:
0000
0000
0000
0000
,
0000
0000
0000
0000
,
2000
0000
0000
3010
0000
0000
0100
0000
,
0002
0000
0000
1000
1003
0000
0000
1000
,
0020
0000
0000
0130
0000
0000
0001
0000
,
2000
0000
0000
3100
0000
0000
0010
0000
,
0200
0000
0000
1300
0000
0000
0010
0000
,
0200
0000
0000
0001
0301
0000
0000
1000
,
0002
0000
0000
0013
0000
0000
0100
0000
,
0020
0000
0000
0001
0031
0000
1000
0000
,
0200
0000
0000
0310
0000
0000
0100
0000
,
2000
0000
0000
3010
0100
0000
0000
0100
,
0002
0000
0000
0013
0000
0000
0100
0000
,
2000
0000
0000
3010
0000
0000
1000
0000
,
2001
0000
0010
0000
3100
0000
1000
0100
,
0020
0032
0203
2300
,
3200
0000
0000
0300
,
0020
0000
0000
0030
,
0000
0000
0000
0000
,
1000
0000
0000
0000
,
1001
0000
0010
0000
0000
0100
0000
0010
,
0100
0000
0000
0000
0001
0000
0000
0001
0000
0000
1000
0000
0100
0000
0000
0000
,
0110
0000
0001
0000
0000
1000
0000
0010
,
1000
0000
0101
0000
0000
1000
0100
1000
,
0001
0000
0011
0000
0000
0100
0000
0010
,
1000
0000
0000
0000
0001
0000
0000
0001
0000
0000
1000
0000
0100
0000
0000
0000
,
0110
0000
1001
0000
0000
0010
0000
1000
,
0001
0000
1001
0000
0010
0100
0001
1000
,
0002
0000
0023
0000
0000
0130
0000
0000
,
0010
0000
0002
0000
0000
1000
1003
0000
,
2000
0000
3020
0000
0000
0130
0000
0001
,
1000
0001
0000
1001
0000
0100
0001
1000
,
0001
0010
0001
0010
0001
0010
0100
1000
,
0001
0100
0001
0100
0001
0100
0010
1000
,
0001
1000
0010
0100
0001
1000
0100
0010
,
0001
0100
0010
1000
0100
0001
0100
1000
,
0010
0000
0120
0000
0000
1000
0000
0000
,
0001
0000
1000
0000
0000
0100
0200
0000
,
0000
0000
0000
0000
,
0000
0000
0000
0330
,
0000
0000
0000
0000
,
2000
0000
0000
3002
0000
0000
0203
0000
,
0302
0000
0000
1000
2003
0000
0000
3010
,
0200
0000
0000
0302
0000
0000
0023
0000
,
2030
0000
0000
3020
0000
0000
0230
0000
,
0302
0000
0000
0203
0000
0000
0302
0000
,
2003
0000
0000
0001
3001
0000
0000
0100
,
0020
0000
0000
0230
0000
0000
0302
0000
,
2003
0000
0000
0010
3010
0000
0110
0000
,
1000
0001
0100
0010
1000
0100
0010
0001
,
1000
0100
1000
0010
0100
0001
0000
0001
,
1000
0010
1000
0001
0100
0001
1000
0010
,
0100
0001
1000
0100
0001
0100
1000
0001
,
2000
0001
0001
0001
0001
0001
3001
1000
,
0200
0010
0010
0010
0010
0010
0010
0301
,
1000
0100
0010
0001
1000
0100
0010
0100
,
2002
0000
3003
0000
1000
0001
1000
1000
,
0001
0010
0100
1000
0100
0010
0001
1000
,
0010
1000
0001
0100
0100
0001
1000
0010
,
1000
0100
0010
0100
1000
0010
0100
0001
,
1000
0010
0100
0001
1000
0010
1000
0001
,
0100
0001
1000
0010
1000
0100
0001
0100
,
1000
0001
0100
0010
0010
1000
0001
0100
,
0001
1000
0010
1000
0100
0010
0100
1000
,
0001
0100
0010
0100
0100
0001
1000
0000
,
1001
0010
0100
0010
1000
0100
0010
0100
,
1000
0001
0010
0001
0001
0100
0010
1000
,
0010
0100
0001
1000
0010
1000
0100
0010
,
0100
1000
0010
0100
0001
1000
0001
0010
,
1001
0100
0100
0100
0100
0100
0010
1000
,
0101
0010
1000
0100
0010
0100
1000
0001
,
1010
0100
0001
1000
0010
0100
0001
1000
,
2002
0000
3003
0010
,
2001
0000
0000
3100
0000
0000
0010
0000
0200
0000
0000
1000
2300
0000
0000
3001
,
0200
0000
0000
0320
0000
0000
2030
0000
3002
0000
0000
0203
0000
0000
0301
0000
,
0020
0230
2300
3020
0230
0302
2003
3020
,
2030
3002
0200
0000
0000
0000
0000
0000
,
0303
0000
0000
0000
;

//---------------dance-single - ----------------
#NOTES:
     dance-single:
     :
     Challenge:
     14:
     0.688,0.898,0.650,0.325,0.192: // measure 1
0000
0000
0000
0000
,  // measure 2
0000
0000
0000
0000
,  // measure 3
1000
0010
0100
0002
0000
0000
1003
0000
,  // measure 4
0010
0001
0100
0001
0002
0000
1003
0010
,  // measure 5
1000
0100
0010
0200
0000
0000
1300
0000
,  // measure 6
0010
1000
0001
0200
0000
0000
0301
0000
,  // measure 7
1000
0001
0010
0002
0000
0000
1003
0000
,  // measure 8
0010
1000
0001
0100
0200
0000
0310
1000
,  // measure 9
0010
0100
0001
2000
0000
0000
3100
0000
,  // measure 10
0010
0100
1000
0001
0002
0000
0013
0000
,  // measure 11
1001
0100
0010
2000
0000
0000
3010
0000
,  // measure 12
0001
1000
0100
1000
2000
0000
3001
0100
,  // measure 13
0001
0010
1000
0020
0000
0000
0031
0000
,  // measure 14
1000
0100
0001
0200
0000
0000
1300
0000
,  // measure 15
1001
0010
1000
0001
0100
0001
1000
0010
,  // measure 16
1000
0000
0000
0100
0000
0000
1000
0000
0000
0000
0000
0000
0010
0000
0000
0000
0100
0000
0000
0000
0010
0000
0000
0000
1000
0000
0000
0000
0001
0000
0000
0000
1000
0000
0000
0000
0001
0000
0000
0000
0100
0000
0000
0000
0010
0000
0000
0000
,  // measure 17
1000
0100
0010
0001
1000
0100
1000
0001
,  // measure 18
0100
0001
1000
0010
0100
0001
1000
0001
,  // measure 19
2000
0000
0000
3000
,  // measure 20
0000
1000
0001
1000
0000
0000
0000
0000
0000
0000
0000
0000
0000
0000
0000
0000
,  // measure 21
1001
0000
0100
0000
0000
1010
0000
0001
,  // measure 22
0100
0000
0000
0000
0001
0000
0000
1000
0100
0000
1000
0000
1001
0000
0000
0000
,  // measure 23
0011
0000
0100
0000
0000
1001
0000
1000
,  // measure 24
0010
0000
0101
0000
0000
1000
0100
0010
,  // measure 25
0110
0000
1001
0000
0000
0101
0000
1000
,  // measure 26
0010
0000
0000
0000
1100
0000
0000
0001
1000
0000
0001
0000
1001
0000
0000
0000
,  // measure 27
0001
0000
0101
0000
0000
0010
0100
0010
,  // measure 28
1001
0000
0110
0000
0010
1000
0001
0100
,  // measure 29
0002
0000
1003
0000
0000
1010
0000
0000
,  // measure 30
0101
0000
2100
0000
0000
0001
3001
0000
,  // measure 31
0101
0000
1020
0000
0000
0130
0000
0010
,  // measure 32
0110
0010
0000
1001
0000
0110
0010
1000
,  // measure 33
0100
1000
0100
1000
0001
0100
0001
0100
,  // measure 34
0010
1000
0010
1000
0001
0010
0001
0010
,  // measure 35
1000
0100
0010
1000
0001
0100
0010
0001
,  // measure 36
0010
0000
1000
0000
0001
0000
0100
0000
0001
0000
0010
0000
0100
1000
0001
0000
,  // measure 37
1000
0000
1001
0000
0000
0110
0000
0000
,  // measure 38
0001
0000
1100
0000
0000
0101
0202
0000
,  // measure 39
0000
0000
0000
0000
,  // measure 40
0000
0000
0000
0303
,  // measure 41
0000
0000
0000
0000
,  // measure 42
1001
0000
0000
0011
0000
0000
1100
0000
,  // measure 43
0102
0000
0000
0100
0103
0000
0000
0010
,  // measure 44
0120
0000
0000
1030
0000
0000
1100
0000
,  // measure 45
0102
0000
0000
0103
0000
0000
1100
0000
,  // measure 46
2010
0000
0000
3001
0000
0000
0110
0000
,  // measure 47
1002
0000
0000
1000
1003
0000
0000
1000
,  // measure 48
2100
0000
0000
3100
0000
0000
0011
0000
,  // measure 49
2010
0000
0000
0001
3001
0000
0110
0000
,  // measure 50
1001
0000
1000
0000
0100
0000
1000
0100
1000
0000
0010
0000
0100
0000
0001
0000
,  // measure 51
1000
0001
0010
0001
0100
0110
0000
1001
,  // measure 52
0001
0000
1000
0000
0010
0000
0100
0001
0100
0000
0001
0000
1000
0000
0010
0000
,  // measure 53
1000
0100
0010
0100
1000
1000
0001
1000
,  // measure 54
1001
0010
0010
0010
0100
0001
1000
0001
,  // measure 55
1000
0000
0000
0010
0000
0000
1000
0000
0000
0000
0000
0000
0010
0000
0000
0000
0100
0000
0000
0000
0010
0000
0000
0000
1000
0000
0000
0000
0001
0000
0000
0000
1000
0000
0000
0000
0001
0000
0000
0000
0100
0000
0000
0000
0001
0000
0000
0000
,  // measure 56
0010
0000
0100
0010
0001
0000
0100
0010
1000
0000
0010
0100
0001
0000
1000
0000
,  // measure 57
2002
0000
3003
0000
0010
0010
0100
0010
,  // measure 58
1001
0000
0001
0000
0100
0000
0001
0000
1000
0010
1000
0000
0001
0000
0100
0000
,  // measure 59
0001
1000
0100
0010
0110
0010
0100
1000
,  // measure 60
0001
0000
0100
0000
0001
0000
1000
0000
0010
1000
0010
0000
0100
0000
0010
0000
,  // measure 61
1001
0100
0001
1100
0010
1000
0001
0100
,  // measure 62
0110
0000
0010
0000
1000
0000
0001
0000
1000
0001
1000
0000
0010
0000
0100
0000
,  // measure 63
0101
0001
1000
0001
1001
0001
0100
0010
,  // measure 64
1010
0100
0001
1001
0001
0010
0110
0010
,  // measure 65
1001
0001
0100
0001
1001
0010
1010
0000
,  // measure 66
0101
0000
0001
0000
1000
0000
0100
0000
0010
0100
0010
0000
1000
0000
0001
0000
,  // measure 67
0110
0001
1000
0001
0101
0001
1000
0010
,  // measure 68
1100
0000
0010
0000
1000
0000
0110
0000
0010
1000
0010
0000
1001
0000
0100
0000
,  // measure 69
0011
0000
1000
0000
0100
0000
1000
0000
0001
1000
0001
0000
0100
0000
0010
0000
,  // measure 70
1001
1000
1000
1000
0001
0100
0001
0010
,  // measure 71
0100
0000
0000
0010
0000
0000
0100
0000
0000
0000
0000
0000
0001
0000
0000
0000
1000
0000
0000
0000
0001
0000
0000
0000
0100
0000
0000
0000
0010
0000
0000
0000
1000
0000
0000
0000
0001
0000
0000
0000
0100
0000
0000
0000
0010
0000
0000
0000
,  // measure 72
1000
0000
0100
0010
0001
0000
0100
0010
1000
0000
0001
1000
0100
0000
1000
0001
,  // measure 73
2000
0000
3000
0010
,  // measure 74
0110
0000
0000
1001
0000
0000
1000
0000
1100
0000
0001
1000
1000
0000
0010
0100
,  // measure 75
0001
0000
0000
0011
0000
0000
1100
0000
0101
0000
0000
1001
0000
0000
0110
0000
,  // measure 76
0020
2030
3200
0302
0023
2030
3200
2300
,  // measure 77
3002
0203
2000
0000
0000
0000
0000
0000
,  // measure 78
3300
0000
0000
0000
;
