#TITLE:Modorenai Love (戻らない恋-Forever Version-);
#SUBTITLE:;
#ARTIST:Captain Metal;
#TITLETRANSLIT:Modorenai Love (MODORANAI KOI-Forever Version-);
#SUBTITLETRANSLIT:;
#ARTISTTRANSLIT:;
#GENRE:;
#CREDIT:;
#MENUCOLOR:;
#METERTYPE:DDR;
#BANNER:Modorenai Love (MODORANAI KOI-Forever Version-).png;
#BACKGROUND:Modorenai Love (MODORANAI KOI-Forever Version-)-bg.png;
#LYRICSPATH:;
#CDTITLE:./CDTITLES/KONAMI ORIGINAL REMIX.PNG;
#MUSIC:Modorenai Love (MODORANAI KOI-Forever Version-).ogg;
#OFFSET:0.000;
#SAMPLESTART:69.677;
#SAMPLELENGTH:15.000;
#SELECTABLE:YES;
#LISTSORT:;
#BPMS:0.000=155.000,256.000=77.500,260.000=155.000;
#STOPS:52.000=1.1612903225806451612903225806452
,81.000=1.1612903225806451612903225806452
,110.000=0.77419354838709677419354838709677
;
#BGCHANGES:;
#ATTACKS:;

//---------------dance-single - ----------------
#NOTES:
     dance-single:
     :
     Beginner:
     3:
     0.172,0.209,0.024,0.000,0.004: // measure 1
0000
0000
0000
0000
,  // measure 2
0000
0000
0000
0000
,  // measure 3
0000
0000
0000
0000
,  // measure 4
0000
0000
0000
0000
,  // measure 5
0000
0000
0000
0000
,  // measure 6
0000
0100
0000
0100
,  // measure 7
0000
0010
0000
0010
,  // measure 8
0000
0100
0000
0100
,  // measure 9
0000
0001
0000
0001
,  // measure 10
0001
0000
1000
0000
,  // measure 11
0010
0000
0100
0000
,  // measure 12
0010
0000
1000
0000
,  // measure 13
0001
0000
1000
0000
,  // measure 14
0000
0100
0000
0100
,  // measure 15
0000
0010
0000
1000
,  // measure 16
0000
0001
0000
0001
,  // measure 17
0000
0010
0000
0100
,  // measure 18
0000
1000
0000
1000
,  // measure 19
0000
0100
0000
0010
,  // measure 20
0000
0001
0000
1000
,  // measure 21
0000
0110
0100
0000
,  // measure 22
0100
0000
0100
0000
,  // measure 23
0100
0000
0010
0000
,  // measure 24
0010
0000
0010
0000
,  // measure 25
0010
0000
1000
0000
,  // measure 26
1000
0000
1000
0000
,  // measure 27
1000
0000
0001
0000
,  // measure 28
0001
0001
0000
0000
,  // measure 29
0001
0000
0010
0000
,  // measure 30
0100
0000
1000
0000
,  // measure 31
0100
0000
0010
0000
,  // measure 32
0001
0000
1000
0000
,  // measure 33
0010
0000
0100
0000
,  // measure 34
0001
0000
0010
0000
,  // measure 35
1000
0000
0100
0000
,  // measure 36
0001
0000
1000
0000
,  // measure 37
0001
0001
0001
0000
,  // measure 38
1000
0000
0100
0000
,  // measure 39
1000
1000
1000
0000
,  // measure 40
0001
0001
0001
0000
,  // measure 41
0010
0010
0010
0000
,  // measure 42
0100
0000
0001
0000
,  // measure 43
1000
0000
0000
0000
,  // measure 44
0001
0001
0001
0000
,  // measure 45
0100
0000
0100
0000
,  // measure 46
0100
0000
0100
0000
,  // measure 47
0010
0000
0010
0000
,  // measure 48
0010
0000
0010
0000
,  // measure 49
1000
0000
1000
0000
,  // measure 50
1000
0000
1000
0000
,  // measure 51
0001
0000
0001
0000
,  // measure 52
0001
0000
0001
0000
,  // measure 53
0010
0000
0100
0000
,  // measure 54
0010
0000
0100
0000
,  // measure 55
0010
0000
0001
0000
,  // measure 56
1000
0000
0001
0000
,  // measure 57
1000
1000
1000
0000
,  // measure 58
0001
0001
0001
0000
,  // measure 59
0100
0100
0100
0000
,  // measure 60
0010
0010
0010
0000
,  // measure 61
1000
0000
0001
0000
,  // measure 62
0100
0000
0010
0000
,  // measure 63
1000
0000
0001
0000
,  // measure 64
0100
0000
0010
0000
,  // measure 65
1000
1000
0001
0000
,  // measure 66
0110
0000
0100
0000
,  // measure 67
0100
0000
0100
0000
,  // measure 68
1001
0000
0001
0000
,  // measure 69
0001
0000
0001
0000
,  // measure 70
1000
1000
1000
0000
,  // measure 71
0100
0000
0100
0000
,  // measure 72
0001
0001
0001
0000
,  // measure 73
0100
0000
0100
0000
,  // measure 74
0010
0000
0000
0000
,  // measure 75
0000
0000
0000
0000
,  // measure 76
0000
0000
0000
0100
0000
0000
0000
0000
0000
0000
0000
0000
0000
0000
0000
0000
;

//---------------dance-single - ----------------
#NOTES:
     dance-single:
     :
     Easy:
     6:
     0.335,0.537,0.182,0.460,0.004: // measure 1
0000
0000
0000
0000
,  // measure 2
0000
0000
0000
0000
,  // measure 3
0000
0000
0000
0000
,  // measure 4
0000
0000
0000
0000
,  // measure 5
0000
0000
0000
0000
,  // measure 6
0002
0000
0100
0103
,  // measure 7
0020
0000
1000
1030
,  // measure 8
2000
0000
0100
3100
,  // measure 9
0200
0000
0010
0310
,  // measure 10
1002
0000
1000
0103
,  // measure 11
0210
0000
0001
1300
,  // measure 12
1001
0000
0000
0110
0000
0000
1001
0000
,  // measure 13
1000
0001
0100
0010
,  // measure 14
1001
0020
0000
0030
,  // measure 15
0100
0100
0001
2000
,  // measure 16
3000
0001
0001
0020
,  // measure 17
0030
0100
0010
0002
,  // measure 18
0003
2000
3000
0000
,  // measure 19
0100
2000
3000
0010
,  // measure 20
0100
0001
1000
0010
,  // measure 21
0100
0000
0000
0000
2002
3003
0000
0000
0001
0000
0000
0000
0001
0000
0000
0000
,  // measure 22
0001
0001
1000
1000
,  // measure 23
0100
0100
0010
0010
,  // measure 24
0010
0010
0100
0100
,  // measure 25
1000
1000
0010
0010
,  // measure 26
0010
0010
0100
0100
,  // measure 27
0001
0001
1000
0001
,  // measure 28
0100
0000
0000
0000
0010
0000
0000
0000
2002
3003
0000
0000
0000
0000
0000
0000
,  // measure 29
0001
1000
0001
1000
,  // measure 30
0010
0100
0010
0100
,  // measure 31
0001
1000
0010
0100
,  // measure 32
0001
1000
0010
0100
,  // measure 33
0010
0010
0010
0010
,  // measure 34
1000
1000
1000
1000
,  // measure 35
0001
1000
0100
0001
,  // measure 36
0100
1000
0010
0100
,  // measure 37
0001
1001
2002
3003
,  // measure 38
2000
0000
0000
3000
,  // measure 39
0010
0010
0100
0100
,  // measure 40
0001
0001
1000
0001
,  // measure 41
1001
1000
2000
3000
,  // measure 42
0002
0003
0020
0030
,  // measure 43
0100
0100
0010
0001
,  // measure 44
1000
0100
1000
0010
,  // measure 45
0200
0000
0010
0000
,  // measure 46
0010
0000
0001
0300
,  // measure 47
2000
0000
0100
0000
,  // measure 48
0100
0000
0010
3000
,  // measure 49
0002
0000
1000
0000
,  // measure 50
0100
0000
1000
0003
,  // measure 51
0020
0000
0130
0000
,  // measure 52
0002
0000
1003
0000
,  // measure 53
1001
1000
1000
1000
,  // measure 54
2000
0000
3010
0000
,  // measure 55
0101
0100
0100
0100
,  // measure 56
0020
0000
1030
0000
,  // measure 57
0001
1000
0001
1000
,  // measure 58
0010
0100
0010
0100
,  // measure 59
0010
1000
0001
0100
,  // measure 60
0001
0001
1000
1000
,  // measure 61
0200
0300
0020
0030
,  // measure 62
0002
0003
2000
3000
,  // measure 63
0200
0300
2000
3000
,  // measure 64
0002
0003
0200
0300
,  // measure 65
0020
0000
0130
0000
0002
0003
2000
3000
,  // measure 66
0220
0330
2002
3003
,  // measure 67
2020
3030
0202
0303
,  // measure 68
2200
3300
0022
0033
,  // measure 69
2002
3003
0220
0330
,  // measure 70
0010
0010
0100
0100
,  // measure 71
0001
0001
1000
1000
,  // measure 72
0001
0010
0100
1000
,  // measure 73
0001
0010
0100
1000
,  // measure 74
2002
0000
0000
0000
,  // measure 75
0000
0000
0000
3003
,  // measure 76
0000
0000
0000
0110
0000
0000
0000
0000
0000
0000
0000
0000
0000
0000
0000
0000
;

//---------------dance-single - ----------------
#NOTES:
     dance-single:
     :
     Medium:
     8:
     0.450,0.656,0.182,0.365,0.004: // measure 1
0000
0000
0000
0000
,  // measure 2
0000
0000
0000
0000
,  // measure 3
0000
0000
0000
0000
,  // measure 4
0000
0000
0000
0000
,  // measure 5
0000
0000
0000
0000
,  // measure 6
1001
0000
0001
0100
0000
0100
0001
0000
,  // measure 7
1000
0000
0100
1000
0000
1000
0100
0000
,  // measure 8
0010
0000
0001
0010
0000
0010
0001
0000
,  // measure 9
1000
0000
0010
1000
0000
1000
0010
0000
,  // measure 10
0200
0000
0301
1000
0000
0100
1000
0000
,  // measure 11
0002
0000
1003
0100
0000
1000
0010
0000
,  // measure 12
0200
0000
0310
1000
0000
0001
0100
0001
,  // measure 13
2000
0100
0100
3100
,  // measure 14
1001
0020
0000
0000
,  // measure 15
0130
0001
2000
0000
3200
0000
0320
0000
,  // measure 16
0000
0000
0130
1000
0100
2000
0000
0000
,  // measure 17
3010
0000
0100
0001
0100
0002
0000
0000
,  // measure 18
1003
0002
0000
0000
,  // measure 19
1003
0100
0020
0000
0000
0000
0230
0000
,  // measure 20
1300
0001
0100
0001
1000
0000
0010
0100
,  // measure 21
0001
0000
0000
0000
2002
3003
0000
0000
0001
0000
0000
0000
0100
0000
0000
0000
,  // measure 22
0001
0100
0100
0000
0001
0000
1000
0000
,  // measure 23
0001
1000
1000
0000
1000
0000
0010
0000
,  // measure 24
0100
0010
0010
0000
1000
0000
0100
0000
,  // measure 25
0010
0100
0100
0000
0020
0000
0001
0000
,  // measure 26
1000
0001
0031
0000
0200
0000
0001
0000
,  // measure 27
0010
1000
1300
0000
0001
0000
1000
0000
,  // measure 28
0100
0000
0010
0000
0001
0000
0000
0000
2002
3003
0000
0000
0020
0000
0000
0000
,  // measure 29
1030
0100
1000
0000
0100
0100
0100
0000
,  // measure 30
1000
0001
0100
0000
0100
0100
0100
0000
,  // measure 31
0010
1000
0001
0000
0001
0001
0001
0000
,  // measure 32
1000
0100
1000
0000
0001
0001
0001
0000
,  // measure 33
0100
1000
0001
0000
0100
0100
0100
0000
,  // measure 34
0010
1000
0001
0000
0010
0010
0010
0000
,  // measure 35
0001
0000
0100
0000
0010
1000
0100
0000
,  // measure 36
1000
0001
1000
1001
,  // measure 37
0010
0000
0010
0000
0020
0000
0130
0010
,  // measure 38
1000
0000
1000
0000
1000
0000
0001
1000
,  // measure 39
0002
0010
0010
0013
,  // measure 40
0200
0000
1000
0000
1000
0000
1300
0001
,  // measure 41
1000
1000
2000
3000
,  // measure 42
0010
0000
0100
0000
0001
1000
0001
0000
,  // measure 43
1100
0000
0000
0101
0000
0000
1010
0000
,  // measure 44
1001
0100
0010
1000
,  // measure 45
0001
0100
0001
0000
0100
0000
0100
0000
,  // measure 46
0010
1000
0010
0000
1000
0000
1000
0000
,  // measure 47
0001
0010
0001
0000
0100
0000
0100
0000
,  // measure 48
0010
0100
0001
0000
1000
0000
1000
0000
,  // measure 49
1000
0001
1000
0000
0010
0000
0010
0000
,  // measure 50
0100
0010
0100
0000
0010
0000
1000
0000
,  // measure 51
0001
0010
0001
0000
1000
0000
0100
0000
,  // measure 52
1000
0001
0100
0000
0001
0000
1001
0000
,  // measure 53
0100
0010
0100
0010
0100
0000
0100
0000
,  // measure 54
0010
1000
0010
1000
0010
0000
0010
0000
,  // measure 55
1000
0001
1000
0001
1000
0000
1000
0000
,  // measure 56
0001
1000
0001
1000
0001
0100
0001
0010
,  // measure 57
0001
0001
0001
0001
,  // measure 58
1000
1000
1000
1000
,  // measure 59
0010
0010
0010
0010
,  // measure 60
0100
0100
0100
0100
,  // measure 61
0001
0000
1000
0100
0000
0100
1000
0000
,  // measure 62
0001
0000
0010
0001
0000
0001
0010
0000
,  // measure 63
0001
0000
0100
0010
0000
0010
1000
0000
,  // measure 64
0010
0000
0100
0001
0000
1000
0100
0000
,  // measure 65
2001
0000
3001
0000
0220
0330
2002
3003
,  // measure 66
2200
3300
0202
0303
,  // measure 67
2020
3030
0022
0033
,  // measure 68
0220
0330
2002
3003
,  // measure 69
0202
0303
2100
3010
,  // measure 70
0100
0010
0100
0010
1000
0000
0001
0000
,  // measure 71
1000
0100
1000
0100
0010
0000
0100
0000
,  // measure 72
0001
0100
0001
0100
0010
0000
1000
0000
,  // measure 73
0001
1000
0100
1000
0001
0000
0100
0000
,  // measure 74
0220
0000
0000
0000
,  // measure 75
0000
0000
0000
0330
,  // measure 76
0000
0000
0000
1001
0000
0000
0000
0000
0000
0000
0000
0000
0000
0000
0000
0000
;

//---------------dance-single - ----------------
#NOTES:
     dance-single:
     :
     Hard:
     12:
     0.629,0.626,0.317,0.341,0.135: // measure 1
0000
0000
0000
0000
,  // measure 2
0000
0000
0000
0000
,  // measure 3
0000
0000
0000
0000
,  // measure 4
0000
0000
0000
0000
,  // measure 5
0000
0000
0000
0000
,  // measure 6
1001
0000
0000
1000
0010
0000
0000
0010
0100
0000
0000
0100
0001
0000
0000
0001
,  // measure 7
1000
0000
0000
1000
0100
0000
0000
0100
0010
0000
0000
0010
0001
0000
0000
0001
,  // measure 8
0100
0000
0000
0001
1000
0000
1010
0000
0000
0000
0000
1000
0100
0000
0000
0000
,  // measure 9
1001
0000
0000
0001
0100
0000
0000
0100
0001
0000
0000
0001
0010
0000
0000
0010
,  // measure 10
0002
0000
0000
0103
0001
0000
0100
0000
0010
0000
0000
0010
1000
0000
0010
0000
,  // measure 11
2000
0000
0000
3100
1000
0000
0001
0000
0100
0000
0000
0100
0010
0000
1000
0000
,  // measure 12
1001
0000
0000
0001
0010
0000
1100
0000
0000
0000
0001
0000
1000
0000
0001
0000
,  // measure 13
1000
0100
0010
0001
0100
0010
1000
0010
,  // measure 14
0200
0000
0302
0010
0000
1000
0000
0103
,  // measure 15
0010
0000
0100
0000
0001
0000
0000
1000
0000
0000
0001
0000
2000
0000
0000
0000
,  // measure 16
3100
0000
0000
0000
1000
0000
0000
1000
0100
0000
0010
0000
0002
0000
0000
0000
,  // measure 17
0103
0000
0000
0000
0001
0000
0000
0001
1000
0000
0010
0000
2000
0000
0000
0000
,  // measure 18
3001
1002
0010
0000
,  // measure 19
0013
0100
2000
0000
0010
0000
3100
0000
,  // measure 20
0100
1000
1001
0100
0010
1000
0001
0100
,  // measure 21
0010
0000
1000
0000
0200
0300
0000
0000
1001
0000
0100
0000
0010
0000
0100
0000
,  // measure 22
1000
0100
0010
0100
1000
0010
0100
0001
,  // measure 23
1000
0010
0100
0001
1000
0100
0010
0100
,  // measure 24
1000
0100
0010
0100
1000
0010
0001
0010
,  // measure 25
1000
0100
0001
0100
2000
0010
0000
0001
,  // measure 26
0000
0100
0000
3001
0020
0001
0000
0100
,  // measure 27
0000
1000
0000
0031
0100
0010
1000
0100
,  // measure 28
0010
0000
0001
0000
1000
0000
0001
0000
2002
3003
0000
0000
0020
0000
0000
0000
,  // measure 29
1030
0100
1000
0100
1000
0010
1000
0010
,  // measure 30
0100
0001
0100
0001
0010
0001
0010
0001
,  // measure 31
1000
0100
0010
0001
0100
0010
1000
0010
,  // measure 32
0100
0001
1000
0001
0100
0010
1000
0100
,  // measure 33
1100
0000
0001
0100
0010
1000
0001
0100
,  // measure 34
0001
0010
0001
0010
0001
0100
0001
0100
,  // measure 35
0001
1000
0010
0100
0001
1000
0010
0100
,  // measure 36
0000
1001
0000
0000
0110
0000
0000
1001
0000
0000
0001
0000
0010
0000
0100
0000
,  // measure 37
0010
0000
0000
0000
1001
0000
0000
0000
0100
0000
0000
0100
1000
0000
0001
0000
,  // measure 38
0100
0002
0000
1003
0100
0010
0100
1000
,  // measure 39
0001
0001
0001
0100
0001
0001
1000
0000
,  // measure 40
1000
1000
1000
0100
1000
0001
0100
0010
,  // measure 41
1001
0010
1000
0001
0100
0010
1000
0100
,  // measure 42
0010
0001
0100
0010
1000
0100
0001
0100
,  // measure 43
1001
0100
0100
1010
0001
0001
1100
0001
,  // measure 44
0010
0000
0010
0000
1001
0000
0000
0110
0000
0000
0001
0000
1000
0000
0001
0000
,  // measure 45
0010
0100
1000
0100
0010
0001
0100
0010
,  // measure 46
2000
3100
0002
0013
,  // measure 47
0001
0100
1000
0100
0001
0010
1000
0010
,  // measure 48
0002
0000
0013
0000
2000
0000
3100
1000
,  // measure 49
1002
0000
1003
0100
0010
0100
1000
0001
,  // measure 50
0100
0010
0100
0001
0010
1000
0010
0001
,  // measure 51
0200
0000
0310
1000
0001
0100
0001
0010
,  // measure 52
0001
1000
0100
0010
0001
0100
0010
1000
,  // measure 53
1001
0001
1000
0100
0010
0100
1000
0001
,  // measure 54
0100
0010
1000
0010
0100
0001
1000
0100
,  // measure 55
0010
0001
0100
0001
1000
0010
0100
0001
,  // measure 56
1000
0100
0001
0010
0001
0100
1000
0010
,  // measure 57
1010
0100
0001
0100
1000
0100
0001
0100
,  // measure 58
1000
0010
0001
0010
1000
0010
0001
0010
,  // measure 59
1000
0100
0010
0001
0100
0010
1000
0100
,  // measure 60
0010
0001
0100
0010
1000
0100
0010
0001
,  // measure 61
1001
0000
0000
0000
0010
0000
1000
0000
0000
0101
0000
0000
1100
0000
0000
0001
,  // measure 62
0000
0010
0001
0100
0001
0100
0010
1000
,  // measure 63
0100
0000
0010
0000
0000
0110
0000
0000
1001
0000
0000
0001
0100
0000
0001
0000
,  // measure 64
1000
0000
0000
0000
0001
0000
0001
0000
0100
0010
0100
0010
0100
0000
0001
1000
,  // measure 65
0002
0000
0013
0000
0202
0303
2020
3030
,  // measure 66
2002
3003
0220
0330
,  // measure 67
2200
3300
0022
0033
,  // measure 68
2002
3003
0202
0303
,  // measure 69
2020
0000
3030
0000
0110
0000
0010
0100
,  // measure 70
0001
1000
0001
1000
0010
0100
0001
1000
,  // measure 71
0001
0010
0100
1000
0001
0010
0100
1000
,  // measure 72
0010
0100
0001
1000
0100
0001
0100
1000
,  // measure 73
0010
0001
0010
1000
0100
0001
0010
1000
,  // measure 74
2002
0000
0000
0000
,  // measure 75
0000
0000
0000
3003
,  // measure 76
0000
0000
0000
0110
0000
0000
0000
0000
0000
0000
0000
0000
0000
0000
0000
0000
;

//---------------dance-single - ----------------
#NOTES:
     dance-single:
     :
     Challenge:
     17:
     0.983,0.985,0.190,0.182,1.000: // measure 1
0000
0000
0000
0000
,  // measure 2
0000
0000
0000
0000
,  // measure 3
0000
0000
0000
0000
,  // measure 4
0000
0000
0000
0000
,  // measure 5
0000
0000
0000
0000
,  // measure 6
0101
0000
0010
1000
0001
0000
1000
0100
0000
0010
0000
0100
1000
0000
0001
1000
,  // measure 7
0100
0000
1000
0010
0100
0000
0010
1000
0000
0001
0000
0010
0001
0000
1000
0100
,  // measure 8
0010
0000
0100
1000
0001
0000
1001
0000
0000
0100
0000
0010
0100
0000
0001
0010
,  // measure 9
0100
0000
0010
0001
1000
0000
0001
0010
0000
0100
0000
1000
0001
0000
1000
0010
,  // measure 10
0100
0000
0010
1000
0001
0000
1000
0100
0000
0001
0000
0100
1000
0000
0001
1000
,  // measure 11
0100
0000
1000
0001
0010
0000
0001
0010
0000
1000
0000
0010
0001
0000
1000
0001
,  // measure 12
0100
0000
0010
1000
0001
0000
1001
0000
0100
0000
0010
1000
0100
0000
0010
0001
,  // measure 13
0100
0010
0100
0010
1000
0001
1000
0001
1000
0100
0010
0001
1000
0100
0010
0001
,  // measure 14
2000
0000
0000
0000
3001
0000
0100
0000
0001
0010
0001
0000
1000
0000
0100
0000
,  // measure 15
1000
0010
1000
0000
0010
0000
0100
0000
0001
1000
0001
0000
0100
0000
0010
0000
,  // measure 16
1000
0100
1000
0000
0001
0000
0100
0000
0001
0010
0001
0000
1000
0000
0100
0000
,  // measure 17
1000
0010
1000
0000
0010
0100
0010
0100
0001
0000
1000
0000
0100
0010
0100
0010
,  // measure 18
0001
0000
1000
0000
0110
0000
0010
0000
1000
0100
1000
0000
0001
0000
0010
0000
,  // measure 19
0001
0100
0001
0000
1000
0000
0100
0000
0001
0100
1000
0000
0001
0000
0010
0000
,  // measure 20
1000
0010
0001
0000
0100
0010
1000
0100
1000
0000
0100
0010
0001
0100
0001
0000
,  // measure 21
1000
0010
0100
0001
2000
0000
0000
0000
3001
0000
0010
0000
0001
0100
0010
0000
,  // measure 22
1000
0000
0010
0000
1000
0100
0010
0000
0001
0000
0010
0000
0001
0100
0010
0000
,  // measure 23
1000
0000
0010
0000
1000
0100
0010
0000
0100
0000
1000
0000
0001
1000
0010
0000
,  // measure 24
0100
0000
0001
0000
1000
0001
0010
0000
0100
0000
1000
0000
0001
0100
0010
0000
,  // measure 25
0100
0000
0001
0000
1000
0100
0010
0000
0100
0000
1000
0000
0001
0010
0001
0000
,  // measure 26
0100
0000
0001
0000
1000
0010
1000
0000
0001
0000
0010
0000
0100
1000
0001
0000
,  // measure 27
1000
0000
0010
0000
0100
0001
1000
0000
0010
0000
0100
0000
0001
1000
0100
0000
,  // measure 28
0010
0000
0100
1000
0001
0010
0100
1000
0002
0003
0000
1000
0001
1000
0001
1000
,  // measure 29
0001
0000
0100
0010
0100
0010
0100
0010
1000
0000
0100
0010
0100
0010
0100
0010
,  // measure 30
0001
0000
1000
0100
1000
0100
0010
0100
1000
0000
0001
0100
0001
0100
0010
0100
,  // measure 31
0001
0000
1000
0010
0100
0001
1000
0100
0010
0000
0001
0010
0100
1000
0001
0100
,  // measure 32
0010
0000
0100
0001
1000
0010
0100
0010
1000
0000
0100
1000
0001
0010
0001
0100
,  // measure 33
0010
0000
0100
0001
0100
0001
0010
0001
1000
0000
0100
1000
0100
1000
0010
1000
,  // measure 34
0001
0000
0100
0010
0100
0001
1000
0100
0010
0000
0100
0010
0100
1000
0001
0100
,  // measure 35
0010
0000
0100
0001
1000
0000
0001
1000
0010
0100
0001
0010
0100
1000
0001
0000
,  // measure 36
0000
0011
0000
0000
1001
0000
0000
1010
0000
0000
0010
1000
0100
1000
0010
0000
,  // measure 37
0110
0000
0000
0100
0010
0000
0100
0000
0001
0100
0000
0100
0010
0000
0100
0000
,  // measure 38
1001
0000
0000
0100
0010
0100
0000
0100
1000
0100
0000
0100
0010
0000
0100
0000
,  // measure 39
0010
0001
0010
0001
1000
0000
0001
0000
1001
0000
0001
0000
0101
0000
0010
0000
,  // measure 40
1000
0010
1000
0010
0100
0000
0010
0000
1000
0001
1000
0001
0100
0000
0011
0000
,  // measure 41
1001
0000
0001
0000
0100
0010
1000
0000
0010
0000
0100
0000
0001
0010
0100
0000
,  // measure 42
0010
0000
0001
0000
1000
0100
0001
0000
0100
0000
1000
0000
0001
0010
1000
0000
,  // measure 43
0010
0000
0001
0100
0010
0100
0001
0000
1000
0010
0100
0010
1000
0000
0010
0100
,  // measure 44
0001
1000
0001
1000
0100
0000
1000
0001
0000
0010
0001
0000
1000
0100
0010
0001
,  // measure 45
1000
0000
0100
1000
0100
1000
0010
0100
0001
0000
0100
0001
0100
0001
0010
0100
,  // measure 46
1000
0000
0001
0010
0001
0010
0100
0010
0001
0000
1000
0010
1000
0010
0100
0010
,  // measure 47
1000
0000
0010
1000
0100
0010
0100
1000
0001
0000
0100
0001
0010
0001
0100
0010
,  // measure 48
1000
0000
0010
0100
0001
1000
0100
1000
0001
0000
0010
0001
1000
0100
1000
0001
,  // measure 49
0100
0000
0010
1000
0001
0010
1000
0010
0001
0000
1000
0010
1000
0100
0001
0100
,  // measure 50
1000
0000
0010
0100
0001
0010
1000
0010
0001
0000
0100
0010
1000
0100
0001
0100
,  // measure 51
1000
0000
0100
0010
0001
0010
0100
1000
0001
0000
0100
0010
1000
0010
0100
0001
,  // measure 52
1000
0000
0001
1000
0100
1000
0001
0010
0001
0000
0100
0010
0100
0010
0100
0010
,  // measure 53
1000
0000
0100
1000
0100
0010
0001
0100
0001
0000
0100
0001
0100
0010
1000
0100
,  // measure 54
1000
0000
0001
0010
0001
1000
0010
0100
0010
0000
1000
0100
1000
0001
0100
0010
,  // measure 55
1000
0000
0001
0010
0001
1000
0100
0001
0100
0000
1000
0010
1000
0001
0100
1000
,  // measure 56
0100
0000
0010
0100
0001
0010
1000
0010
0001
0000
0100
0010
1000
0001
1000
0001
,  // measure 57
1000
0100
1000
0100
1000
0100
1000
0100
0010
0000
0100
1000
0001
0100
0010
0100
,  // measure 58
0001
0100
0001
0100
0001
0100
0001
0100
0010
0000
0100
0001
1000
0100
0010
0100
,  // measure 59
1000
0010
0100
0010
1000
0010
0100
0010
1000
0000
0010
1000
0001
0010
0100
0010
,  // measure 60
0001
0100
0010
0100
0001
0100
0010
0100
0001
0010
0100
1000
0001
0010
0100
1000
,  // measure 61
0001
0010
0000
0000
0001
0000
0100
0000
0000
0101
0000
0000
1100
0000
0000
0011
,  // measure 62
0000
0000
0110
0000
0010
1000
0010
1000
0010
1000
0001
0100
0010
1000
0001
0100
,  // measure 63
0001
0000
0011
0000
0001
1000
0100
0000
1010
0000
1000
0001
0100
0000
1001
0000
,  // measure 64
0011
0000
0100
0010
1000
0000
0001
0010
0001
0100
0010
1000
0001
0100
0010
1000
,  // measure 65
0002
0000
1003
0000
2200
3300
0202
0303
,  // measure 66
2100
0000
0000
0000
3001
0010
1000
0010
0002
0000
0000
0000
1003
0100
0001
0100
,  // measure 67
2000
0000
0000
0000
3010
1000
0100
1000
0020
0000
0000
0000
0130
0001
0010
0001
,  // measure 68
0200
0000
0000
0000
0301
0010
1000
0010
0002
0000
0000
0000
1003
0100
0001
0100
,  // measure 69
2000
0000
0000
0000
0000
0000
0000
0000
3010
0000
0100
0000
0001
0000
0100
0000
0010
0100
0000
0000
0000
0000
0000
0000
0100
0000
0001
0000
1000
0000
0010
0000
,  // measure 70
2000
0000
3100
1000
0100
0010
0001
0100
0020
0000
0130
0001
0100
0010
1000
0001
,  // measure 71
0020
0000
0031
0010
0100
1000
0001
0100
0020
0000
0130
0001
1000
0100
1000
0001
,  // measure 72
0200
0000
0301
0010
1000
0010
0001
0100
0020
0000
1030
0100
0001
0100
1000
0010
,  // measure 73
0200
0000
0310
1000
0100
1000
0001
0100
0001
1000
0001
1000
0010
0100
0001
1000
,  // measure 74
0020
0000
0000
0000
,  // measure 75
0000
0000
0000
0030
,  // measure 76
0000
0000
1000
0000
0100
0000
0010
0001
0000
0000
0000
0000
0000
0000
0000
0000
0000
0000
0000
0000
0000
0000
0000
0000
0000
0000
0000
0000
0000
0000
0000
0000
;
