#TITLE:Micro fin;
#SUBTITLE:;
#ARTIST:Rotten Blotch;
#TITLETRANSLIT:;
#SUBTITLETRANSLIT:;
#ARTISTTRANSLIT:;
#GENRE:;
#CREDIT:;
#MENUCOLOR:;
#NEWMETERSYSTEM:NO;
#BANNER:Micro fin.png;
#BACKGROUND:Micro fin-bg.png;
#LYRICSPATH:;
#CDTITLE:./CDTITLES/GUITAR FREAKS & DRUMMANIA.PNG;
#MUSIC:Micro fin.mp3;
#OFFSET:-0.048;
#SAMPLESTART:79.996;
#SAMPLELENGTH:15.000;
#SELECTABLE:YES;
#LISTSORT:;
#BPMS:0.000=108.000;
#STOPS:;
#BGCHANGES:0.000=Micro fin.avi=1.000=1=1=0,
99999=-nosongbg-=1.000=0=0=0 // don't automatically add -songbackground-
;
#ATTACKS:;

//---------------dance-single - ----------------
#NOTES:
     dance-single:
     :
     Beginner:
     1:
     0.103,0.118,0.016,0.000,0.000:
0000
0000
0000
0000
,
0000
0000
0000
0000
,
0000
0000
0000
0000
,
0000
0000
0000
0000
,
0000
0000
0000
0000
,
1000
1000
1000
1000
,
1000
0000
0000
0001
,
0000
0000
0100
0000
,
0000
0010
0000
0010
,
0000
0100
0000
0100
,
0100
0000
0001
0000
,
1000
0000
0010
0000
,
1001
0000
1000
0000
,
0100
0000
1000
0000
,
0001
0000
0010
0000
,
0001
0000
0100
0000
,
0010
0000
1000
0000
,
0001
0000
1000
0000
,
0001
0000
0010
0000
,
0100
0000
1000
0000
,
0100
0000
0010
0000
,
0001
0000
1000
0000
,
0100
0000
1000
0000
,
0001
0000
0100
0000
,
0010
0000
0100
0000
,
0001
0000
1000
0000
,
0001
0000
0000
0000
,
1000
0000
0000
0000
,
0001
0000
0000
0000
,
0100
0000
0010
0000
,
1000
0000
0001
0000
,
1000
0000
0100
0000
,
0010
0000
0001
0000
,
0100
0000
0001
0000
,
1000
0000
1000
0000
,
1000
1000
1000
0000
,
0001
0000
0100
0000
,
0010
0000
1000
0000
,
0001
0000
0010
0000
,
0100
0000
1000
0000
,
0100
0000
0001
0000
,
0010
0000
1000
0000
,
0010
0000
0001
0000
,
0100
0000
1000
0000
,
0100
0000
0010
0000
,
0001
0000
1000
0000
,
0010
0000
0100
0000
,
0001
0000
1000
0000
,
1001
0000
0000
0000
;

//---------------dance-single - ----------------
#NOTES:
     dance-single:
     :
     Easy:
     7:
     0.300,0.354,0.131,0.000,0.000:
0000
0000
0000
0000
,
0000
0000
0000
0000
,
0000
0000
0000
0000
,
0000
0000
0000
0000
,
0000
0000
0000
0000
,
0100
0010
0010
0010
0010
0010
0010
0010
,
1000
0001
1000
0100
,
0010
0100
1000
0001
,
1000
0000
1001
0001
0001
1000
1000
1000
,
0010
0010
0010
0100
0100
0001
0001
0001
,
0001
0000
1000
0000
0100
0100
1000
0000
,
0010
0000
0100
0000
0001
0001
0010
0000
,
1001
0000
1000
0000
0100
0100
0010
0000
,
0100
0000
1000
0000
0001
0001
0100
0000
,
0110
0000
0001
0000
1000
1000
0010
0000
,
1000
0000
0001
0000
1000
1000
0100
0000
,
0011
0000
0100
0000
0001
0001
1000
0000
,
0001
1000
0001
0100
,
0110
0000
0001
0000
0010
0010
1000
0000
,
0010
0000
0001
0000
1000
1000
0100
0000
,
1100
0000
0001
0000
0100
0100
0001
0000
,
0100
0000
1000
0000
0010
0010
0001
0000
,
1001
0001
1000
0100
,
1000
1000
1000
0000
0100
0100
0100
0000
,
1001
0001
0010
0001
,
0100
0100
0100
0000
0010
0010
0010
0000
,
1000
1000
1000
0100
0100
1000
1000
1000
,
0001
0001
0001
0100
0100
0001
0001
0001
,
0010
0010
0010
0001
0001
1000
1000
1000
,
0010
0000
0100
0000
0001
0001
0001
0000
,
1001
0000
0100
0100
0000
0010
0010
0000
,
1000
0000
0001
0001
0000
0010
0010
0000
,
1001
0000
1000
1000
0000
0100
0100
0000
,
1100
0000
0010
0010
0000
0001
0001
0000
,
0100
0010
0010
0010
0010
0010
0010
0010
,
1000
0001
0100
0110
,
1001
0000
1000
0000
0001
0001
1000
0000
,
0001
0000
1000
0000
0010
0010
1000
0000
,
0110
0000
0001
0000
1000
1000
0100
0000
,
0010
0000
0001
0000
1000
1000
0001
0000
,
1000
0100
0001
0100
,
1000
0010
0001
0010
,
1001
0100
0010
1000
,
0001
1000
0001
0100
,
0010
0010
0010
0100
0100
0100
0001
0001
,
1000
1000
1000
0100
0100
0100
1000
1000
,
0001
0001
0001
0100
0100
0100
0010
0010
,
1000
1000
1000
0001
0001
1000
1000
1000
,
1001
0000
0000
0000
;

//---------------dance-single - ----------------
#NOTES:
     dance-single:
     :
     Medium:
     8:
     0.384,0.453,0.238,0.000,0.012:
0000
0000
0000
0000
,
0000
0000
0000
0000
,
0000
0000
0000
0000
,
0000
0000
0000
0000
,
0000
0000
0000
0000
,
0100
0001
0001
0001
0001
0001
0001
0001
,
1000
0000
0100
1000
0100
0000
1000
0000
,
0010
0100
0010
0000
0100
0000
0001
1000
,
0001
0000
1001
0001
1000
0001
1000
1000
,
0010
0100
0100
0001
1000
1000
0001
0010
,
0001
0000
0100
0000
0001
0001
0100
0000
,
0010
0000
1000
0000
0001
0001
1000
0000
,
1001
0000
0100
0000
0010
0010
0100
0000
,
1000
0000
0100
0000
1000
1000
0010
0000
,
0101
0000
1000
0000
0001
0001
0010
0000
,
0100
0000
1000
0000
0100
0100
0001
0000
,
1100
0000
0001
0000
1000
1000
0010
0000
,
0100
0000
0010
0000
1000
0001
1000
0000
,
1001
0001
0001
1000
0001
0001
0001
0010
,
0001
0001
0001
0100
0010
0010
0010
1000
,
1100
0100
0100
1000
0010
0010
0010
1000
,
0001
0001
0001
0010
0001
0001
0100
0010
,
1001
1000
1000
1000
0010
0010
0100
0100
,
0001
0001
0001
0001
0010
0010
0100
0100
,
1100
0100
0100
0100
1000
1000
0010
0010
,
0001
0001
0001
0001
0010
0010
1000
1000
,
0100
0001
0100
1000
0100
0001
0100
1000
,
0010
0001
0010
1000
0010
0001
0010
1000
,
0100
0010
0100
1000
0100
0010
0100
1000
,
0001
0100
0010
0100
0001
0100
0001
1000
,
1001
0100
0010
0010
0000
1000
0001
0000
,
1001
0001
1000
1000
0000
0100
1000
0000
,
0011
0001
0100
0100
0000
0001
0010
0000
,
1100
0100
1000
1000
0000
0010
1000
0010
,
0100
0100
0100
0100
0001
0001
1000
1000
,
0001
0010
0100
1000
0100
0010
1001
0000
,
0101
0000
1001
0000
0100
0100
1001
0000
,
1010
0000
1001
0000
0010
0010
1001
0000
,
0011
0000
0101
0000
0001
0001
0101
0000
,
1100
0000
1010
0000
1000
1000
1001
0001
,
0100
0100
0100
0010
1000
1000
1000
0001
,
0010
0010
0010
0001
0100
0100
0100
0001
,
1000
1000
1000
0001
0010
0010
0010
0001
,
0100
0100
0010
0010
1000
1000
0001
0001
,
1001
1000
1000
0100
1000
1000
0010
0100
,
0001
0010
0010
0001
0100
0100
0010
0100
,
1001
0001
0001
0010
0001
0001
1000
0100
,
1100
0000
1000
0000
1000
0000
0010
0000
0100
0000
0001
1000
0001
1000
0001
1000
,
0110
0000
0000
0000
;

//---------------dance-single - ----------------
#NOTES:
     dance-single:
     :
     Hard:
     12:
     0.622,0.610,0.886,0.000,0.394: // measure 1
0000
0000
0000
0000
,  // measure 2
0000
0000
0000
0000
,  // measure 3
0000
0000
0000
0000
,  // measure 4
0000
0000
0000
0000
,  // measure 5
0000
0000
0000
0000
,  // measure 6
0100
1001
1001
1001
1001
1001
1001
1001
,  // measure 7
0001
0000
0100
0000
0001
0000
0010
0000
0001
1000
0000
0000
0010
0000
0100
0000
,  // measure 8
0001
0000
0010
0000
0100
0010
0000
0000
1000
0000
0100
0000
0010
0000
0001
0000
,  // measure 9
1000
0010
0000
0000
0100
0000
0001
0000
1000
0000
1100
0000
0010
0000
0001
0000
,  // measure 10
0101
0000
0010
0000
1000
0000
0001
0000
0101
0000
0001
1000
0001
1000
0001
1000
,  // measure 11
0010
0100
0101
0001
0101
0101
1001
1000
,  // measure 12
1100
1000
1001
1000
1010
1010
1001
0100
,  // measure 13
0110
0100
1001
0001
0101
0101
0011
0010
,  // measure 14
0110
0000
0100
0000
1100
0000
0010
0000
1100
0000
1100
0000
1001
0000
1000
0001
,  // measure 15
0100
0001
1001
0010
0110
0110
0101
0100
,  // measure 16
0110
0010
1010
1000
1001
1001
1100
1000
,  // measure 17
1001
0000
0100
0000
0110
0000
0010
0000
1001
0000
1001
0000
0101
0000
0001
1000
,  // measure 18
0001
0000
0100
0001
0100
0000
1000
0100
1000
0000
0010
0001
0010
0001
0100
0001
,  // measure 19
0100
0000
0010
0100
0010
0000
1000
0001
1000
0000
0001
0100
0001
0000
0010
0001
,  // measure 20
0010
0000
0100
1000
0100
0000
1000
0010
1000
0000
0001
0100
0001
0000
1000
0000
,  // measure 21
1001
0000
0001
0010
0001
0000
1000
0100
1000
0000
0010
0100
0010
0000
0100
0001
,  // measure 22
0100
0000
0001
0010
0001
0000
1000
0001
1000
0000
0100
0010
0100
0010
0100
1000
,  // measure 23
0100
1000
1010
0010
0101
0101
1001
0010
,  // measure 24
0100
0010
0100
0010
0100
0010
0100
0010
0100
0001
0100
0001
0100
0001
1000
0001
,  // measure 25
1000
0100
1100
1000
1010
1010
1001
0001
,  // measure 26
0100
0000
0010
0100
0010
0000
1000
0000
0001
1000
0001
1000
0010
0100
0010
0100
,  // measure 27
0001
0100
0001
0000
1001
0000
1000
0100
1000
0000
1001
0000
1000
0010
0100
0000
,  // measure 28
0010
0100
0010
0000
0110
0000
0100
0001
1000
0000
1001
0000
0001
1000
0100
0000
,  // measure 29
1000
0100
0010
0000
0110
0000
0001
0100
0010
0000
0110
0000
0100
0001
1000
0000
,  // measure 30
0001
1000
0001
0000
1001
0000
0010
0100
0010
0000
1001
0000
1000
0001
1000
0001
,  // measure 31
1100
0000
0010
0000
1100
0000
1001
0000
0000
0000
0100
0000
0110
0000
0010
0100
,  // measure 32
0001
0000
1001
0000
0101
0000
1001
0000
0000
0000
0010
1000
0010
0000
1010
0000
,  // measure 33
1100
0000
0001
0000
0101
0000
0011
0000
0000
0000
0100
0000
1001
0000
0100
0010
,  // measure 34
1000
0001
1100
1010
0000
0010
0101
0001
,  // measure 35
1000
1001
1001
1001
1001
1001
1001
1001
,  // measure 36
0010
0100
0010
0100
0001
1000
0001
0010
0100
0010
0001
1000
1100
0000
0000
0000
,  // measure 37
1010
0000
1001
0000
0101
0100
1001
0000
,  // measure 38
0011
0000
0000
0000
1001
0000
0000
0000
1100
0000
0100
0000
1001
0000
1000
0010
,  // measure 39
0100
0000
0110
0000
1010
0010
0011
0000
,  // measure 40
0101
0000
0000
0000
1100
0000
0000
0000
0101
0000
0100
0000
1000
0001
1000
0001
,  // measure 41
1000
0000
0010
1000
0010
0000
0100
0001
0100
0000
0001
0010
0001
0000
0100
1000
,  // measure 42
0100
0000
1000
0001
1000
0000
0010
0100
0001
0000
1000
0100
0010
0000
0100
1000
,  // measure 43
0001
0000
0100
0001
0100
0000
0010
1000
0010
0000
1000
0001
1000
0000
0001
0010
,  // measure 44
0001
0000
1000
0100
1000
0000
0100
0010
0100
0000
1000
0001
1000
0001
1000
0001
,  // measure 45
1000
0010
0100
0000
1001
0000
0001
0010
0100
0000
1001
0000
0001
0100
0010
0000
,  // measure 46
0101
0000
0001
1000
0100
0000
1100
0000
1000
0100
0010
0000
1001
0000
0010
0000
,  // measure 47
0110
0000
0100
0001
1000
0000
0011
0000
1000
0100
0001
0000
1100
0000
0010
1000
,  // measure 48
0001
0000
0100
0010
1000
0000
0110
0000
1001
0000
0001
1000
0001
1000
0001
1000
,  // measure 49
0110
0000
0000
0000
;

//---------------dance-single - ----------------
#NOTES:
     dance-single:
     :
     Challenge:
     13:
     0.707,0.650,0.951,0.000,0.656:
0000
0000
0000
0000
,
0000
0000
0000
0000
,
0000
0000
0000
0000
,
0000
0000
0000
0000
,
0000
0000
0000
0000
0000
0000
0000
0000
0000
0000
0000
0000
0000
0000
0000
1000
,
0001
1001
1001
1001
1001
1001
1001
1001
,
1010
0000
0100
0000
0001
0000
1000
0100
1000
0010
0000
0010
1000
0000
0001
0000
,
0100
0000
0001
0010
0001
1000
0000
1000
0001
0000
0100
0000
0010
0000
0100
0001
,
1000
0100
0000
0100
0010
0000
0100
0000
1000
0000
1100
0000
1000
0000
0001
0000
,
0101
0000
0001
0000
0010
0000
0101
0000
1001
0000
0001
1000
0001
1000
0001
1000
,
0110
0010
1001
1000
1100
1100
1001
0001
,
0101
0000
0001
0000
1001
0000
0001
0000
0101
0000
0101
0000
1001
0000
1000
0001
,
0110
0100
0101
0001
0101
0101
1001
1000
,
0110
0000
0100
0000
1010
0000
1000
0000
1100
0000
1100
0000
1001
0000
0001
0010
,
0110
0010
0011
1000
1100
1100
1010
0001
,
0101
0000
0001
0000
0011
0000
1000
0000
0110
0000
0110
0000
1001
0000
1000
0001
,
1100
0000
0001
0000
0101
0000
0001
0000
0011
0000
0011
0000
1001
0000
0001
1000
,
0001
0000
1000
0001
1000
0000
0100
0010
0100
0000
0010
1000
0100
1000
0001
0100
,
0001
0010
0001
0010
0001
0010
0001
1000
0001
0010
0001
0010
0001
0010
0001
0100
,
0010
1000
0010
1000
0010
1000
0001
1000
0010
1000
0010
1000
0010
1000
0010
0100
,
0001
0010
0100
0010
0001
0010
0001
1000
0001
0010
0100
0010
0001
0100
0001
0100
,
0010
1000
0010
0100
0010
0001
0010
1000
0100
0010
0100
1000
0100
0010
0100
1000
,
0001
1000
0001
1000
0010
0100
0010
0100
0010
1000
0010
1000
0001
0010
0001
0010
,
0001
0100
0001
0100
0001
0100
0001
0100
0010
1000
0010
1000
0001
1000
0001
1000
,
0100
0010
0100
0010
0100
1000
0100
1000
0010
1000
0010
1000
0001
1000
0001
1000
,
0010
0100
0010
0100
0010
1000
0001
1000
0001
0000
1000
0001
1000
0001
1000
0001
,
1000
0010
0100
0000
1010
0000
0001
0010
0100
0000
0011
0000
1000
0100
0001
0000
,
0001
0100
1000
0000
1010
0000
1000
0010
0001
0000
0110
0000
0010
0100
0001
0100
,
0001
0010
0001
0000
1100
0000
1000
0010
1000
0000
0101
0000
0010
0100
0001
0000
,
1001
0000
0100
0010
1000
0000
0010
1000
0001
1000
0001
1000
0001
1000
0001
1000
,
1100
0000
0011
0000
0101
0000
1001
0000
0000
0000
0110
0000
1001
0000
1000
0001
,
0110
0000
1010
0000
1100
0000
1001
0000
0000
0000
0011
0000
0101
0000
0001
0010
,
1001
0000
0110
0000
0011
0000
1001
0000
0000
0000
1100
0000
1001
0000
1000
0010
,
1100
0000
0110
0000
1010
0000
1001
0000
0000
0000
1100
0000
0110
0000
1000
0100
,
0010
0110
0110
0110
0110
0110
0110
1001
,
0001
0000
0100
0000
0001
0000
0010
0000
0001
0000
1000
0000
0010
0000
0100
0000
0010
0000
1000
0010
1000
0000
0100
0000
0001
0000
0000
0000
0000
0000
0000
0000
,
1100
0000
1001
0000
0101
0101
1001
0000
,
0011
0000
0000
0000
0101
0000
0000
0000
0110
0000
0110
0000
1001
0000
0001
1000
,
1010
0000
1100
0000
0110
0110
1100
0000
,
0011
0000
0000
0000
0101
0000
0000
0000
0110
0000
0110
0000
0001
1000
0001
1000
,
0001
0010
0001
0010
0100
1000
0100
1000
0010
0100
0010
0100
0001
1000
0001
1000
,
0010
1000
0010
1000
0001
0100
0001
0010
0100
1000
0100
1000
0100
1000
0010
0100
,
0010
1000
0010
1000
0001
1000
0001
0010
0100
0010
0001
0010
0001
0100
0001
1000
,
0010
0100
0010
1000
0001
0010
0001
0100
0010
1000
0001
1000
0100
0010
0100
0010
,
0001
0100
0001
0000
1100
0000
0001
0010
0001
0000
1010
0000
0100
0010
1000
0000
,
1100
0000
0100
1000
0001
0000
1001
0000
0110
0000
0100
0010
1000
0001
1000
0000
,
0101
0000
0001
0010
0100
0000
1100
0000
1010
0000
1000
0010
1000
0001
1000
0000
,
0110
0000
0100
0001
1000
0000
1001
0000
0110
0000
1000
0001
1000
0001
1000
0001
,
0110
0000
0000
0000
;
