#TITLE:Mein;
#SUBTITLE:;
#ARTIST:Deftones;
#TITLETRANSLIT:;
#SUBTITLETRANSLIT:;
#ARTISTTRANSLIT:;
#GENRE:;
#CREDIT:;
#MENUCOLOR:;
#METERTYPE:DDR;
#BANNER:Mein.png;
#BACKGROUND:Mein-bg.png;
#LYRICSPATH:;
#CDTITLE:./CDTITLES/NONE.PNG;
#MUSIC:Mein.ogg;
#OFFSET:0.000;
#SAMPLESTART:48.960;
#SAMPLELENGTH:15.000;
#SELECTABLE:YES;
#LISTSORT:;
#DISPLAYBPM:125.000;
#BPMS:0.000=125.000,141.000=120.000,142.000=125.000;
#STOPS:;
#BGCHANGES:0.000=Mein.avi=1.000=0=0=0,
99999=-nosongbg-=1.000=0=0=0 // don't automatically add -songbackground-
;
#ATTACKS:;

//---------------dance-single - ----------------
#NOTES:
     dance-single:
     :
     Beginner:
     1:
     0.117,0.151,0.010,0.041,0.000:
0000
0000
0000
0000
,
0000
0000
0000
0000
,
0000
0000
0000
0000
,
0000
0000
0000
0000
,
0000
0000
0000
0000
,
1000
0000
1000
0000
,
0001
0000
0001
0000
,
0100
0000
0100
0000
,
0010
0000
0010
0000
,
2000
3000
0000
0000
,
0002
0003
0000
0000
,
0100
0000
0000
0000
,
0010
0000
0000
0000
,
0200
0300
0000
0000
,
0002
0003
0000
0000
,
1000
0000
0000
0000
,
0010
0000
0000
0000
,
1000
0000
0100
0000
,
1000
0000
1000
0000
,
0001
0000
0100
0000
,
0001
0000
0001
0000
,
0010
0000
0000
0000
,
0100
0000
0000
0000
,
0010
0000
0000
0000
,
0001
0000
1000
0000
,
0001
0001
0001
0000
,
1000
0000
0001
0000
,
1000
0000
0010
0010
,
0010
0010
0000
0100
,
0000
0001
0000
1000
,
0000
0001
0001
0001
,
0000
1000
0000
0001
,
0000
1000
0000
0100
,
0100
0100
0100
0000
,
1000
0000
0010
0000
,
0100
0000
0001
0000
,
0000
0000
1000
0000
,
0000
0000
0001
0000
,
1000
0000
0001
0000
,
0010
0000
0100
0000
,
0000
0000
0010
0000
,
0000
0000
0001
0000
,
0010
0000
0100
0000
,
1000
0000
0010
0000
,
0000
0000
0100
0000
,
0000
0000
0001
0000
,
0001
0000
1000
0000
,
1000
0000
1001
0000
,
0000
0000
0100
0000
,
0000
0000
0010
0000
;

//---------------dance-single - ----------------
#NOTES:
     dance-single:
     :
     Easy:
     5:
     0.268,0.276,0.101,0.274,0.000: // measure 1
0000
0000
0000
0000
,  // measure 2
0000
0000
0000
0000
,  // measure 3
0000
0000
0000
0000
,  // measure 4
0000
0000
0000
0000
,  // measure 5
0000
0000
0000
0000
,  // measure 6
1000
0001
0100
0001
,  // measure 7
1000
0010
1000
1000
,  // measure 8
0001
0010
0001
0100
,  // measure 9
0001
0010
0001
0001
,  // measure 10
2000
0000
0000
3000
,  // measure 11
0200
0000
0000
0300
,  // measure 12
0020
0001
0000
0031
,  // measure 13
0200
0001
0000
0301
,  // measure 14
0002
0000
0000
0003
,  // measure 15
2000
0000
0000
3000
,  // measure 16
0020
1000
0000
1030
,  // measure 17
0002
0100
0000
0103
,  // measure 18
0010
0010
0010
0010
,  // measure 19
1000
1000
1000
1000
,  // measure 20
0001
0001
0001
0001
,  // measure 21
0100
0100
0100
0100
,  // measure 22
0002
1000
0000
1003
,  // measure 23
0200
1000
0000
1300
,  // measure 24
0020
0001
0000
0031
,  // measure 25
0020
1000
0000
1030
,  // measure 26
0001
1001
2000
0010
,  // measure 27
0010
0010
0010
0100
,  // measure 28
0100
0001
3001
1000
,  // measure 29
0001
2001
0010
0000
,  // measure 30
3010
0200
0001
0000
,  // measure 31
0301
1000
1001
0002
,  // measure 32
0010
0010
1000
1000
,  // measure 33
0100
0100
1000
1003
,  // measure 34
0001
1000
1001
0020
,  // measure 35
0000
1030
0001
2000
,  // measure 36
0000
3001
1001
0001
,  // measure 37
0100
0100
0010
1000
,  // measure 38
1000
1000
0002
0010
,  // measure 39
0000
0013
0200
1000
,  // measure 40
0000
1300
1001
0100
,  // measure 41
0010
1000
0001
0010
,  // measure 42
0001
1000
0200
1000
,  // measure 43
0000
1300
0001
0100
,  // measure 44
0010
0110
2001
0001
,  // measure 45
0000
3001
0200
0001
,  // measure 46
0000
0301
0020
1000
,  // measure 47
1000
1030
0020
0001
,  // measure 48
0031
1001
2000
3000
,  // measure 49
0002
0003
0100
0010
,  // measure 50
1000
0001
0110
0000
;

//---------------dance-single - ----------------
#NOTES:
     dance-single:
     :
     Medium:
     7:
     0.342,0.351,0.152,0.091,0.000: // measure 1
0000
0000
0000
0000
,  // measure 2
0000
0000
0000
0000
,  // measure 3
0000
0000
0000
0000
,  // measure 4
0000
0000
0000
0000
,  // measure 5
0000
0000
0000
0000
,  // measure 6
0001
1000
0100
1000
,  // measure 7
0010
0000
0100
0000
0001
0000
1000
0001
,  // measure 8
0100
0001
1000
0010
,  // measure 9
0100
0000
0001
0000
1000
0100
1000
0100
,  // measure 10
0010
0001
1000
0001
,  // measure 11
0100
0010
0100
0001
,  // measure 12
1000
0000
0100
1000
0100
0000
0001
0100
,  // measure 13
0001
0000
0100
1000
0100
0000
1000
0001
,  // measure 14
1000
0010
0100
0001
,  // measure 15
1000
0001
0010
0001
,  // measure 16
1000
0000
0010
0100
0010
0000
0100
0010
,  // measure 17
0100
0000
0001
0100
0001
0000
1000
0001
,  // measure 18
0010
0001
1000
0100
,  // measure 19
1000
0000
0001
0000
0100
0000
0010
0100
,  // measure 20
0001
1000
0100
0010
,  // measure 21
0100
0000
1000
0000
0001
0000
0100
0001
,  // measure 22
1000
0000
0001
0000
0001
0000
1000
0001
,  // measure 23
1000
0000
0010
0000
0010
0000
0100
0010
,  // measure 24
1000
0000
0100
0000
0100
0000
1000
0100
,  // measure 25
0010
0001
1000
0001
,  // measure 26
1000
0001
1000
0000
1001
0000
0010
0000
,  // measure 27
1010
0001
0101
1000
,  // measure 28
1001
0000
0100
0000
0010
0100
1000
0000
,  // measure 29
0011
2000
0001
3001
,  // measure 30
0100
0020
1000
1030
,  // measure 31
0001
0000
1000
0001
1000
0000
1001
0000
,  // measure 32
0010
0110
1000
1001
,  // measure 33
0010
0000
0011
0000
1000
0000
1000
0001
,  // measure 34
0100
0110
1001
0002
,  // measure 35
1000
1003
0200
0310
,  // measure 36
2000
3001
1001
0100
,  // measure 37
0001
0001
0001
0000
1000
0000
0100
0000
,  // measure 38
1000
1000
1000
0000
0010
0000
0100
0000
,  // measure 39
0001
1000
0001
0010
,  // measure 40
0100
0010
0001
0000
1100
0000
1000
0000
,  // measure 41
0100
0100
0100
0000
0010
0000
0001
0000
,  // measure 42
0010
0010
0010
0000
0001
0000
0100
0001
,  // measure 43
1000
0000
0010
0100
0002
0000
0023
0000
,  // measure 44
0230
2300
3001
1000
,  // measure 45
0001
1000
0100
0000
1000
0000
0001
0000
,  // measure 46
1000
0001
0010
0000
1001
0000
0100
0000
,  // measure 47
0010
0100
0001
0000
0010
0000
0100
0000
,  // measure 48
0010
0100
1000
0000
0001
0000
0100
0000
,  // measure 49
0001
0010
0001
0000
1000
0000
0100
0000
,  // measure 50
1000
0010
1000
0000
1001
0000
0000
0000
;

//---------------dance-single - ----------------
#NOTES:
     dance-single:
     :
     Hard:
     12:
     0.572,0.577,0.182,0.010,0.497: // measure 1
0000
0000
0000
0000
,  // measure 2
0000
0000
0000
0000
,  // measure 3
0000
0000
0000
0000
,  // measure 4
0000
0000
0000
0000
,  // measure 5
0000
0000
0000
0000
,  // measure 6
0010
1000
0001
1000
0001
0010
0001
0100
,  // measure 7
0010
0000
1000
0000
0100
0000
0010
0000
0100
0000
1000
0000
0001
0000
0000
0001
,  // measure 8
0100
0010
1000
0001
1000
0100
0010
0100
,  // measure 9
1000
0000
0001
0000
0100
0000
0010
0000
1000
0000
0001
1000
0001
1000
0001
1000
,  // measure 10
0010
0000
0100
0000
0001
0000
1000
0000
0100
0000
0010
0000
0100
0000
0000
0100
,  // measure 11
1000
0000
0001
0000
0100
0000
0010
0000
1000
0000
0001
0000
0010
0000
0000
0010
,  // measure 12
0001
0000
1000
0000
0100
0000
0000
0100
1000
0000
0010
0000
0100
0000
0000
0100
,  // measure 13
0001
0000
1000
0000
0010
0000
0000
0010
1000
0000
0001
0000
0010
0000
0001
0000
,  // measure 14
0010
0000
0100
0000
0010
0000
0001
0000
1000
0000
0100
0000
1000
0000
0000
1000
,  // measure 15
0010
0000
0100
0000
0001
0000
1000
0000
0001
0000
0010
0000
0001
0000
0000
0001
,  // measure 16
0100
0000
0001
0000
1000
0000
0000
1000
0100
0000
1000
0000
0001
0000
0000
0001
,  // measure 17
0100
0000
0001
0000
0010
0000
0000
0010
0100
0000
0010
0000
0001
0000
1000
0001
,  // measure 18
1000
0010
0100
0010
1000
0010
1000
0001
,  // measure 19
0100
0000
0001
0000
0010
0000
0001
0000
1000
0000
0100
0000
0010
0000
0000
0100
,  // measure 20
1000
0001
0100
0001
1000
0010
1000
0001
,  // measure 21
0010
0000
0001
0000
0100
0000
0010
0000
1000
0000
0010
0000
0100
0000
0000
0001
,  // measure 22
0100
0000
0001
0000
1000
0000
0000
0100
1000
0000
0100
0000
0010
0000
0000
0001
,  // measure 23
1000
0000
0010
0000
1000
0000
0000
0010
0100
0000
0001
0000
0010
0000
0000
0010
,  // measure 24
0001
0000
1000
0000
0100
0000
0000
1000
0001
0000
0100
0000
0010
0000
0000
0100
,  // measure 25
0001
0000
1000
0000
0010
0000
0000
1000
0100
0000
1000
0000
0001
0000
0000
0100
,  // measure 26
0001
1000
0001
1000
0001
1000
0000
0000
0001
0000
0000
0000
1001
0000
0000
0100
,  // measure 27
0001
0000
0100
0000
1001
0000
0000
0100
1000
0000
0100
0000
1001
0000
0000
0100
,  // measure 28
0010
0000
1000
0000
0110
0000
0000
0010
0100
0001
0100
0001
0100
0001
0000
0000
,  // measure 29
1100
0000
0000
0000
0101
0000
0001
0000
1000
0000
0000
1000
0010
0000
1000
0000
,  // measure 30
0100
0000
0000
0100
0010
0000
0100
0000
1000
0000
0000
0001
0100
0000
0001
0000
,  // measure 31
0010
0000
0000
0010
0001
1000
0001
1000
0010
1000
0000
0000
1010
0000
0000
0010
,  // measure 32
1000
0000
1001
0000
1100
0000
0000
0100
0010
0000
0001
0000
0010
0000
0000
0001
,  // measure 33
1000
0000
1001
0000
1010
0000
0000
0010
1000
0000
0000
0000
0001
1000
0001
1000
,  // measure 34
0010
0100
0000
0000
0110
0000
0000
0000
1001
0000
0001
0000
1000
0000
0000
1000
,  // measure 35
0001
0000
0010
0000
0001
0000
0000
0001
0100
0000
0010
0000
1000
0000
0000
1000
,  // measure 36
0010
0000
0100
0000
2001
0000
0000
0000
3001
0000
0000
0001
0100
0000
0001
0000
,  // measure 37
1000
0100
0000
1000
0010
0000
0100
0000
0010
0000
0000
0010
1000
0000
0001
0000
,  // measure 38
0010
0001
0000
0010
0100
0000
0010
0000
0001
0000
0000
1000
0001
1000
0000
0000
,  // measure 39
0001
0000
0000
0100
0010
0100
0000
0000
0010
0000
0000
1000
0010
1000
0000
0000
,  // measure 40
0100
0010
0000
0010
0001
0000
1000
0000
1001
0000
0000
0001
0100
0000
0001
0000
,  // measure 41
1000
0010
0000
0100
0010
0000
1000
0000
0100
0000
0010
0000
0001
0000
1000
0000
,  // measure 42
0100
0000
1000
0000
0001
0000
0100
0000
0010
0000
0000
0010
1000
0010
0000
0000
,  // measure 43
1000
0000
0000
1000
0001
1000
0000
1000
0001
0100
0000
0100
0001
0000
1000
0100
,  // measure 44
0000
0100
1000
0000
0001
1000
0001
1000
0010
0000
0000
0010
0100
0000
0001
0000
,  // measure 45
1000
0100
0000
0010
0001
0000
1000
0000
0001
0000
0000
0001
0100
0000
0010
0000
,  // measure 46
1000
0010
0000
0100
0010
0000
1000
0000
0001
0000
0000
0010
0100
0010
0000
0000
,  // measure 47
0001
0000
0000
0100
0010
0100
0000
0000
1000
0000
0000
0010
1000
0010
0000
0000
,  // measure 48
0100
0001
0000
1000
0001
0000
1000
0000
1001
0000
0000
0001
1000
0000
0100
0000
,  // measure 49
0010
0100
0000
0100
1000
0000
0001
0000
0100
0000
0000
0100
0001
0000
1000
0000
,  // measure 50
0010
0010
0110
0000
1001
0000
0000
0000
;

//---------------dance-single - ----------------
#NOTES:
     dance-single:
     :
     Challenge:
     15:
     0.736,0.652,0.264,0.051,0.938:
0000
0000
0000
0000
,
0000
0000
0000
0000
,
0000
0000
0000
0000
,
0000
0000
0000
0000
,
0000
0000
0000
0000
,
0001
0100
0000
0100
0010
0100
0000
0100
1000
0100
0000
0100
0010
0100
0000
0100
,
0001
0010
0000
0010
0100
0010
0000
0010
1000
0010
0000
0010
0001
0000
1000
0001
,
0100
0010
0000
0010
1000
0001
0000
0001
0010
0001
0000
0001
1000
0010
0000
0010
,
1000
0100
0000
0100
1000
0010
0000
0010
0100
0000
0001
1000
0001
1000
0010
0100
,
0001
0000
0010
0001
0010
0000
0001
0100
0010
0000
0100
0001
1000
0000
0001
1000
,
0100
0000
1000
0100
1000
0000
0010
1000
0010
0000
1000
0001
0010
0000
0001
1000
,
0010
0000
0100
0001
0100
0000
0001
0010
0001
0000
1000
0001
0100
0000
0001
1000
,
0010
0000
1000
0100
1000
0000
0001
0010
0001
0000
1000
0001
0100
0000
0001
1000
,
0100
0000
0010
0001
0010
0000
0001
0100
0001
0000
1000
0010
1000
0000
0010
0100
,
0010
0000
1000
0100
1000
0000
0001
1000
0001
0000
0100
0001
0100
0000
0001
0010
,
0001
0000
1000
0001
0010
0000
0001
1000
0100
0000
1000
0010
0100
0000
0001
0010
,
0100
0000
0010
0001
0100
0000
0010
1000
0100
0000
0010
0000
0011
0000
0001
0100
,
0010
0000
1000
0010
1000
0010
1000
0000
0001
0000
0010
0001
0010
0000
0001
1000
,
0001
0000
0100
0001
0100
0001
0100
0000
0010
0000
1000
0010
1000
0000
0001
1000
,
0001
0000
1000
0100
1000
0100
1000
0000
0100
0000
0010
0100
0010
0000
0100
1000
,
0010
0000
0100
0010
0100
0010
0100
0000
0001
0000
0100
0001
0100
0000
0001
0010
,
0001
0000
1000
0001
0100
0000
0001
1000
0010
0000
1000
0010
1000
0000
0001
0100
,
0001
0000
1000
0100
0010
0000
0001
0010
0100
0000
1000
0100
1000
0000
0010
1000
,
0010
0000
0100
0000
0010
0100
0000
0100
0001
0000
0010
0000
0001
1000
0000
1000
,
0010
0000
1000
0000
0100
1000
0000
0001
1000
0000
0010
0000
0100
0001
0000
0010
,
0001
1000
0001
0010
0100
2000
0000
0000
3010
0000
0000
0100
0010
0000
0100
0000
,
0201
0000
0000
0301
0010
0000
0001
0000
2001
0000
0000
3001
0010
0000
0100
0000
,
0210
0000
0000
0310
0001
0000
1000
0000
0010
0100
0001
0100
0010
1000
0000
0000
,
1001
0000
0000
0000
1100
0000
1000
0100
0010
0000
0001
0010
0001
0010
0001
0000
,
1000
0000
0010
1000
0010
1000
0010
0000
0100
0000
0010
1000
0001
1000
0010
0000
,
1000
0000
0001
0010
0100
0010
0100
0010
0001
2000
0000
0000
3010
0000
0100
0010
,
1000
0000
1010
0000
1001
0000
1000
0100
0010
0000
0001
0000
0100
0000
0001
0010
,
0100
0000
0110
0000
0001
0000
0100
0010
1000
0000
0010
0100
0001
1000
0001
1000
,
0001
0010
0000
0000
1001
0000
0000
0000
0101
0000
0001
0100
0010
0000
1000
0010
,
1000
0010
1000
0000
0001
0000
0010
0100
0010
0100
0010
0000
0001
0000
1000
0100
,
0010
0001
1000
0000
0110
0000
0000
0000
1010
0000
0000
0010
1000
0000
0010
0000
,
1000
0100
0000
0100
0010
0000
0100
1000
0100
0000
0000
1000
0100
0000
0010
0000
,
0001
0100
0000
0100
0010
0000
0100
0000
0101
0000
0000
0001
0010
0001
0000
0000
,
1001
0000
0000
1000
0010
1000
0000
0000
0110
0000
0000
0010
1000
0001
0000
0000
,
0100
0010
0000
0010
1000
0000
0010
1000
0001
0000
0000
1000
0100
0000
1000
0000
,
0010
1000
0000
1000
0001
0000
0010
0001
1000
0000
0000
0010
0100
0000
0001
0000
,
0100
0010
0000
0010
1000
0000
0001
0000
0011
0000
0000
0001
0010
0001
0000
0000
,
1100
0000
0000
1000
0100
1000
0001
0000
0100
0010
0000
1000
0010
0000
0100
0001
,
0000
0010
0100
0000
1000
0100
0010
0001
1000
0000
0000
0001
0100
0001
0000
0000
,
0101
0000
0000
0001
1000
0010
0000
0000
1010
0000
0000
1000
0100
1000
0000
0000
,
0011
0000
0000
1000
0001
0010
0000
0000
0110
0000
0000
0100
1000
0100
1000
0000
,
1010
0000
0000
0100
0001
0100
0001
0000
0011
0000
0000
0001
1000
0001
1000
0000
,
0010
0100
0000
0100
0001
0000
1000
0001
0010
0000
0000
0001
0100
0000
0001
0000
,
1000
0010
0000
0010
0100
0000
0010
0000
1010
0000
0000
1000
0100
0000
1000
0000
,
0001
0010
0000
0010
0100
0000
0000
0000
0011
0000
0000
0000
0000
0000
0000
0000
;
