#TITLE:Marie Antoinette;
#SUBTITLE:;
#ARTIST:Marguerite du Pre;
#TITLETRANSLIT:;
#SUBTITLETRANSLIT:;
#ARTISTTRANSLIT:;
#GENRE:;
#CREDIT:;
#MENUCOLOR:;
#NEWMETERSYSTEM:NO;
#BANNER:Marie Antoinette.png;
#BACKGROUND:Marie Antoinette-bg.png;
#LYRICSPATH:;
#CDTITLE:./CDTITLES/BEATMANIA IIDX.PNG;
#MUSIC:Marie Antoinette.mp3;
#OFFSET:-0.116;
#SAMPLESTART:5.120;
#SAMPLELENGTH:15.000;
#SELECTABLE:YES;
#LISTSORT:;
#DISPLAYBPM:205.000:248.000;
#BPMS:0.000=215.000,108.000=205.000,390.000=248.000;
#STOPS:;
#BGCHANGES:0.000=Marie Antoinette.avi=1.000=1=1=0,
99999=-nosongbg-=1.000=0=0=0 // don't automatically add -songbackground-
;
#ATTACKS:;

//---------------dance-single - ----------------
#NOTES:
     dance-single:
     :
     Beginner:
     5:
     0.168,0.303,0.048,0.000,0.000:
0000
0000
0000
0000
,
0000
0000
0000
0000
,
0000
0000
0000
0000
,
0000
0000
0000
0000
,
0000
0000
1000
0000
,
0000
0001
0000
0000
,
0100
0000
0000
0010
,
0000
0000
1000
0000
,
0000
0001
0000
0000
,
0100
0000
0000
0010
,
0000
0000
0010
0000
,
0000
0100
0000
0000
,
0001
0000
0000
1000
,
0000
0000
0001
0000
,
0000
0010
0000
0000
,
0000
0000
0000
0100
,
0000
0000
0000
0000
,
0000
1000
0000
0000
,
0000
0000
0000
0001
,
0000
0000
0000
0000
,
0000
0001
0000
0000
,
0000
0000
0000
0100
,
0000
0000
0000
0000
,
0000
0000
0000
0000
,
0000
0000
0000
0000
,
0000
0000
0000
0000
,
0000
0010
0000
0000
,
0100
0000
0000
0100
,
0000
0000
0100
0000
,
0000
0100
0000
0000
,
0001
0000
0000
0001
,
0000
0000
1000
0000
,
0000
1000
0000
0000
,
0010
0000
0000
0010
,
0000
0000
1001
0000
,
0000
0100
0000
0000
,
1001
0000
0000
0010
,
0000
0000
1001
0000
,
0000
0100
0000
0000
,
0010
0000
0000
0001
,
0000
0000
1000
0000
,
0000
1000
0000
0000
,
1000
0000
0000
1000
,
0000
0000
0001
0000
,
0000
0001
0000
0000
,
0100
0000
0000
0010
,
0000
0000
1000
0000
,
0000
0001
0000
0000
,
0100
0000
0000
0001
,
0000
0000
1000
1000
,
0000
0001
0001
0000
,
0100
0100
0000
0010
,
0010
0000
1000
0000
,
0000
0001
0000
0000
,
0010
0000
0000
1001
,
0000
0000
0100
0000
,
0000
0010
0000
0000
,
0100
0000
0000
0001
,
0000
0000
1000
0000
,
0000
0010
0000
0000
,
1000
0000
0000
0001
,
0000
0000
0100
0000
,
0000
0010
0000
0000
,
1000
0000
0000
0001
,
0000
0000
0010
0000
,
0000
0100
0000
0000
,
0010
0000
0000
1000
,
0000
0000
0001
0000
,
0000
0100
0000
0000
,
0001
0000
0000
1000
,
0000
0000
0001
0000
,
0000
1001
0000
0000
,
0010
0000
0000
0100
,
0000
0000
0100
0000
,
0000
0001
0000
0000
,
0001
0000
0000
1000
,
0000
0000
1000
0000
,
0000
0010
0000
0000
,
1001
0000
0000
0100
,
0100
0000
0010
0000
,
0000
1000
1000
0000
,
0001
0000
0000
0100
,
0100
0000
0001
0000
,
0000
0010
0000
0000
,
0100
0100
0100
0100
,
0000
0000
1000
1000
,
1000
1000
0000
0000
,
0000
0000
0000
0000
,
0000
0000
0001
0000
,
0000
1000
0000
0000
,
0010
0000
0000
0100
,
0000
0000
0100
0000
,
0000
0001
0000
0000
,
1000
0000
0000
0010
,
0000
0000
1000
0000
,
0000
0100
0000
0000
,
1000
0000
0000
0010
,
0000
0000
0100
0000
,
0000
0100
0000
0000
,
0100
0000
0000
0001
,
0000
0000
0001
0000
,
0000
0001
0000
0000
,
0010
0000
0000
0010
,
0000
0000
1000
0000
,
0000
0100
0000
0000
,
0001
0000
0000
0010
,
0000
0000
1000
0000
,
0000
0100
0000
0000
,
0001
0001
0001
0001
,
0001
0000
0000
0000
;

//---------------dance-single - ----------------
#NOTES:
     dance-single:
     :
     Easy:
     8:
     0.433,0.519,0.135,0.381,0.000:
0000
0000
0000
0000
,
0000
0000
0000
0000
,
0000
0000
0000
0000
,
0000
0000
0000
0000
,
0000
0000
1000
0000
,
0000
1000
0000
0000
,
0001
0001
0001
0010
,
0100
0010
0001
0000
,
0000
1000
0000
0000
,
0100
0100
0000
1000
,
0000
0000
0010
0100
,
0010
0010
0000
0000
,
0100
0001
1000
1000
,
0000
0000
0001
0010
,
0100
1000
0000
0000
,
0100
0100
0000
0010
,
0000
0000
0001
0001
,
0000
1000
0000
0000
,
0010
0010
0000
0100
,
0000
0000
0001
0001
,
0000
1000
0000
0000
,
0001
0001
0001
1000
,
0000
0100
0000
0010
,
0000
0001
0000
1000
,
0000
0010
0000
0100
,
0000
0001
0000
1000
,
0000
0001
0000
0000
,
0100
0100
0100
0010
,
0010
0010
1000
1000
,
1000
0002
0003
0000
,
0010
0010
0010
0200
,
0300
0000
1000
0100
,
0010
0002
0003
0000
,
1000
0001
0100
0020
,
0030
0000
1001
0100
,
0010
2000
3001
0000
,
0001
0010
0100
0020
,
0031
0000
1000
0100
,
0010
0200
1300
0000
,
0001
0100
0010
0200
,
0301
0000
1000
1000
,
0001
0001
0010
0100
,
0010
0001
0001
1000
,
0010
0010
0100
0001
,
1000
0010
1000
0001
,
2000
0000
3000
0200
,
0000
0300
0020
0000
,
0030
0002
0000
0003
,
0200
0000
0300
0020
,
0000
0030
1000
1000
,
2000
3001
0001
0002
,
0013
0010
0020
0130
,
0100
0200
0310
0001
,
1000
0100
1000
0010
,
0100
0001
1000
2002
,
3003
0001
1000
1000
,
0010
0200
0300
0010
,
1000
0001
0010
0002
,
0003
1000
0100
0010
,
0100
2000
3000
0001
,
0100
0010
0100
0002
,
0003
1000
0001
1000
,
0001
1000
0010
0100
,
0010
0010
1000
1000
,
0001
0001
0010
0010
,
0100
0010
0001
1000
,
0100
0010
0100
1000
,
0001
0100
0010
0100
,
0100
0001
1000
0001
,
2002
0000
3003
1000
,
0001
0100
0020
0030
,
0100
1001
0000
0000
,
1000
0100
0100
0020
,
0030
0000
0001
0100
,
0100
0020
0030
0000
,
1000
0001
0001
0200
,
0300
0000
0001
1000
,
1000
0020
0030
0000
,
0001
0100
0010
2002
,
3003
0000
1000
0100
,
0010
0220
0330
0000
,
0010
0100
0001
2020
,
3030
0000
0100
0010
,
1000
0202
0303
0000
,
1000
0100
0100
2000
,
3000
0000
0001
0010
,
0010
0000
0002
0000
0003
0000
0000
2000
,
0000
0000
0000
3000
,
0000
0000
0001
0100
,
0100
0010
0100
0100
,
0001
1000
1000
0100
,
0010
0010
0100
1000
,
1000
0001
0100
0100
,
0001
0010
0010
0001
,
1000
1000
0100
0010
,
0010
0100
1000
1000
,
0001
0100
0100
0010
,
0100
0001
1000
0001
,
0001
1000
0001
1001
,
0100
0010
0010
0100
,
0220
0330
0001
1000
,
1000
0001
0010
0011
,
0001
0100
0100
0010
,
2020
3030
1000
0100
,
0100
0010
0100
1100
,
0100
0001
0001
0100
,
2002
3003
0010
0010
,
0100
0001
1000
1001
,
0010
0100
0010
1001
,
1001
0000
0000
0000
;

//---------------dance-single - ----------------
#NOTES:
     dance-single:
     :
     Medium:
     10:
     0.570,0.692,0.421,0.429,0.000:
0000
0000
0000
0000
,
0000
0000
0000
0000
,
0000
0000
0000
0000
,
0000
0000
0000
0000
,
0000
0000
1000
0010
,
0010
0100
0001
0001
,
0010
0001
0010
0100
,
1000
0100
0010
0001
,
1000
0000
0001
0000
0100
0010
0100
0000
,
2002
3003
0000
0001
,
1000
1000
0010
0100
,
0001
1000
0100
0010
,
0100
1000
1000
0001
,
0100
0001
1000
0010
,
0100
0000
0001
0010
0000
0010
0001
0000
,
1000
0000
0001
0000
0001
0000
1000
0100
,
0000
0100
1000
0000
0001
0000
1000
0000
,
1000
0000
0010
0100
0000
0100
0010
0000
,
0100
0000
0001
0000
0001
0000
1000
0100
,
0000
0100
0010
0000
0100
0000
1000
0000
,
0001
0000
0100
0010
0000
0010
1000
0000
,
0001
0010
0001
1000
,
0100
0010
0001
0100
,
0010
1000
0010
0001
,
0100
0001
0010
1000
,
0100
0010
0001
1000
,
0001
2000
0000
0000
,
0001
0001
0001
0100
,
0100
0000
3100
0000
0010
0000
0100
0001
,
0100
0002
0000
0003
,
1000
0000
0100
1000
0100
0000
2000
0000
,
0000
0000
3000
0000
0010
0000
0100
0010
,
0100
0020
0000
0030
,
0100
0001
0100
0000
0001
0000
2002
0000
,
0000
0000
3003
0000
1000
0000
0000
1000
,
0001
1000
1001
0000
,
0001
0000
0000
0001
1000
0000
0001
0000
,
1001
0000
0000
0000
0010
0000
0000
0100
,
0010
0100
0110
0000
,
0010
1000
0100
0000
0010
0000
2200
0000
,
3300
0000
0001
0100
,
0100
0010
1000
1000
,
0001
0010
0010
0100
,
0010
0001
1000
0100
,
0010
0100
1000
0001
,
0200
0010
0310
2000
,
0001
3001
0200
0001
,
0301
2000
0100
3100
,
0020
0001
0031
2000
,
0100
3001
1001
0220
,
0330
0110
2002
3003
,
0101
2200
3300
1010
,
0022
0033
1100
0010
,
0001
0100
0010
1000
,
0110
0000
1000
0001
1000
0000
2002
0000
,
3003
0000
0010
0000
1001
0000
0000
0001
,
0100
0001
1000
0001
,
1001
0000
0000
1000
0100
0000
0010
0000
,
0100
0000
1000
0000
0011
0000
0000
0100
,
0001
0100
0010
1000
,
1010
0000
0000
0010
0001
0000
0010
0000
,
0100
0000
0001
0000
1001
0000
0000
0100
,
0010
0100
1000
0001
,
1001
0000
0000
0010
0100
0000
0010
0000
,
1000
0001
0010
0001
,
0010
0100
1000
0100
,
0010
0010
0001
1000
,
1000
0010
0100
0100
,
0001
1000
1000
0001
,
2002
0000
3003
0010
,
0100
0001
0202
0000
,
0303
1100
0000
0000
,
0100
0000
0000
0100
0010
0000
2000
0000
,
3000
0000
0000
0000
0001
0000
0000
0001
,
0010
0002
0003
0000
,
1000
0000
0000
1000
0100
0000
2000
0000
,
3000
0000
0000
0000
0010
0100
0010
0000
,
0100
0020
0030
0000
,
1001
0000
1000
0100
0010
0000
0100
0000
,
2200
0000
3300
0000
1001
0000
0001
0100
,
0010
0100
0202
0303
,
0011
0000
0001
0010
1000
0000
0010
0000
,
0220
0000
0330
0000
1000
0100
0001
0000
,
0100
2200
3300
0000
,
1001
0100
0100
0220
,
0330
0000
0011
1000
,
1000
0000
2002
0000
3003
0000
0000
0220
,
0000
0000
0000
0330
,
0000
0000
0001
0100
,
0100
0010
1000
1000
,
0001
0010
0010
0100
,
0010
0001
1000
0100
,
0100
0010
0100
0100
,
1000
0001
0100
0010
,
1000
0010
0100
0001
,
0001
1000
0001
0100
,
0010
1000
0100
0001
,
0100
0000
1000
0000
1001
0000
0001
0100
,
0001
0100
0100
0110
,
1010
0000
0010
1000
0010
0000
1001
0000
,
2002
0000
3003
0000
1100
0000
1000
0100
,
1000
0100
0010
0011
,
1001
0000
0001
0100
0010
0000
0110
0000
,
2002
0000
3003
0000
0001
1000
0001
1000
,
0001
1000
0001
1001
,
1000
0001
1000
0001
1000
0000
0010
0000
,
0220
0000
0330
0000
0010
1000
0010
1000
,
0010
0100
0101
1100
,
0001
0010
0100
1000
0001
0010
0001
0000
,
1001
0000
0000
0000
;

//---------------dance-single - ----------------
#NOTES:
     dance-single:
     :
     Hard:
     12:
     0.687,0.736,0.294,0.389,0.000: // measure 1
0000
0000
0000
0000
,  // measure 2
0000
0000
0000
0000
,  // measure 3
0000
0000
0000
0000
,  // measure 4
0000
0000
0000
0000
,  // measure 5
0000
0000
0000
0000
1000
0000
0001
0100
,  // measure 6
0001
0000
1000
0000
0010
0100
0010
0000
,  // measure 7
1000
0010
0100
0001
0100
0000
0001
0000
,  // measure 8
0010
0000
0100
0000
0010
0001
0100
0000
,  // measure 9
0001
1000
0010
0200
,  // measure 10
0310
1000
0001
1000
,  // measure 11
0100
1000
0001
1000
0010
0000
0100
0000
,  // measure 12
0001
1000
0010
0100
,  // measure 13
0001
0000
0010
0001
0010
0000
0001
0000
,  // measure 14
0010
0000
0100
0000
1000
0100
0010
0000
,  // measure 15
0001
0000
0100
0010
0000
1000
0001
0000
,  // measure 16
0100
0000
0010
0000
1000
0000
0001
0010
,  // measure 17
0000
0010
0001
0000
1000
0000
0100
0000
,  // measure 18
0010
0000
0001
1000
0000
0010
0100
0000
,  // measure 19
0010
0000
1000
0000
0001
0000
1000
0100
,  // measure 20
0000
0100
1000
0000
0001
0000
0100
0000
,  // measure 21
0010
0000
1000
0001
0000
0010
0001
0000
,  // measure 22
1000
0001
1000
1001
,  // measure 23
0010
0100
0001
0000
0100
0000
0010
1000
,  // measure 24
0001
0000
1000
0000
0100
0010
0001
0000
,  // measure 25
0100
0000
0010
0100
0010
0000
1000
0000
,  // measure 26
0001
0010
0100
0000
0010
0000
0001
1000
,  // measure 27
0010
2000
0000
0000
,  // measure 28
0001
0001
0001
0100
,  // measure 29
0100
0000
3100
0000
0001
0010
0100
1000
,  // measure 30
0100
0010
0002
0000
0000
0000
0003
0000
,  // measure 31
1000
0010
0100
0001
0100
0010
2000
0000
,  // measure 32
0000
0000
3000
0000
0010
1000
0001
0100
,  // measure 33
0001
1000
0020
0000
0000
0000
0030
0000
,  // measure 34
0100
0001
1000
0010
1000
0001
0200
0000
,  // measure 35
0000
0000
0300
0000
0001
0010
0001
0100
,  // measure 36
0010
1000
0001
0000
1001
0000
0010
0000
,  // measure 37
1000
0100
0010
0001
0100
0010
1000
0000
,  // measure 38
1010
0000
0001
0000
0100
0010
0001
0010
,  // measure 39
0100
1000
0100
0000
0110
0000
1000
0000
,  // measure 40
0001
0100
0010
0100
0001
1000
0100
0000
,  // measure 41
0011
0000
0001
0000
1000
0100
1000
0001
,  // measure 42
0100
0010
1000
0000
0001
0010
0001
1000
,  // measure 43
0010
0000
0100
0010
1000
0001
1000
0000
,  // measure 44
0100
0010
0001
0100
0010
1000
0010
1000
,  // measure 45
0010
0100
0010
0100
0001
1000
0010
1000
,  // measure 46
0002
0203
0320
2030
,  // measure 47
3200
0320
0032
0023
,  // measure 48
0230
2300
0001
3001
,  // measure 49
0200
0010
0310
2000
,  // measure 50
0010
3010
0002
0100
,  // measure 51
0103
0002
1000
1003
,  // measure 52
0020
0100
0130
0020
,  // measure 53
1000
1030
2000
0100
,  // measure 54
3010
0002
0100
0013
,  // measure 55
1000
0001
0110
2002
,  // measure 56
3003
0000
0010
0000
1001
0000
0001
0100
,  // measure 57
0010
1000
0001
0000
1000
0000
0001
0000
,  // measure 58
1001
0000
1000
0100
0010
0001
0100
0000
,  // measure 59
0010
0000
0110
0000
1001
0000
1000
0010
,  // measure 60
1000
0001
0100
0000
0001
0000
0010
0000
,  // measure 61
0101
0000
0001
0010
0100
1000
0010
0000
,  // measure 62
0100
0000
0010
0000
1001
0000
0100
0010
,  // measure 63
1000
0001
0100
0000
0001
0000
0010
0000
,  // measure 64
1100
0000
1000
0100
1000
0010
1000
0000
,  // measure 65
0001
1000
0001
0010
0001
0000
0100
0010
,  // measure 66
0100
0001
0100
0000
0001
1000
0100
1000
,  // measure 67
0001
1000
0001
1000
0010
0100
0010
0100
,  // measure 68
0001
1000
0100
0010
0001
0010
0100
1000
,  // measure 69
0001
0100
0010
1000
0010
0100
0001
1000
,  // measure 70
0002
0000
0003
1000
,  // measure 71
0010
1100
0202
0000
,  // measure 72
0303
1001
0000
0000
,  // measure 73
0100
0000
0010
0100
0010
1000
0002
0000
,  // measure 74
0003
0000
0000
0000
1000
0000
0100
0010
,  // measure 75
0001
1000
0020
0000
1030
0000
0000
0000
,  // measure 76
0001
0000
0100
0001
1000
0010
0200
0000
,  // measure 77
0300
0000
0000
0000
0010
1000
0010
0100
,  // measure 78
0001
1000
0002
0000
1003
0000
0000
0000
,  // measure 79
1001
0000
0001
1000
0010
1000
0001
0000
,  // measure 80
2100
0000
3010
0000
0101
0000
0001
0100
,  // measure 81
0010
1000
0001
0000
0102
0000
0013
0000
,  // measure 82
1001
0000
0010
0001
1000
0100
1000
0000
,  // measure 83
0120
0000
0130
0000
1000
0001
1000
0010
,  // measure 84
0100
0010
0200
0000
0301
0000
0000
0000
,  // measure 85
1000
0100
0010
0220
,  // measure 86
0000
0330
1001
0110
,  // measure 87
1001
0000
2002
0000
3003
0000
0000
0220
,  // measure 88
0000
0000
0000
0330
,  // measure 89
0000
0000
1000
0010
,  // measure 90
0010
0100
0001
1000
,  // measure 91
0010
0100
0100
0001
,  // measure 92
0010
0100
1000
0010
,  // measure 93
0010
1000
0001
0100
,  // measure 94
0001
0010
0010
0001
,  // measure 95
0010
0100
1000
0001
,  // measure 96
0001
1000
0010
0100
,  // measure 97
0100
0010
1000
0001
,  // measure 98
0100
0000
0001
0000
1000
0010
1000
0010
,  // measure 99
0100
0001
0100
0000
0101
0000
1100
0000
,  // measure 100
0001
0010
0001
0010
0100
1000
0100
0000
,  // measure 101
2002
0000
3003
0000
0010
1000
0001
0100
,  // measure 102
0010
1000
0001
0000
1100
0000
0011
0000
,  // measure 103
1000
0010
0100
0001
1000
0001
0100
0000
,  // measure 104
2002
0000
3003
0000
0100
0010
0100
0010
,  // measure 105
1000
0001
1000
0001
0100
0010
0100
0010
,  // measure 106
1000
0001
0100
0010
1000
0100
0010
0000
,  // measure 107
2200
0000
3300
0000
0001
0100
1000
0100
,  // measure 108
0001
0100
1000
0100
0001
0010
1000
0010
,  // measure 109
0001
0001
0010
0010
0100
0100
1000
0000
,  // measure 110
1001
0000
0000
0000
;

//---------------dance-single - ----------------
#NOTES:
     dance-single:
     :
     Challenge:
     14:
     0.821,0.779,0.945,0.230,0.000:
0000
0000
0000
0000
,
0000
0000
0000
0000
,
0000
0000
0000
0000
,
0000
0000
0000
0000
,
0000
0000
0000
0000
1000
0010
0100
0010
,
1000
0001
0010
0100
0010
0001
1000
0100
,
1000
0001
1000
0010
0100
0010
1000
0100
,
0001
0100
1000
0001
0100
0010
1000
0010
,
0100
0001
1000
0001
0010
0100
1000
0001
,
0200
0310
0000
1000
,
0010
1000
0100
1000
0001
0010
0100
1000
,
0001
0010
0001
0000
0101
0000
1010
0000
,
1000
0010
0100
0001
1000
0001
1000
0001
,
0100
0010
1000
0100
0010
0001
1000
0100
,
1000
0001
0100
0010
0000
0010
1000
0000
,
0101
0000
0011
0000
1100
0000
0001
0010
,
0000
0010
0001
0000
1001
0000
0110
0000
,
1001
0000
0010
0100
0000
0100
0010
0000
,
1001
0000
1100
0000
0101
0000
0010
1000
,
0000
0100
0001
0000
1100
0000
0011
0000
,
1001
0000
0010
0100
0000
0001
1000
0000
,
1001
0000
0110
0000
1010
0000
0010
1000
,
0010
1000
0100
0001
0100
0001
0100
1000
,
0001
0100
0010
1000
0010
0001
0010
0100
,
0001
1000
0001
0010
0100
1000
0001
0100
,
0010
1000
0001
0010
0001
1000
0001
1000
,
0001
0210
0000
0000
,
0001
0001
0001
1000
,
1000
0000
1300
0000
0001
0100
0010
1000
,
0100
0001
0200
0000
0010
0000
0300
0000
,
1000
0010
0100
0001
1000
0001
2000
0000
,
0001
0000
3000
0000
0001
0100
0010
1000
,
0100
0010
0002
0000
0010
0000
0003
0000
,
1000
0100
0001
0100
1000
0010
0002
0000
,
1000
0000
0003
0000
1001
0000
0010
0100
,
0010
1000
0001
0000
1100
0000
0101
0000
,
1001
0000
0001
0010
0100
0010
0001
0000
,
0011
0000
1100
0000
0110
0000
0010
0100
,
0001
1000
0001
0000
1001
0000
1100
0000
,
0001
0010
0100
1000
0100
0010
0001
0000
,
1001
0000
0110
0000
0100
0010
0100
0001
,
0100
0010
0100
0000
0100
0010
0100
1000
,
0100
0000
0100
0010
1000
0001
1000
0100
,
1000
0010
0100
0001
0010
0100
0010
0001
,
1000
0100
0010
0100
1000
0001
0100
0001
,
1000
1010
1100
0001
,
0011
0101
0001
1001
,
0110
0100
1010
1100
,
1001
0110
0110
0101
,
1010
0000
1001
0000
1100
0000
0010
0001
,
1000
0000
0101
0000
0010
0100
0001
0000
,
1001
0000
1000
0100
0010
0000
1100
0000
,
0100
1000
0001
0000
1000
0100
1000
0100
,
0010
0001
0100
0010
0100
0010
1000
0001
,
0100
0001
1000
0010
0100
0001
2002
0000
,
3003
0100
0010
0000
1001
0001
0100
0001
,
1000
0001
0010
0000
0110
0000
1001
0000
,
1001
1000
0100
0010
0100
1000
0001
0000
,
1100
0000
0011
0000
1100
0100
1000
0001
,
0100
0010
0100
0000
1001
0000
0110
0000
,
0011
0001
1000
0010
1000
0100
0001
0000
,
1100
0000
0101
0000
1010
1000
0010
0001
,
0010
0100
0001
0000
0110
0000
1100
0000
,
0011
0001
1000
0001
0100
0010
1000
0100
,
0010
0100
1000
0001
0010
0100
0010
0001
,
1000
0100
0001
0100
1000
0010
1000
0001
,
0100
0010
1000
0001
0010
0001
1000
0100
,
0010
0100
1000
0001
0100
0010
1000
0001
,
0100
0010
1000
0001
1000
0100
0010
0001
,
2001
0010
3010
0101
,
1010
1100
0012
1000
,
1003
2002
0000
3003
,
0100
0010
1000
0001
1000
0001
0020
0000
,
0000
0000
0030
0000
1000
0001
1000
0100
,
0010
0100
2000
0000
0000
0000
3000
0000
,
0100
1000
0001
0010
0100
1000
0020
0000
,
0000
0000
0030
0000
0001
0100
0010
1000
,
0001
0010
0200
0000
0000
0000
0300
0000
,
1001
0000
0000
0100
0010
0100
0100
0000
,
1001
0000
0000
0000
0011
0000
0000
1000
,
1000
0001
0010
0000
0110
0000
0000
0000
,
0101
0000
0000
0010
1000
1000
0010
0000
,
0101
0000
0000
0000
1000
0100
0010
0001
,
1000
0100
2000
0000
0000
0000
3000
0000
,
0001
0101
1010
0220
,
0000
0330
1001
1001
,
0110
0000
2002
0000
3003
0000
0000
0220
,
0000
0000
0000
0330
,
0000
0000
1010
0010
,
1000
0001
1001
0110
,
0110
0100
0001
1000
,
0011
0101
1001
1000
,
0100
0010
1100
1010
,
1001
0100
0001
1000
,
1001
0110
1010
0101
,
1100
0001
0011
0101
,
1001
0100
0010
1001
,
0110
0000
1001
0000
0001
1000
0001
1000
,
0001
1000
1100
0000
0011
0000
1100
0000
,
1000
0001
1000
0001
1000
0001
0101
0000
,
2020
0000
3030
0000
0001
0100
0010
1000
,
0001
0100
0110
0000
1100
0000
0011
0000
,
1000
0100
0010
0001
1000
0100
0011
0000
,
0202
0000
0303
0000
0001
1000
0001
1000
,
0001
1000
0010
0100
0001
1000
0001
0010
,
0100
0010
0001
1000
0100
0010
0110
0000
,
2200
0000
3300
0000
1000
0100
0010
0001
,
1000
0100
0010
0100
1000
0001
0100
0010
,
1000
1000
0001
0001
0010
0010
0110
0000
,
1001
0000
0000
0000
;
