#TITLE:まほろば;
#SUBTITLE:;
#ARTIST:HHH+H;
#TITLETRANSLIT:MAHOROBA;
#SUBTITLETRANSLIT:;
#ARTISTTRANSLIT:;
#GENRE:;
#CREDIT:;
#MENUCOLOR:;
#NEWMETERSYSTEM:NO;
#BANNER:MAHOROBA.png;
#BACKGROUND:MAHOROBA-bg.png;
#LYRICSPATH:;
#CDTITLE:./CDTITLES/BEATMANIA IIDX.PNG;
#MUSIC:MAHOROBA.mp3;
#OFFSET:-0.186;
#SAMPLESTART:80.688;
#SAMPLELENGTH:15.000;
#SELECTABLE:YES;
#LISTSORT:;
#BPMS:0.000=149.000;
#STOPS:;
#BGCHANGES:0.000=MAHOROBA.avi=1.000=1=1=0,
99999=-nosongbg-=1.000=0=0=0 // don't automatically add -songbackground-
;
#ATTACKS:;

//---------------dance-single - ----------------
#NOTES:
     dance-single:
     :
     Beginner:
     2:
     0.145,0.176,0.018,0.035,0.000:
0000
0000
0000
0000
,
1000
0000
0000
0000
,
0001
0000
0000
0000
,
0100
0000
0000
0000
,
0010
0000
0010
0000
,
1000
0000
0100
0000
,
0010
0000
0001
0000
,
1000
0000
0000
0000
,
1001
0000
0000
0000
,
0000
0000
0000
0000
,
0010
0010
0010
0000
,
0100
0000
0100
0000
,
0001
0001
0001
0000
,
1000
0000
1000
0000
,
0010
0010
0010
0000
,
1000
0000
0001
0000
,
0100
0000
0001
0000
,
0010
0000
0000
0000
,
0000
0000
0000
0000
,
1000
0000
0100
0000
,
1000
0000
0010
0010
,
0000
0100
0000
0001
,
0000
1000
0000
0001
,
0001
0000
0010
0000
,
0100
0000
1000
1000
,
0000
0010
0000
0100
,
0000
0010
0000
1000
,
1000
0000
0000
0000
,
0001
0000
0000
0000
,
0100
0000
0000
0000
,
0010
0000
0000
0000
,
1001
0000
0000
0000
,
0001
0000
0000
0000
,
1000
0000
0100
0000
,
0001
0000
0010
0000
,
1000
0000
0000
0000
,
0001
0000
0000
0000
,
0100
0000
0000
0000
,
0010
0000
0000
0000
,
0200
0300
0000
0000
,
0010
0000
0000
0000
,
1000
0000
0000
0000
,
0001
0000
0000
0000
,
1000
0000
0000
0000
,
0001
0000
1000
0000
,
0001
0000
0100
0000
,
0010
0000
1000
0000
,
0001
0000
0000
0000
,
0000
0000
0000
0000
,
2000
3000
0000
0000
,
0010
0010
0010
0000
,
0100
0000
0001
0000
,
1000
1000
1000
0000
,
0100
0000
0001
0000
,
0010
0010
0010
0000
,
0001
0000
0010
0000
,
1000
0000
0100
0000
,
0020
0030
0000
0000
,
1000
1000
0000
0000
,
0001
0001
0000
0000
,
0100
0100
0000
0000
,
0010
0010
0000
0000
,
1000
0000
0001
0000
,
0100
0000
0010
0000
,
1000
0000
0001
0000
,
0100
0000
0010
0000
,
2000
3000
0000
0000
,
0001
0000
0000
0000
;

//---------------dance-single - ----------------
#NOTES:
     dance-single:
     :
     Easy:
     4:
     0.253,0.264,0.061,0.377,0.000:
0000
0000
0000
0000
,
0020
0000
0000
0030
,
0100
0100
0200
0300
,
0002
0000
0000
0003
,
1000
1000
2000
3000
,
0002
0000
0000
0003
,
1000
1000
0200
0300
,
0020
0000
0000
0030
,
0200
0000
0000
0300
,
0000
0000
0000
0000
,
1000
0001
2000
3000
,
0001
0001
0200
0300
,
0001
1000
0002
0003
,
1000
1000
0020
0030
,
1000
0100
0020
0030
,
0100
0100
2000
3000
,
0001
0100
0002
0003
,
2000
0000
0000
3000
,
0000
0000
0000
0000
,
1001
0000
0010
0000
,
0100
0100
0002
0003
,
1001
0000
0010
0000
,
0100
0100
2000
3000
,
0110
0000
0001
0000
,
0100
0100
0020
0030
,
0110
0000
1000
0000
,
0100
0100
0002
0003
,
1000
0000
0100
0000
,
0010
0000
0001
0000
,
0200
0000
0310
0000
,
0002
0000
1003
0000
,
1001
0000
0001
0000
,
1000
0000
0100
0000
,
0020
0000
1030
0000
,
0200
0000
0301
0000
,
1000
1000
1000
1000
,
1000
0000
0010
0000
,
0100
0100
0100
0100
,
0100
0000
0001
0000
,
2002
0000
0000
3003
,
0020
0000
0000
0030
,
0100
0100
0200
0300
,
0002
0000
0000
0003
,
0010
0010
0020
0030
,
2000
3000
0020
0030
,
0002
0003
0200
0300
,
0020
0030
2000
3000
,
0002
0000
0000
0003
,
0000
0000
0000
0000
,
0010
0100
0020
0030
,
1000
1000
1000
0100
,
1000
1000
2000
3000
,
0001
0001
0001
0100
,
0001
0001
0020
0030
,
0001
0001
1000
0001
,
1000
1000
0020
0030
,
0100
0100
0001
1000
,
0020
0000
0000
0030
,
1000
0000
0100
0000
,
0010
0000
0001
0100
,
0001
0000
0100
0000
,
0010
0000
1000
0001
,
1001
0000
0100
0000
,
0010
0000
0100
0001
,
1000
0000
0001
0000
,
1000
0001
0100
0010
,
2000
0000
0000
3000
,
0001
0000
0000
0000
;

//---------------dance-single - ----------------
#NOTES:
     dance-single:
     :
     Medium:
     7:
     0.351,0.382,0.088,0.421,0.013:
0000
0000
0000
0000
,
0200
0000
0000
0300
,
0001
0000
1000
0001
2000
0000
3000
0000
,
0020
0000
0000
0030
,
0100
0000
0001
0010
0002
0000
0003
0000
,
2000
0000
0000
3000
,
0100
0000
1000
0010
2000
0000
3000
0000
,
0020
0000
0000
0030
,
0200
0000
0000
0300
,
0000
0000
0000
0000
,
1000
0001
0100
0010
,
1000
0000
0100
1000
0200
0000
0300
0000
,
0010
0001
0100
0010
,
0100
0000
0001
1000
0002
0000
0003
0000
,
0010
0001
0010
1000
,
0010
0000
0001
0100
0020
0000
0030
0000
,
0100
0001
1000
0010
,
0200
0000
0000
0300
,
0000
0000
0000
0000
,
1000
0000
0100
0000
1000
0010
1000
0000
,
0001
0100
0001
0010
,
0001
0000
0100
0000
0001
1000
0001
0000
,
1000
0010
0100
0001
,
1000
0000
0001
0000
1000
0001
0100
0000
,
0001
1000
0010
1000
,
0001
0000
1000
0000
0001
1000
0100
0000
,
0010
0100
0010
0001
,
1001
0000
0100
0000
0010
0100
0020
0000
,
1030
0001
1000
0100
,
0020
0030
0200
0300
,
2000
3000
0002
0003
,
1001
0000
0100
0000
0010
0100
0002
0000
,
1003
0100
1000
0010
,
0200
0300
0002
0003
,
2000
3000
0020
0030
,
1000
0001
0100
0010
,
1000
0100
0010
0001
,
1000
0100
1000
0001
,
0100
0010
1000
0001
,
2002
0000
0000
3003
,
0020
0000
0000
0030
,
0100
0000
0001
0100
0002
0000
0003
0000
,
2000
0000
0000
3000
,
0001
0000
0010
0001
0020
0000
0030
0000
,
0002
0003
2000
3000
,
0020
0030
0200
0300
,
0001
1000
0020
0130
,
0220
0000
0000
0330
,
0100
0001
1000
1001
,
0010
0100
0010
0110
,
0010
1000
0010
0000
0200
0000
0000
0000
,
0301
0000
0000
0001
0000
0000
0001
0000
0020
0000
0000
0000
0030
0000
0000
0000
,
0001
0100
0001
0000
2000
0000
0000
0000
,
3100
0000
0000
0100
0000
0000
0100
0000
2000
0000
0000
0000
3010
0000
0000
0000
,
1000
0001
0100
0000
0002
0000
0000
0000
,
0013
0000
0000
0010
0000
0000
0010
0000
0200
0000
0000
0000
0300
0000
0000
0000
,
0010
0001
1000
0000
0010
0000
0100
0000
,
0220
0000
0000
0330
,
1000
0100
0010
0001
,
1000
0000
0100
0000
1000
0001
1000
0000
,
0001
0100
0010
1000
,
0001
0000
0100
0000
0001
0010
0001
0000
,
1001
0001
2000
3100
,
0010
0000
0100
0000
1000
0010
2000
0000
,
3001
0100
0001
0010
,
0001
0100
0002
0000
1003
0001
1000
0000
,
2002
0000
0000
3003
,
1001
0000
0000
0000
;

//---------------dance-single - ----------------
#NOTES:
     dance-single:
     :
     Hard:
     9:
     0.486,0.499,0.105,0.421,0.057: // measure 1
0000
0000
0000
0000
,  // measure 2
0001
0100
0010
0100
0002
0000
0000
0000
,  // measure 3
1003
0000
0000
1000
0000
0000
1000
0000
0020
0000
0000
0000
0000
0000
0000
0000
,  // measure 4
0130
0001
1000
0100
2000
0000
0000
0000
,  // measure 5
3001
0000
0000
0001
0000
0000
0100
0000
0001
0000
0000
0000
0012
0000
0000
0000
,  // measure 6
1003
0010
0100
0001
0200
0000
0000
0000
,  // measure 7
1300
0000
0000
0100
0000
0000
0010
0000
2000
0000
0000
0000
0000
0000
0000
0000
,  // measure 8
3010
0100
0001
1000
0002
0000
0013
0000
,  // measure 9
0220
0000
0000
0330
,  // measure 10
0000
0000
0000
0000
,  // measure 11
1000
0001
0100
0001
1000
0100
0010
0001
,  // measure 12
1000
0000
0000
1000
0000
0000
0100
0000
2000
0000
0000
0000
3000
0000
0000
0000
,  // measure 13
0001
0100
0010
1000
0010
0100
0001
1000
,  // measure 14
0001
0000
0000
0001
0000
0000
0010
0000
0002
0000
0000
0000
0103
0000
0000
0000
,  // measure 15
0010
0100
0001
1000
0010
1000
0001
0100
,  // measure 16
0010
0000
0000
0010
0000
0000
0100
0000
0020
0000
0000
0000
1030
0000
0000
0000
,  // measure 17
0001
0010
0100
1000
0200
0000
0310
0000
,  // measure 18
2200
0000
0000
3300
,  // measure 19
0000
0000
0000
0000
,  // measure 20
0010
0100
0010
0100
0010
0001
0010
0100
,  // measure 21
0010
1000
0010
0100
0010
0001
0010
0000
,  // measure 22
1000
0100
1000
0010
1000
0100
1000
0001
,  // measure 23
1000
0010
1000
0100
1000
0001
1000
0001
,  // measure 24
0100
0010
0100
1000
0100
0010
0100
0001
,  // measure 25
0100
0010
0100
0010
0100
1000
0100
0000
,  // measure 26
0001
0010
0001
1000
0001
0100
0001
1000
,  // measure 27
0001
0000
1001
0000
0010
0100
0002
0000
,  // measure 28
1003
0000
0100
0000
1000
0100
0020
0000
,  // measure 29
0130
0000
0001
0000
0100
0010
2000
0000
,  // measure 30
3010
0000
0100
0000
0001
1000
0002
0000
,  // measure 31
1003
0000
0010
0000
1000
0100
2000
0000
,  // measure 32
3001
0000
0100
0000
0001
0010
0002
0000
,  // measure 33
0103
0000
0010
0000
1000
0001
0200
0000
,  // measure 34
0301
0000
1000
0000
0001
0010
2000
0000
,  // measure 35
3010
0001
0100
0010
,  // measure 36
1001
1000
0001
0100
,  // measure 37
0010
1000
0001
0010
,  // measure 38
0100
0010
0001
0100
,  // measure 39
1000
0010
0001
1000
,  // measure 40
2002
0000
0000
3003
,  // measure 41
0020
0000
0000
0030
,  // measure 42
0100
0000
0000
0100
0000
0000
0100
0000
0002
0000
0000
0000
0003
0000
0000
0000
,  // measure 43
2000
0000
0000
3000
,  // measure 44
0001
0000
0000
0001
0000
0000
0001
0000
0020
0000
0000
0000
0031
0000
0000
0000
,  // measure 45
1000
0000
0000
0100
0000
0000
0010
0000
0200
0000
0000
0000
1300
0000
0000
0000
,  // measure 46
0001
0000
0000
0100
0000
0000
0010
0000
0020
0000
0000
0000
0030
0000
0000
0000
,  // measure 47
1000
0001
0100
0000
0002
0000
1003
0000
,  // measure 48
0001
1000
0010
0100
,  // measure 49
0001
1000
0001
1001
,  // measure 50
0010
0100
0010
0110
,  // measure 51
0010
1000
0010
0100
0010
0001
0010
1000
,  // measure 52
0001
0000
0000
0001
0000
0000
1000
0000
0002
0000
0000
0000
0103
0000
0000
0000
,  // measure 53
0001
0010
0001
0100
0001
0010
0001
1000
,  // measure 54
0010
0000
0000
0010
0000
0000
1000
0000
0020
0000
0000
0000
1030
0000
0000
0000
,  // measure 55
0100
0010
0100
1000
0100
0010
0100
0001
,  // measure 56
0100
0000
0000
1000
0000
0000
0010
0000
0200
0000
0000
0000
0301
0000
0000
0000
,  // measure 57
1000
0001
1000
0100
2000
0000
3010
0000
,  // measure 58
0220
0000
0000
0330
,  // measure 59
0010
1000
0001
0100
0002
0000
0013
0000
,  // measure 60
1000
0100
1000
0010
0200
0000
0301
0000
,  // measure 61
1000
0100
0010
0001
2000
0000
3100
0000
,  // measure 62
0010
0001
0100
1000
0200
0000
0310
0000
,  // measure 63
0001
0010
0100
1000
0002
0000
0103
0000
,  // measure 64
0010
1000
0001
0100
0020
0000
0031
0000
,  // measure 65
1000
0100
2000
0000
3100
0010
0200
0000
,  // measure 66
0301
0100
0001
0010
0100
0000
0110
0000
,  // measure 67
2002
0000
0000
3003
,  // measure 68
1001
0000
0000
0000
;

//---------------dance-single - ----------------
#NOTES:
     dance-single:
     :
     Challenge:
     13:
     0.650,0.646,0.263,0.237,0.368:
0000
0000
0000
0000
,
0101
0000
0001
0000
1000
0000
0010
0000
0200
0000
0000
0000
0310
1000
0010
0000
,
1000
0000
0000
1000
0100
0000
1000
0000
0001
0000
1000
0000
0001
0200
0000
0000
,
0310
0000
0100
0000
0001
0000
0010
0000
0002
0000
0000
0000
1003
0100
1000
0000
,
0010
0000
0000
0010
0100
0000
0001
0000
1000
0000
0000
0000
1001
0000
0000
0000
,
0110
0000
0100
0000
0010
0000
1000
0000
0002
0000
0000
0000
0013
0001
0010
0000
,
0100
0000
0000
0100
0010
0000
0001
0000
1000
0000
0100
0000
1000
0020
0000
0000
,
0130
0000
0001
0000
1000
0000
0001
0000
0100
0000
0000
0110
0000
0000
0010
0000
,
2000
0000
0000
3000
,
0001
1000
0000
0000
1001
0000
0000
0000
0001
0000
1000
0000
1001
0000
0000
0000
,
0010
0100
0001
0100
0001
0010
0100
1000
,
0100
0000
0000
0100
1000
0000
0001
0000
1000
0000
0100
0000
1000
0020
0000
0000
,
0130
0001
1000
0001
0010
0100
0010
0001
,
1000
0000
0000
1000
0010
0000
1000
0000
0001
0000
0000
0000
1001
0000
0000
0000
,
0010
0100
0001
0100
0010
1000
0100
0010
,
0100
0000
0000
0100
1000
0000
0001
0000
0010
0000
0100
0000
0010
0002
0000
0000
,
1003
0010
0100
0001
1000
0001
0100
0010
,
0200
0000
0000
0300
,
0000
0010
0000
0000
0110
0000
0000
0000
0010
0000
1000
0000
1001
0000
0000
0000
,
0001
0000
0010
0001
0000
0010
0001
0000
1000
0000
0100
1000
0000
0100
1000
0000
,
0010
0000
0100
0010
0000
0100
1000
0100
0000
0000
0001
0000
0100
0000
0001
0000
,
1000
0000
0010
1000
0000
0010
1000
0000
0001
0000
0100
0001
0000
0100
0001
0000
,
1000
0000
0100
1000
0000
0100
1000
0000
0100
0000
0010
0000
0001
0000
1000
0000
,
0010
0000
0100
0010
0000
0100
0010
0000
1000
0000
0001
1000
0000
0001
1000
0000
,
0001
0000
0010
0001
0000
0010
0100
0010
0000
0000
0001
0000
1000
0000
0010
0000
,
0100
0000
0001
0100
0000
0001
1000
0000
0001
0000
1000
0100
0000
1000
0001
0000
,
1000
0000
0000
1010
0000
0000
0100
0000
0010
0000
1000
0000
0001
0000
1000
0000
,
1001
0000
0001
0100
0001
0010
0200
0000
,
0310
0000
0001
1000
0100
1000
0010
0100
,
0002
0000
0013
0001
0020
0000
0130
0000
,
2000
0000
3100
1000
0020
0000
0130
0000
,
1001
0000
1000
0100
0010
0100
2000
0000
,
3001
0000
0100
0001
0100
0010
0100
0001
,
0020
0000
0031
0010
0200
0000
1300
0100
,
0000
1000
0001
0000
0110
0000
1001
0000
,
1010
0010
1000
0000
0001
0100
0001
0000
,
0010
0001
0100
0000
0001
0010
0001
0000
,
1000
0100
0010
0000
0100
1000
0010
0000
,
0100
0001
1000
0010
0100
0001
1000
0000
,
2002
0000
0000
3003
,
0020
0000
0000
0030
,
0100
0000
0000
0100
0001
0000
0100
0000
0002
0000
0000
0000
0003
0000
0000
0000
,
2000
0000
0000
3000
,
0001
0000
0000
0001
0010
0000
0001
0000
1000
0000
0000
0000
1001
0000
0000
0000
,
0010
0000
0100
0000
0001
0000
0100
0000
0002
0000
0000
0000
1003
0100
1000
0000
,
0010
0000
0000
0110
0000
0000
1000
0000
0001
0000
0100
0000
0001
2000
0000
0000
,
3010
1000
0001
0010
0200
0000
0310
0001
,
0100
0000
0001
0000
1001
0000
0000
0000
0001
0000
0000
1001
0000
0000
0110
0000
,
0010
0000
1000
0000
0100
0000
0000
0000
1100
0000
1000
0000
0001
0000
0100
0001
,
0000
0110
0000
0000
1001
0000
0000
0000
0001
0000
0010
0000
0110
0000
0000
0000
,
0010
0000
0001
0000
0100
0000
0010
0000
1000
0000
0001
0000
1000
0100
1000
0000
,
0010
0000
0000
0010
0100
0000
0001
0000
1000
0000
0001
0000
0010
0001
0000
0001
,
0010
0000
0100
0000
0010
0000
0001
0000
1000
0000
0100
0000
1000
0010
1000
0000
,
0001
0000
0000
0001
0100
0000
0001
0000
0010
0000
0000
0000
0110
0000
0000
0000
,
0001
0000
0100
0000
0010
0000
1000
0000
0010
0000
0100
0000
0001
1000
0001
0000
,
1000
0000
0000
1000
0100
0000
1000
0000
0010
0000
0100
0000
0001
1000
0000
1000
,
0001
1000
0100
0010
0200
0000
1300
0010
,
2000
0000
0000
3000
,
0001
0000
0100
0001
0000
0100
0001
0000
1000
0000
0100
1000
0000
0100
1000
0000
,
0010
0000
0100
0010
0100
0000
0001
1000
0000
1000
0001
0000
1000
0000
0001
0000
,
0100
0000
0001
0100
0000
0001
0100
0000
0001
0000
0010
0001
0000
0010
0001
0000
,
1000
0000
0000
0101
0000
0000
1000
0000
0001
0000
0010
0000
0100
0000
0010
0000
,
1001
0000
0001
1000
0000
0010
0100
0000
0001
0000
1000
0001
0000
0010
0100
0000
,
0010
0000
0001
0100
0000
0010
1000
0010
0000
0100
0001
0000
0100
0000
0001
0000
,
1000
0000
0100
0010
0000
0100
1000
0000
0001
0000
0100
0010
0000
0100
0001
0000
,
1000
0000
0000
1001
0000
0000
0100
0000
0001
0000
1000
0000
0100
0000
0010
0000
,
0100
1000
0010
0001
0010
1000
0100
0001
,
1100
0000
0000
0000
;
