#TITLE:Kung-fu Empire;
#SUBTITLE:;
#ARTIST:飛燕流舞;
#TITLETRANSLIT:;
#SUBTITLETRANSLIT:;
#ARTISTTRANSLIT:HIEN RYUBU;
#GENRE:;
#CREDIT:;
#MENUCOLOR:;
#NEWMETERSYSTEM:NO;
#BANNER:Kung-fu Empire.png;
#BACKGROUND:Kung-fu Empire-bg.png;
#LYRICSPATH:;
#CDTITLE:./CDTITLES/BEATMANIA IIDX.PNG;
#MUSIC:Kung-fu Empire.mp3;
#OFFSET:-0.499;
#SAMPLESTART:89.978;
#SAMPLELENGTH:15.000;
#SELECTABLE:YES;
#LISTSORT:;
#BPMS:0.000=177.000;
#STOPS:;
#BGCHANGES:0.000=Kung-fu Empire.avi=1.000=1=1=0,
99999=-nosongbg-=1.000=0=0=0 // don't automatically add -songbackground-
;
#ATTACKS:;

//---------------dance-single - ----------------
#NOTES:
     dance-single:
     :
     Beginner:
     4:
     0.167,0.242,0.069,0.000,0.000:
1000
0000
0000
0000
,
0100
0000
0000
0000
,
0100
0000
0000
0000
,
1000
0000
0010
0000
,
1001
0000
0000
0000
,
0001
0000
0100
0000
,
0010
0000
0000
0000
,
0100
0000
0001
0000
,
1000
0000
0000
0000
,
0001
0000
0000
0000
,
0010
0000
0000
0000
,
0001
0000
0100
0000
,
0001
0000
0000
0000
,
1000
0000
0000
0000
,
0010
0000
0000
0000
,
0100
0000
0000
0000
,
0010
0000
0010
0000
,
0100
0000
0100
0000
,
0001
0000
0001
0000
,
1000
0000
1000
0000
,
0100
0000
0100
0000
,
1000
0000
1000
0000
,
0010
0000
0010
0000
,
0001
0000
0001
0000
,
0000
1000
0000
1000
,
1000
0000
0000
0000
,
0000
0001
0000
0001
,
0001
0000
0000
0000
,
0000
0100
0000
0100
,
0000
0100
0000
0100
,
0000
0000
0000
0000
,
0100
0000
0100
0000
,
0010
0000
0010
0000
,
1000
0000
1000
0000
,
0001
0000
0001
0000
,
0100
0000
0001
0000
,
0100
0000
0000
0000
,
0010
0000
0010
0000
,
0001
0000
1000
0000
,
0100
0000
1000
0000
,
0001
0000
0001
0000
,
0000
0000
1000
0000
,
1000
0000
0100
0000
,
1000
0000
0010
0000
,
1000
0000
0000
0000
,
0001
0000
0001
0000
,
0001
0000
0001
0000
,
0001
0000
0100
0000
,
0001
0000
0000
0000
,
0010
0000
0000
0000
,
0001
0000
0000
0000
,
1000
0000
0100
0000
,
1000
0000
0000
0000
,
0010
0000
0100
0000
,
0001
0000
0000
0000
,
1000
0000
0001
0000
,
1001
0000
0000
0000
,
0110
0000
0000
0000
,
1001
0000
0000
0000
,
0000
0000
0000
0000
,
1001
0000
0000
0000
,
0110
0000
0000
0000
,
1001
0000
0000
0000
,
1000
1000
1000
1000
,
1000
0000
0000
0000
,
0000
0000
0000
0000
,
0000
0001
0000
0001
,
0000
0100
0000
0100
,
0000
0001
0000
0001
,
0000
0010
0000
0010
,
0000
0001
0000
1000
,
0000
0001
0000
1000
,
0000
0010
0000
0100
,
0000
0010
0000
0100
,
0000
1001
0000
1000
,
0000
0100
0000
1000
,
0000
0001
0000
0010
,
0000
0001
0000
0100
,
0000
0001
0000
1000
,
0000
0001
0000
1000
,
0000
0010
0000
0100
,
0100
0000
0010
0000
,
1000
0000
0000
0000
,
0001
0000
0000
0000
,
0010
0000
0000
0000
,
0100
0000
0000
0000
,
1001
0000
0000
0000
,
0010
0000
0000
0000
,
0100
0000
0000
0000
,
0001
0001
0001
0001
,
0001
0000
0000
0000
;

//---------------dance-single - ----------------
#NOTES:
     dance-single:
     :
     Easy:
     8:
     0.440,0.454,0.208,0.223,0.000:
0110
0001
1000
0100
,
1000
0100
1000
1000
,
0001
0100
0001
0010
,
0001
0100
0010
2000
,
3001
0010
0001
1000
,
0100
1000
0001
1001
,
0010
0100
0001
1000
,
0100
0000
0010
0000
0100
0000
1000
0100
,
0000
0000
1000
0000
0001
0000
0100
0001
,
0000
0000
0010
0000
0001
0000
1000
0010
,
0000
0100
0001
1000
,
0001
0000
1000
0000
0010
0000
0100
0010
,
0000
0000
0100
0000
0001
0000
0010
0001
,
0000
0000
1000
0000
0100
0000
0010
1000
,
0000
0010
0001
1000
,
0010
0000
0100
0000
1001
0000
0100
0010
,
0000
0000
1000
0000
0001
0000
1000
0100
,
0000
0000
0010
0000
0001
0000
0100
0010
,
0000
0100
0001
1000
,
0001
0000
0100
0000
1000
0000
0100
0001
,
0000
0000
0100
0000
0010
0000
1000
0100
,
0000
0000
1000
0000
0001
0000
0010
0001
,
0000
1000
0010
0100
,
0001
1000
0001
1001
,
0010
0100
0100
0100
,
0001
0001
0001
0000
1000
1000
1000
0000
,
0100
0010
0010
0010
,
0001
0001
0001
0000
0100
0100
0100
0000
,
0002
1000
0000
1000
,
0000
1000
0000
0100
,
0000
0000
0000
0100
0000
0000
0103
0000
,
0010
1000
0001
0100
,
1001
0010
0100
0002
,
0003
0001
0100
0001
,
1000
0100
0010
0100
,
1000
0010
1000
0001
,
1000
0100
0010
0100
,
1000
0100
2000
0001
,
0100
0001
0100
3001
,
0010
0001
0100
0010
,
0110
0001
1000
0020
,
0030
0010
1000
0100
,
1000
0001
0010
0001
,
0100
0010
1000
0010
,
0100
0001
1000
0010
,
1000
0001
0100
0002
,
0010
1000
0100
1000
,
0010
1000
0100
1003
,
1001
0000
0100
0000
0001
0100
0000
1000
,
0100
0000
0001
0100
0000
1000
0100
0000
,
1000
0000
0010
0000
0001
0010
0000
1000
,
0010
0100
0001
1000
,
1001
0000
0100
0000
0010
1000
0000
0010
,
0001
0000
0010
1000
0000
0010
0001
0000
,
0100
0000
0001
0000
1000
0100
0000
0001
,
0100
1000
0001
0100
,
0110
0000
0000
1010
0000
0000
0100
0000
,
0101
0000
0000
0011
0000
0000
1000
0000
,
1001
0001
0100
0010
,
0100
0001
1000
0100
,
1100
0000
0000
0011
0000
0000
1000
0000
,
1001
0000
0000
0110
0000
0000
0100
0000
,
1001
0010
0001
1000
,
0100
1000
0010
0100
,
0220
0000
0000
0330
,
0000
0000
1001
0110
,
2000
0000
3002
0000
0103
0100
0200
0000
,
0300
0010
1000
0001
,
2000
0000
0000
3100
0100
0000
0000
0000
,
1000
0010
0100
0001
,
0200
0000
0320
0000
1030
1000
2000
0000
,
3000
0001
0010
0001
,
0200
0300
0000
0000
,
0010
1000
0001
1000
,
2001
0000
3200
0000
0310
0010
0020
0000
,
0030
0001
0010
0100
,
0020
0000
0000
0031
0001
0000
0000
0000
,
1000
0010
0100
0001
,
2100
0000
3100
0000
1000
1000
0020
0000
,
0030
0100
0001
1000
,
0002
0100
0000
0103
,
0010
1000
0001
0100
,
1001
0010
2000
3000
,
0000
0010
0001
0010
,
0200
0300
0002
0003
,
1000
0000
0100
0000
0010
0010
0100
0000
,
1001
0010
0002
0003
,
0000
0000
1000
0000
0100
0100
0010
0000
,
0001
0100
0010
1000
,
0001
1000
0010
0110
,
2002
0000
0000
3003
;

//---------------dance-single - ----------------
#NOTES:
     dance-single:
     :
     Medium:
     11:
     0.599,0.593,0.308,0.384,0.000:
1001
0000
0100
0010
0000
0100
0010
0000
,
1000
0000
0100
0000
0010
0001
0100
0001
,
1000
0000
0001
0100
0000
0001
0100
0000
,
0010
1000
0000
1000
0001
0000
1001
0000
,
1100
0000
0100
0010
0000
0100
1000
0000
,
0001
0000
0100
0000
0010
0100
0001
0100
,
0001
0000
1000
0001
0000
0010
0100
0000
,
0010
0000
0001
0000
1000
0100
0010
0000
,
1100
0000
0100
1000
0000
1000
0001
0000
,
0100
0000
0001
0010
0000
0010
0001
0000
,
1000
0000
0010
0100
0000
0100
0010
0000
,
1000
0000
0100
0000
0010
0000
0001
1000
,
0001
0000
0100
0010
0000
0100
0001
0000
,
1000
0000
0100
0010
0000
0100
1000
0000
,
0001
0000
0100
0001
0000
1000
0010
0000
,
0100
0000
0010
0000
1000
0001
0100
0000
,
1001
0000
0000
1010
0000
0000
0100
0000
,
0101
0000
0000
0011
0000
0000
0001
0000
,
1001
0000
0000
0110
0000
0000
0010
0000
,
0100
0001
1000
0001
,
1001
0000
0000
0110
0000
0000
0100
0000
,
1001
0000
0000
1100
0000
0000
0001
0000
,
1001
0000
0000
0011
0000
0000
1000
0000
,
0100
0000
0010
0000
0100
1000
0100
0000
,
1000
0000
0001
0100
0000
0100
0001
0000
,
0100
0100
0100
0000
0010
0010
0010
0000
,
1000
0000
0001
1000
0000
1000
0001
0000
,
1000
1000
1000
0000
0100
0100
0100
0000
,
2000
0100
0001
0100
,
0010
0001
0010
0001
,
0100
0000
0000
0001
0000
0000
3001
0000
,
1001
0000
0100
0000
0010
0010
0010
0000
,
2000
0000
3002
0000
1003
0001
1000
0000
,
0001
0100
0020
0000
0130
0000
0010
0100
,
0001
0000
1000
0100
0010
0000
0100
1000
,
0001
0000
0100
0001
0100
0000
0010
1000
,
0020
1000
0100
0031
,
1000
0100
0010
0100
1000
0000
0100
0010
,
0100
0000
1000
0100
1000
0000
0001
0100
,
0010
0100
0001
0000
1000
0000
1001
0000
,
0002
0000
2003
0000
3010
1000
0020
0000
,
0130
0001
0100
0000
0110
0000
0100
0010
,
1000
0000
1000
0001
0010
0000
0010
0001
,
1000
0000
0010
0100
0001
0000
0100
0010
,
0200
0010
1000
0310
,
0100
0001
0100
0000
0101
0000
0001
1000
,
0100
0000
1000
0001
0010
0000
0001
1000
,
0100
1000
0010
0100
0001
0000
1100
0000
,
0001
0010
0001
0100
0010
0010
0000
1000
,
0100
0000
1000
0001
0000
1000
0010
1000
,
0000
0010
0100
0001
0100
0100
0010
1000
,
0002
0023
0230
2300
,
3100
1000
0010
0100
0010
0010
0000
1000
,
0100
1000
0001
0001
0000
0100
0001
0010
,
0001
1000
0001
0100
0010
0010
0000
1000
,
0010
1000
0001
0001
0000
1000
0100
1000
,
0100
0000
0000
1100
0000
0000
0010
0000
,
0110
0000
0000
1001
0000
0000
0001
0000
,
0011
0000
0000
0101
0000
0000
0001
0100
,
0001
0110
2200
3300
,
1001
0000
0000
0110
0000
0000
1100
0000
,
0101
0000
0000
0011
0000
0000
1010
0000
,
1001
0000
0000
1001
0000
0000
0100
0000
,
0001
1000
0001
0000
0010
0100
0010
0000
,
2002
0000
0000
3003
,
0000
0000
0110
1001
,
0002
0000
0203
0000
0310
0010
0020
0000
,
1030
0100
1000
0000
0001
0100
0001
0000
,
0200
0000
0310
1000
0002
0000
1003
0000
,
1000
0100
0010
0000
0100
1000
0100
0000
,
2000
0000
3002
0000
0103
0100
0200
0000
,
0310
1000
0002
0000
1003
0010
2000
0000
,
3002
0100
0010
1003
,
1000
0100
1000
0100
0001
0100
0001
0100
,
2000
0000
3200
0000
1300
1000
2000
0000
,
3001
0100
0002
0000
0103
0010
0200
0000
,
0320
0000
1030
0001
2000
0000
3001
0000
,
1000
0100
0010
0000
0001
0100
1000
0000
,
0200
0000
0302
0000
0013
0010
0020
0000
,
0031
1000
0002
0000
1003
0010
2000
0000
,
3010
0100
0001
1000
,
0001
0010
0100
1000
0001
0010
0100
1000
,
0200
0000
1300
0001
2000
0000
3001
0000
,
0100
0010
0100
0000
0001
1000
0001
0000
,
0020
0000
0031
0010
0002
0000
0013
0000
,
0001
0100
1000
0000
0001
0010
1000
0000
,
0020
0000
0130
0001
2000
0000
3001
0000
,
1000
0100
1000
0010
1000
0001
1000
0000
,
0200
1000
0010
0301
,
2000
0000
3100
0000
0010
0001
0001
0001
,
2002
0000
0000
3003
;

//---------------dance-single - ----------------
#NOTES:
     dance-single:
     :
     Hard:
     13:
     0.690,0.768,0.284,0.177,0.138: // measure 1
1001
0000
0001
0100
0000
0010
1000
0001
,  // measure 2
1000
0000
0100
0010
0000
0001
0010
0100
,  // measure 3
1000
0000
0010
0100
0000
0001
1000
0010
,  // measure 4
1000
0001
0000
0001
0100
0000
0110
0000
,  // measure 5
1001
0000
0001
0010
0000
0010
0001
1000
,  // measure 6
0010
0000
0000
0100
0000
0000
0000
0000
0000
0001
0000
0000
0100
0000
0000
0000
0001
0000
1000
0000
0000
0000
0010
0000
,  // measure 7
0100
0000
0010
1000
0000
1000
0010
0000
,  // measure 8
0100
0001
1000
0001
0010
0100
1000
0010
,  // measure 9
0100
0000
0001
1000
0000
1000
0001
0010
,  // measure 10
0100
0000
0010
0001
0000
1000
0100
0010
,  // measure 11
0001
0000
1000
0010
0000
0010
1000
0001
,  // measure 12
0100
0001
0000
0001
1000
0010
0100
0001
,  // measure 13
0010
0000
0100
0010
0000
0001
0100
0010
,  // measure 14
1000
0000
0100
1000
0000
0001
1000
0010
,  // measure 15
0100
0000
0010
1000
0000
0001
0100
0001
,  // measure 16
1000
0100
0001
0100
1000
0010
0001
0010
,  // measure 17
1000
0000
0000
1010
0000
0000
0001
0000
,  // measure 18
0101
0000
0000
1001
0000
0000
0010
0100
,  // measure 19
0110
0000
0000
1001
0000
0000
1000
0000
,  // measure 20
1100
0000
0000
0001
1000
0010
1000
0001
,  // measure 21
0100
0000
0000
0011
0000
0000
1000
0000
,  // measure 22
1100
0000
0000
0110
0000
0000
0010
1000
,  // measure 23
0001
0000
0000
1001
0000
0000
0001
0000
,  // measure 24
0100
0001
1000
0010
0100
0001
1000
0010
,  // measure 25
1000
0100
0010
0001
0000
1000
0100
1000
,  // measure 26
0010
0010
0100
0100
0001
0001
1000
1000
,  // measure 27
0001
0010
0100
1000
0000
0001
0010
0100
,  // measure 28
0010
0010
0001
0001
1000
1000
0010
0010
,  // measure 29
0100
0010
1010
0000
0010
0100
0101
0000
,  // measure 30
1000
0100
1100
0000
0001
0010
0101
0000
,  // measure 31
1000
0001
0100
0110
0000
0000
0110
0000
,  // measure 32
0010
1000
0001
0100
0001
0010
0100
1000
,  // measure 33
0001
0000
0100
0001
0100
0000
0010
1000
0010
0000
1000
0001
2000
0000
0000
0000
,  // measure 34
0000
0000
3001
0010
0001
0000
0010
0000
0100
0000
0000
0000
1000
0000
0001
0000
,  // measure 35
0100
0010
1000
0010
0100
0001
1000
0100
,  // measure 36
0001
0100
1000
0010
0001
0010
1000
0001
,  // measure 37
2000
0010
0100
3001
,  // measure 38
1000
0100
0010
0001
1000
0000
0001
0100
,  // measure 39
0010
1000
0001
1000
0010
1000
0001
0100
,  // measure 40
0010
1000
0100
0001
0100
1000
0010
1000
,  // measure 41
0001
0000
1000
0001
1000
0000
0010
0100
0010
0000
0001
0010
0002
0000
0000
0000
,  // measure 42
0000
0000
1003
0100
1000
0000
0010
0000
1000
0000
0000
0000
0001
0000
0100
0000
,  // measure 43
0010
0000
1000
0000
0001
0000
1000
0000
0100
0000
0010
0000
0001
0000
1000
0100
,  // measure 44
1000
0010
0100
0001
1000
0010
1000
0001
,  // measure 45
1002
0010
0100
1003
,  // measure 46
0001
0010
0100
1000
0001
0000
0001
0100
,  // measure 47
0010
1000
0010
0100
0001
1000
0100
0001
,  // measure 48
0100
1000
0010
0001
0010
1000
0001
1000
,  // measure 49
0001
0000
1000
0001
1000
0000
0001
0000
0100
0010
0100
0000
0000
0000
0010
1000
,  // measure 50
0010
0000
1000
0000
0001
0100
0001
0000
0000
0000
1000
0000
0100
0000
0010
0000
,  // measure 51
0001
0000
1000
0100
1000
0000
0010
0000
0100
0001
0100
0000
0010
0000
1000
0000
,  // measure 52
0001
0010
1000
0010
0002
0000
0003
0000
,  // measure 53
1000
0000
0100
0010
0100
0000
1000
0000
0001
1000
0001
0000
0000
0000
1000
0000
,  // measure 54
0010
0000
0100
0000
0001
1000
0001
0000
0000
0000
1000
0000
0100
0000
1000
0000
,  // measure 55
0001
0000
0100
0010
0100
0000
0001
0000
1000
0010
1000
0000
0010
0000
0100
0001
,  // measure 56
0100
0000
0001
0000
1000
0001
1000
0000
0010
0000
1000
0000
0001
0000
0100
0000
,  // measure 57
1001
0000
1000
0001
0010
0000
0011
0000
,  // measure 58
0101
0000
0001
1000
0010
0000
1010
0000
,  // measure 59
2100
0000
0000
0001
0000
0000
3010
0100
,  // measure 60
0001
1000
0010
1000
0200
0000
0300
0000
,  // measure 61
0110
0000
0010
1000
0001
0000
1000
0000
,  // measure 62
1100
0000
0001
0010
0100
0000
0011
0000
,  // measure 63
1002
0000
0000
0010
0000
0000
1003
0000
,  // measure 64
0101
1010
1100
1001
,  // measure 65
0220
0000
0000
0330
,  // measure 66
0000
0000
1001
0110
,  // measure 67
0010
0000
0000
0010
1000
0000
0000
1000
0001
0000
0100
0000
0001
0000
0000
0000
,  // measure 68
0001
0010
0100
1000
0010
0100
0001
1000
,  // measure 69
0002
0000
0000
0000
0000
0000
1003
0001
1000
0000
0000
0000
0010
0000
0000
0000
,  // measure 70
0100
0001
1000
0010
0100
0001
1000
0010
,  // measure 71
0100
0000
0000
0100
0001
0000
0000
0001
1000
0000
0010
0000
0100
0000
0000
0000
,  // measure 72
0010
1000
0100
0001
0100
1000
0010
0001
,  // measure 73
0020
0000
0000
0030
,  // measure 74
1000
0100
0010
0001
1000
0100
0010
0100
,  // measure 75
1000
0000
0000
1000
0100
0000
0000
0100
0010
0000
0001
0000
0100
0000
0000
0000
,  // measure 76
0001
0100
0010
1000
0001
0010
0001
1000
,  // measure 77
0020
0000
0000
0000
0000
0000
0130
0010
0100
0000
0000
0000
0001
0000
0000
0000
,  // measure 78
1000
0100
0001
0100
1000
0001
0100
0010
,  // measure 79
1000
0000
0000
0010
1000
0000
0000
0001
0100
0000
0001
0000
0010
0000
0000
0000
,  // measure 80
0100
0010
0001
1000
0100
1000
0010
0100
,  // measure 81
0002
0010
0100
1003
,  // measure 82
1000
0001
0100
0001
0010
0001
1000
0001
,  // measure 83
0200
0000
0000
0000
0310
0000
0000
0010
2000
0000
0000
0000
3001
0000
0000
0000
,  // measure 84
0000
0000
1000
0010
0100
0001
1000
0001
,  // measure 85
0020
0001
0100
1030
,  // measure 86
2000
0100
0001
3010
,  // measure 87
0120
0000
0000
0000
1030
0000
0000
1000
0002
0000
0000
0000
1003
0000
0000
0000
,  // measure 88
0000
0000
0001
0010
0100
1000
0010
0100
,  // measure 89
0002
0000
1003
0000
0010
0100
0001
0000
,  // measure 90
2000
0000
3001
0000
0100
0010
1000
0010
,  // measure 91
0200
0000
0000
0300
;

//---------------dance-single - ----------------
#NOTES:
     dance-single:
     :
     Challenge:
     14:
     0.677,0.768,0.261,0.177,0.138:
1001
0000
0001
0100
MMMM
0010
1000
0001
,
1000
0000
0100
0010
MMMM
0001
0010
0100
,
1000
0000
0010
0100
MMMM
0001
1000
0010
,
1000
0001
MMMM
0001
0100
0000
0110
0000
,
1001
0000
0001
0010
MMMM
0010
0001
1000
,
0010
0000
0000
0100
0000
0000
MMMM
0000
0000
0001
0000
0000
0100
0000
0000
0000
0001
0000
1000
0000
0000
0000
0010
0000
,
0100
0000
0010
1000
MMMM
1000
0010
0000
,
0100
0001
1000
0001
0010
0100
1000
0010
,
0100
0000
0001
1000
MMMM
1000
0001
0010
,
0100
0000
0010
0001
MMMM
1000
0100
0010
,
0001
0000
1000
0010
MMMM
0010
1000
0001
,
0100
0001
MMMM
0001
1000
0010
0100
0001
,
0010
0000
0100
0010
MMMM
0001
0100
0010
,
1000
0000
0100
1000
MMMM
0001
1000
0010
,
0100
0000
0010
1000
MMMM
0001
0100
0001
,
1000
0100
0001
0100
1000
0010
0001
0010
,
1000
0000
0000
1010
MMMM
0000
0001
0000
,
0101
0000
0000
1001
MMMM
0000
0010
0100
,
0110
0000
0000
1001
MMMM
0000
1000
0000
,
1100
0000
0000
0001
1000
0010
1000
0001
,
0100
0000
0000
0011
MMMM
0000
1000
0000
,
1100
0000
0000
0110
MMMM
0000
0010
1000
,
0001
0000
0000
1001
MMMM
0000
0001
0000
,
0100
0001
1000
0010
0100
0001
1000
0010
,
1000
0100
0010
0001
MMMM
1000
0100
1000
,
0010
0010
0100
0100
0001
0001
1000
1000
,
0001
0010
0100
1000
MMMM
0001
0010
0100
,
0010
0010
0001
0001
1000
1000
0010
0010
,
0100
0010
1010
0000
0010
0100
0101
0000
,
1000
0100
1100
0000
0001
0010
0101
0000
,
1000
0001
0100
0110
MMMM
0000
0110
0000
,
0010
1000
0001
0100
0001
0010
0100
1000
,
0001
0000
0100
0001
0100
0000
0010
1000
0010
0000
1000
0001
2000
0000
0000
0000
,
0000
0000
3001
0010
0001
0000
0010
0000
0100
0000
MMMM
0000
1000
0000
0001
0000
,
0100
0010
1000
0010
0100
0001
1000
0100
,
0001
0100
1000
0010
0001
0010
1000
0001
,
2000
0010
0100
3001
,
1000
0100
0010
0001
1000
MMMM
0001
0100
,
0010
1000
0001
1000
0010
1000
0001
0100
,
0010
1000
0100
0001
0100
1000
0010
1000
,
0001
0000
1000
0001
1000
0000
0010
0100
0010
0000
0001
0010
0002
0000
0000
0000
,
0000
0000
1003
0100
1000
0000
0010
0000
1000
0000
MMMM
0000
0001
0000
0100
0000
,
0010
0000
1000
0000
0001
0000
1000
0000
0100
0000
0010
0000
0001
0000
1000
0100
,
1000
0010
0100
0001
1000
0010
1000
0001
,
1002
0010
0100
1003
,
0001
0010
0100
1000
0001
MMMM
0001
0100
,
0010
1000
0010
0100
0001
1000
0100
0001
,
0100
1000
0010
0001
0010
1000
0001
1000
,
0001
0000
1000
0001
1000
0000
0001
0000
0100
0010
0100
0000
MMMM
0000
0010
1000
,
0010
0000
1000
0000
0001
0100
0001
0000
MMMM
0000
1000
0000
0100
0000
0010
0000
,
0001
0000
1000
0100
1000
0000
0010
0000
0100
0001
0100
0000
0010
0000
1000
0000
,
0001
0010
1000
0010
0002
0000
0003
0000
,
1000
0000
0100
0010
0100
0000
1000
0000
0001
1000
0001
0000
MMMM
0000
1000
0000
,
0010
0000
0100
0000
0001
1000
0001
0000
MMMM
0000
1000
0000
0100
0000
1000
0000
,
0001
0000
0100
0010
0100
0000
0001
0000
1000
0010
1000
0000
0010
0000
0100
0001
,
0100
0000
0001
0000
1000
0001
1000
0000
0010
0000
1000
0000
0001
0000
0100
0000
,
1001
0000
1000
0001
0010
0000
MMMM
0000
,
0101
0000
0001
1000
0010
0000
MMMM
0000
,
2100
0000
0000
0001
0000
0000
3010
0100
,
0001
1000
0010
1000
0200
0000
0300
0000
,
0110
0000
0010
1000
0001
0000
MMMM
0000
,
1100
0000
0001
0010
0100
0000
MMMM
0000
,
1002
0000
0000
0010
0000
0000
1003
0000
,
0101
1010
1100
1001
,
0220
0000
0000
0330
,
MMMM
0000
1001
0110
,
0010
0000
0000
0010
1000
0000
0000
1000
0001
0000
0100
0000
0001
0000
0000
0000
,
0001
0010
0100
1000
0010
0100
0001
1000
,
0002
0000
0000
0000
0000
0000
1003
0001
1000
0000
0000
0000
MMMM
0000
0000
0000
,
0100
0001
1000
0010
0100
0001
1000
0010
,
0100
0000
0000
0100
0001
0000
0000
0001
1000
0000
0010
0000
0100
0000
0000
0000
,
0010
1000
0100
0001
0100
1000
0010
0001
,
0020
0000
0030
MMMM
,
1000
0100
0010
0001
1000
0100
0010
0100
,
1000
0000
0000
1000
0100
0000
0000
0100
0010
0000
0001
0000
0100
0000
0000
0000
,
0001
0100
0010
1000
0001
0010
0001
1000
,
0020
0000
0000
0000
0000
0000
0130
0010
0100
0000
0000
0000
MMMM
0000
0000
0000
,
1000
0100
0001
0100
1000
0001
0100
0010
,
1000
0000
0000
0010
1000
0000
0000
0001
0100
0000
0001
0000
0010
0000
0000
0000
,
0100
0010
0001
1000
0100
1000
0010
0100
,
0002
0010
0100
1003
,
1000
0001
0100
0001
0010
0001
1000
0001
,
0200
0000
0000
0000
0310
0000
0000
0010
2000
0000
0000
0000
3001
0000
0000
0000
,
MMMM
0000
1000
0010
0100
0001
1000
0001
,
0020
0001
0130
MMMM
,
2000
0100
3001
MMMM
,
0120
0000
0000
0000
1030
0000
0000
1000
0002
0000
0000
0000
1003
0000
0000
0000
,
MMMM
0000
0001
0010
0100
1000
0010
0100
,
0002
0000
1003
0000
0010
0100
0001
0000
,
2000
0000
3001
0000
0100
0010
MMMM
0010
,
0200
0000
0000
0300
;
