#TITLE:覚醒;
#SUBTITLE:;
#ARTIST:THE BACK HORN;
#TITLETRANSLIT:KAKUSEI;
#SUBTITLETRANSLIT:;
#ARTISTTRANSLIT:;
#GENRE:;
#CREDIT:;
#MENUCOLOR:;
#NEWMETERSYSTEM:NO;
#BANNER:KAKUSEI.png;
#BACKGROUND:KAKUSEI-bg.png;
#LYRICSPATH:;
#CDTITLE:./CDTITLES/NONE.PNG;
#MUSIC:KAKUSEI.mp3;
#OFFSET:-0.279;
#SAMPLESTART:55.762;
#SAMPLELENGTH:15.000;
#SELECTABLE:YES;
#LISTSORT:;
#BPMS:0.000=173.000;
#STOPS:;
#BGCHANGES:0.000=KAKUSEI.avi=1.000=1=1=0,
99999=-nosongbg-=1.000=0=0=0 // don't automatically add -songbackground-
;
#ATTACKS:;

//---------------dance-single - ----------------
#NOTES:
     dance-single:
     :
     Beginner:
     2:
     0.112,0.161,0.009,0.000,0.000:
0000
0000
0000
0000
,
0000
0000
0000
0000
,
0000
0000
0000
0000
,
0000
0000
0000
0000
,
1000
0000
0000
0000
,
0100
0100
0000
0000
,
0001
0000
0000
0000
,
0100
0100
0000
0000
,
0010
0000
0000
0000
,
0100
0000
0000
0000
,
0001
0000
0000
0000
,
1000
0000
0000
0000
,
0010
0000
0000
0000
,
0100
0000
0000
0000
,
1000
0000
0000
0000
,
0010
0000
0001
0000
,
0100
0000
0000
0000
,
0001
0000
0000
0000
,
1000
0000
0000
0000
,
0100
0000
0000
0000
,
0000
1000
0000
1000
,
0000
1000
0000
1000
,
0000
1000
0000
1000
,
0000
1000
0000
1000
,
0000
0000
0000
0000
,
0001
0000
0000
0000
,
0100
0000
0000
0000
,
0010
0000
0000
0000
,
0000
0100
0000
0100
,
0000
0100
0000
0100
,
0000
0100
0000
0100
,
0000
0100
0100
0000
,
0010
0000
0000
0000
,
0001
0000
0000
0000
,
1000
0000
0000
0000
,
0100
0000
0000
0000
,
0001
0000
0000
0000
,
0010
0000
0000
0000
,
0100
0000
0000
0000
,
0001
0000
0001
0001
,
0001
0000
0000
0000
,
1000
0000
0000
0000
,
0100
0000
0000
0000
,
1000
0000
0000
0000
,
0010
0000
0000
0000
,
0100
0000
0000
0000
,
0001
0000
0000
0000
,
1000
0000
0001
0000
,
1001
0000
0000
0000
,
1000
0000
0000
0000
,
0001
0000
0000
0000
,
0100
0000
0000
0000
,
0010
0000
0000
0000
,
0100
0000
0001
0000
,
1000
0000
0000
0000
,
0010
0000
1000
0000
,
0100
0000
0000
0000
,
0100
0000
0100
0000
,
0100
0000
0000
0000
,
0010
0000
0010
0000
,
0010
0000
0000
0000
,
0001
0000
0001
0000
,
0001
0000
0000
0000
,
1000
0000
0000
0000
,
0000
0000
1000
0000
,
0000
0000
1000
0000
,
0000
0000
0001
0000
,
0000
0000
0001
0000
,
0000
0000
0100
0000
,
0000
0000
0100
0000
,
0000
0000
0010
0000
,
0000
0000
0010
0000
;

//---------------dance-single - ----------------
#NOTES:
     dance-single:
     :
     Easy:
     5:
     0.255,0.290,0.018,0.018,0.000:
0000
0000
0000
0000
,
0000
0000
0000
0000
,
0000
0000
0000
0000
,
0000
0000
0000
0000
,
1000
1000
1000
1000
,
0010
0000
0100
0000
,
0001
0001
0001
0001
,
0010
0010
0010
0010
,
0100
0000
0010
0000
,
0001
0000
1000
0000
,
0010
0000
1000
0000
,
0001
0000
0100
0000
,
0001
0000
0010
0000
,
0001
0000
1000
0000
,
0010
0000
0100
0000
,
0001
0001
0001
0001
,
1000
0010
1000
0000
,
0100
0000
0100
0000
,
1000
0001
0100
0000
,
0001
0000
0001
0000
,
0000
0010
0000
0001
,
0000
1000
0000
0010
,
0000
0100
0000
0001
,
0000
1000
1000
1000
,
0000
0010
0000
1000
,
0000
0001
0000
0001
,
0000
0010
0000
0100
,
0000
0010
0000
0000
,
0001
0000
1000
0000
,
0010
0000
0100
0000
,
0010
0000
1000
0000
,
0001
1000
1000
1000
,
0020
0100
0130
0000
,
0001
1000
0100
0000
,
1000
0001
0010
0000
,
0001
0100
0001
0000
,
2000
0010
3010
0000
,
0100
0010
1000
0000
,
0010
0100
0100
0100
,
0000
0010
0100
0010
,
1001
0001
1000
0000
,
0100
0010
0100
0000
,
1000
0010
1000
0000
,
0001
0100
0001
0000
,
1000
0100
0001
0000
,
0100
1000
0100
0000
,
1000
0010
0001
0000
,
0010
1000
0001
0100
,
0001
0001
1000
1000
,
0010
0010
0100
0010
,
0100
0000
0001
1000
,
0100
0100
1000
0000
,
0001
0010
0100
0010
,
0001
1000
0100
0010
,
0100
1000
0001
0100
,
0010
0100
0001
1000
,
0001
0001
0001
0001
,
1000
1000
1000
0000
,
0010
0010
0010
0010
,
0100
0100
0100
0000
,
0010
1000
0010
1000
,
0100
0001
0100
0000
,
1000
0100
1000
0100
,
0010
0001
0010
0000
,
0001
0000
1000
0000
,
0001
0000
0100
0000
,
0010
0000
1000
0000
,
0100
0000
0010
0000
,
1001
0000
0001
0000
,
0100
0000
0001
0000
,
1000
0000
0010
0000
,
1000
0000
1000
0000
0001
0000
0100
0010
;

//---------------dance-single - ----------------
#NOTES:
     dance-single:
     :
     Medium:
     8:
     0.384,0.387,0.090,0.117,0.000:
0000
0000
0000
0000
,
0000
0000
0000
0000
,
0000
0000
0000
0000
,
0000
0000
0000
0000
,
0010
0100
0001
1000
,
0100
0100
1000
1000
,
0001
0010
0100
0010
,
0001
0000
0001
0000
0100
0000
0100
0001
,
0000
1000
0100
1000
,
0010
0000
0100
0000
0010
0000
1000
0001
,
0000
0010
0001
1000
,
0100
0000
0010
0000
0100
0000
1000
0100
,
0000
1000
0010
0100
,
0001
0000
1000
0000
0001
0000
0010
0001
,
0000
1000
0010
0100
,
0001
1000
0001
1000
,
0001
0100
0001
0100
,
0010
0100
0001
0100
,
0010
0100
0010
1000
,
0010
0100
0010
1000
,
0100
0000
1000
0100
0000
0000
1000
0001
,
0000
0000
0010
0001
0000
0000
0100
0001
,
0000
0000
0100
0010
0000
0000
1000
0010
,
0000
0100
0001
1000
,
1001
0001
0010
0100
,
0010
0001
1000
0100
,
1000
0010
0100
0010
,
1000
0001
0100
0001
,
0010
0000
0001
0020
0000
0000
0130
0020
,
0000
0000
0031
2000
0000
0000
3100
2000
,
0000
0000
3001
0200
0000
0000
0310
0100
,
0000
0001
1000
0100
,
1001
0000
0010
0000
1000
0000
0001
0100
,
0000
0200
0301
1000
,
0001
0000
0010
0000
0100
0000
0010
0001
,
0000
2000
3100
1000
,
1001
0000
0100
0000
0001
0000
1000
0100
,
0000
0020
0031
1000
,
0001
0100
0100
0100
,
0010
1000
0000
0000
0001
0000
1001
0000
,
0001
0010
0001
0000
0100
0000
0100
0000
,
0010
0000
1000
0000
0001
0000
1000
0100
,
0000
0100
1000
0000
0001
0000
1000
0000
,
0010
0100
0010
1000
,
0002
0010
0000
0013
,
2000
0100
0000
3100
,
1000
0001
0100
0010
,
1000
0001
0100
0000
0010
0000
0110
0000
,
1001
0010
0010
0010
,
0100
0000
0010
0000
1000
0100
0100
1001
,
0000
0010
1000
0001
,
0010
0001
1000
0100
,
2000
0001
0000
3001
,
0200
0001
0000
0310
,
2000
0100
0000
3001
,
0010
0100
0010
1000
,
1001
0001
0100
0001
,
0010
0000
0100
0000
0010
0000
0001
0100
,
0000
0100
0001
0000
1000
0000
0010
0000
,
1000
0000
0100
0000
0010
0000
0100
1000
,
0000
1000
0001
0000
1000
0000
0010
0000
,
0100
0000
0010
0000
1000
0000
0010
0100
,
0000
0100
0010
0000
0100
0000
0001
0000
,
1000
0001
0001
1000
,
1001
0010
0100
0010
,
1000
0100
0010
0001
,
1000
1000
0100
0010
,
0001
0100
0010
1000
,
0001
0001
0100
0010
,
1000
0010
0100
0001
,
1000
0001
0100
0010
,
1000
0000
0001
0000
1000
0001
1000
1001
;

//---------------dance-single - ----------------
#NOTES:
     dance-single:
     :
     Hard:
     10:
     0.488,0.484,0.090,0.117,0.000: // measure 1
0000
0000
0000
0000
,  // measure 2
0000
0000
0000
0000
,  // measure 3
0000
0000
0000
0000
,  // measure 4
0000
0000
0000
0000
,  // measure 5
0001
0100
0001
1000
,  // measure 6
0001
0010
0100
0010
0001
0010
0100
0010
,  // measure 7
0100
0010
0001
1000
,  // measure 8
0100
0010
0100
1000
0001
0100
0001
1000
,  // measure 9
0000
1000
0001
0000
1000
0000
0010
0000
,  // measure 10
0100
0000
0010
0000
1000
0100
0010
0001
,  // measure 11
0000
1000
0001
0000
0100
0000
0010
0000
,  // measure 12
1000
0000
0010
0000
0100
0010
1000
0010
,  // measure 13
0000
0100
0001
0000
1000
0000
0100
0000
,  // measure 14
0001
0000
0100
0000
1000
0010
1000
0001
,  // measure 15
0000
1000
0010
0000
1000
0000
0100
0000
,  // measure 16
0010
0100
1000
1001
,  // measure 17
0001
0000
0100
0000
0001
0000
0010
0001
,  // measure 18
0000
0001
0010
0000
0001
0000
1000
0000
,  // measure 19
0010
0000
0100
0000
0010
0000
1000
0100
,  // measure 20
0000
0100
1000
0000
0001
0000
0010
0001
,  // measure 21
0000
0001
0010
0001
0000
1000
0010
1000
,  // measure 22
0000
0010
0100
0010
0000
0100
0001
1000
,  // measure 23
0000
0001
0010
0100
0000
1000
0100
0010
,  // measure 24
0000
0010
0001
0000
1000
0000
0010
0000
,  // measure 25
0100
0010
1000
0001
,  // measure 26
0010
0000
0001
0000
1000
0000
0100
1000
,  // measure 27
0000
1000
0001
0000
0100
0000
0010
0000
,  // measure 28
0100
0000
0001
0000
0010
0000
0001
0010
,  // measure 29
0000
0010
0001
1000
0000
1000
0010
0100
,  // measure 30
0000
0010
1000
0001
0000
0010
0100
1000
,  // measure 31
0000
0100
0010
0001
0000
1000
0100
0001
,  // measure 32
0000
0100
1000
0000
0010
0100
0001
0000
,  // measure 33
2001
0000
0010
0000
3001
0000
0100
0001
,  // measure 34
0000
0001
1000
0000
0001
0000
0010
0000
,  // measure 35
0100
0000
0010
0001
0000
1000
0010
1000
,  // measure 36
0000
0001
0200
0000
0301
0000
1000
0000
,  // measure 37
1002
0000
0010
0000
0103
0000
1000
0100
,  // measure 38
0000
0100
1000
0000
0020
0000
1030
0000
,  // measure 39
0001
0000
0100
0001
0000
1000
0100
2000
,  // measure 40
0000
0001
0000
0000
3001
0000
1001
0000
,  // measure 41
0001
0100
0001
0000
0001
0100
0001
0000
,  // measure 42
1000
0100
0010
0000
0100
1000
0001
0100
,  // measure 43
0000
0100
0001
0000
1000
0000
0010
1000
,  // measure 44
0010
0000
0100
0000
0001
1000
0100
1000
,  // measure 45
0000
1000
0001
0000
0010
0001
0010
0001
,  // measure 46
0000
1000
0010
0000
0100
0010
1000
0010
,  // measure 47
0000
0100
0001
0000
1000
0100
0010
0100
,  // measure 48
0000
1000
0001
0000
1000
0000
1001
0000
,  // measure 49
0001
0100
0010
0000
0100
0010
1000
0000
,  // measure 50
0010
0100
0001
0000
0100
0001
1000
1001
,  // measure 51
0000
0001
0010
0000
0100
0010
0001
0000
,  // measure 52
2000
0000
3100
0000
0001
0100
0001
1000
,  // measure 53
0000
1000
0010
0000
0100
0010
0000
1000
,  // measure 54
0000
0001
0000
0010
0000
0001
0010
0200
,  // measure 55
0000
0000
0310
0000
0001
1000
0100
1000
,  // measure 56
0000
0010
0100
0001
0000
1000
0100
0001
,  // measure 57
0000
0100
1000
0000
0001
0000
1000
0000
,  // measure 58
0010
0000
0100
0000
0010
0010
0100
0001
,  // measure 59
0000
0001
0010
0000
0100
0000
0010
0000
,  // measure 60
0001
0000
1000
0000
0100
0100
1000
0001
,  // measure 61
0000
0100
0010
0000
1000
0000
0010
0000
,  // measure 62
0001
0000
0010
0000
1000
1000
0100
0001
,  // measure 63
0000
0100
1000
0000
0001
0000
0100
0000
,  // measure 64
0010
1000
1000
0001
0001
1000
0001
0100
,  // measure 65
0001
1000
1001
0000
0001
0100
0001
0000
,  // measure 66
0200
0310
2000
3001
,  // measure 67
0010
0001
0010
0000
0100
1000
0100
0000
,  // measure 68
0002
0103
2000
3100
,  // measure 69
1000
0010
0110
0000
0010
1000
0001
0000
,  // measure 70
0020
0031
2000
3010
,  // measure 71
1000
0001
0101
0000
0001
1000
0010
0000
,  // measure 72
0100
0010
1000
0000
0010
0100
0010
0110
;
