#TITLE:Idle Gossip;
#SUBTITLE:;
#ARTIST:Daniel Clay Idol;
#TITLETRANSLIT:;
#SUBTITLETRANSLIT:;
#ARTISTTRANSLIT:;
#GENRE:;
#CREDIT:;
#MENUCOLOR:;
#NEWMETERSYSTEM:NO;
#BANNER:Idle Gossip.png;
#BACKGROUND:Idle Gossip-bg.png;
#LYRICSPATH:;
#CDTITLE:./CDTITLES/NONE.PNG;
#MUSIC:Idle Gossip.mp3;
#OFFSET:-0.228;
#SAMPLESTART:39.100;
#SAMPLELENGTH:15.000;
#SELECTABLE:YES;
#LISTSORT:;
#BPMS:0.000=160.000;
#STOPS:;
#BGCHANGES:;
#ATTACKS:;

//---------------dance-single - ----------------
#NOTES:
     dance-single:
     :
     Beginner:
     1:
     0.123,0.161,0.031,0.000,0.000:
0000
0000
0000
0000
,
0000
0000
0000
0000
,
0000
0000
0000
0000
,
0000
0000
0000
0000
,
0100
0000
0000
0000
,
0100
0000
0000
0000
,
0010
0000
0000
0000
,
0010
0000
0000
0000
,
1000
0000
0000
0000
,
1000
0000
0000
0000
,
0001
0000
0000
0000
,
0001
0000
0000
0000
,
0100
0000
0100
0000
,
0100
0000
0100
0000
,
0010
0000
0000
0000
,
0010
0000
0000
0000
,
1000
0000
1000
0000
,
0001
0000
0001
0000
,
0010
0000
0000
0000
,
0110
0000
0000
0000
,
1000
0000
0000
0000
,
1001
0000
0000
0000
,
0001
0000
0001
0000
,
0001
0000
0000
0000
,
0100
0000
0000
0000
,
0000
0000
0000
0000
,
0010
0000
0000
0000
,
1000
0000
0000
0000
,
0001
0000
0001
0000
,
0001
0000
0001
0000
,
1000
0000
1000
0000
,
1000
0000
1000
0000
,
0010
0000
0100
0000
,
0001
0000
1000
0000
,
0001
0000
1000
0000
,
0001
0000
1000
0000
,
0000
0000
0100
0000
,
0000
0000
0010
0000
,
0000
0000
0001
0000
,
0000
0000
1000
0000
,
0100
0000
0010
0000
,
0001
0000
0100
0000
,
0010
0000
1000
0000
,
0001
0000
0010
0000
,
0000
0000
0100
0000
,
0000
0000
0001
0000
,
0000
0000
1000
0000
,
0000
0000
0001
0000
,
0001
0000
0001
0000
,
0001
0000
1000
0000
,
0000
0000
0000
0000
,
0000
0000
0010
0000
,
0000
0000
0100
0000
,
0000
0000
0001
0000
,
1000
0000
0001
0000
,
1000
0000
0001
0000
,
1000
0000
0001
0000
,
1000
0000
0010
0000
,
0000
0000
0100
0000
,
0000
0000
0001
0000
,
0000
0000
1000
0000
,
0000
0000
0001
0000
,
1001
0000
0000
0000
;

//---------------dance-single - ----------------
#NOTES:
     dance-single:
     :
     Easy:
     4:
     0.295,0.290,0.000,0.281,0.000:
0000
0000
0000
0000
,
0000
0000
0000
0000
,
0000
0000
0000
0000
,
0000
0000
0000
0000
,
1000
0001
1000
0001
,
1000
0001
1000
0001
,
0100
0010
0100
0010
,
0100
0010
0100
0010
,
2000
0000
0000
3000
,
0002
0000
0000
0003
,
0200
0000
0000
0300
,
0010
1000
0001
0100
,
0001
1000
0001
1000
,
0001
1000
0001
1000
,
0002
0000
0000
0003
,
2000
0000
0000
3000
,
0020
0000
0000
0030
,
0100
0010
0100
0010
,
1000
1000
1000
1000
,
0001
0001
0001
0001
,
1000
1000
1000
1000
,
0010
0010
0010
0010
,
0100
0100
0100
0100
,
0001
0001
0001
0001
,
2000
0000
0000
3000
,
0002
0000
0000
0003
,
2000
0000
3100
0000
,
0002
0000
0103
0000
,
0010
0100
0010
0100
,
0010
0100
0010
0100
,
0001
1000
0001
1000
,
0001
1000
0002
0003
,
1000
1000
0001
0001
,
0100
0100
0020
0030
,
2000
3000
0002
0003
,
0200
0300
0001
0010
,
0001
0010
0001
0010
,
0001
0010
0001
0100
,
0001
0100
0001
0100
,
0001
0100
0010
1000
,
0010
1000
0010
1000
,
0010
1000
0010
0100
,
0010
0100
0010
0100
,
0010
0100
0020
0000
,
0000
0030
2000
0000
,
0000
3000
0002
0000
,
0000
0003
0200
0000
,
0000
0300
0001
0010
,
0001
0010
0100
1000
,
0100
1000
0200
0000
,
0000
0000
0000
0000
,
0000
0300
2000
0000
,
3001
0000
0002
0000
,
1003
0000
0010
0100
,
0010
0100
0001
1000
,
0001
1000
0100
0010
,
0100
0010
0100
1000
,
0002
0003
1000
0010
,
0100
0001
2000
3000
,
0001
0010
0200
0300
,
0010
0001
0200
0300
,
0010
1000
0002
0000
,
1003
0000
0000
0000
;

//---------------dance-single - ----------------
#NOTES:
     dance-single:
     :
     Medium:
     8:
     0.436,0.451,0.042,0.260,0.000:
0000
0000
0000
0000
,
0000
0000
0000
0000
,
0000
0000
0000
0000
,
0000
0000
0000
0000
,
0001
1000
0001
0000
0001
1000
0001
0000
,
1000
0001
1000
0000
1000
0001
1000
0000
,
0010
0100
0010
0000
0010
0100
0010
0000
,
0100
0010
0100
0000
0100
0010
0100
0000
,
0001
0100
0001
0000
0100
0000
0100
0000
,
0001
0100
0001
0000
0100
0000
0100
0000
,
1000
0100
1000
0000
0100
0000
0100
0000
,
2000
0000
3002
0000
,
0103
0010
0100
0000
0010
0000
1000
0000
,
0100
0010
0100
0000
0010
0000
0001
0000
,
1000
0100
1000
0000
0001
0000
0001
0000
,
1000
0100
1000
0000
0010
0000
0010
0000
,
0002
0000
2003
0000
,
3010
0100
0010
0000
1000
0000
0001
0000
,
0100
0000
0001
0000
0100
0001
0100
0000
,
0001
0000
0100
0000
0010
1000
0010
0000
,
1000
0000
0010
0000
1000
0100
1000
0000
,
0100
0000
0010
0000
0001
1000
0100
0000
,
1000
0000
0001
0000
1000
0000
0001
1000
,
0001
0100
0010
0100
,
0020
0000
0000
0030
,
0200
0000
0000
0300
,
1002
0000
1003
0000
,
2001
0000
3001
0000
,
1000
0100
1000
0100
1000
0000
1000
0000
,
0001
0100
0001
0100
0001
0000
0001
0000
,
0010
0100
0010
0100
0010
0000
0010
0000
,
1000
0001
1000
0001
2000
0000
3000
0000
,
0001
1000
0001
0000
0100
0010
0100
0000
,
0001
1000
0001
0000
2000
0000
3000
0000
,
0020
0030
0200
0300
,
0002
0000
0003
0000
1000
0100
1000
0100
,
0000
0000
0010
0000
0001
0100
0001
0100
,
0000
0000
0010
0000
1000
0001
1000
0001
,
0000
0000
1000
0000
0001
0100
0001
0000
,
0100
0000
0100
0000
0010
1000
0010
1000
,
0010
0000
0010
0000
1000
0100
1000
0100
,
1000
0000
1000
0000
0001
0100
0001
0100
,
0001
0000
0010
0000
0001
1000
0001
1000
,
0002
2003
3010
0100
,
0010
0100
0010
0000
1000
0000
0001
0000
,
1000
0100
1000
0000
0001
0000
0100
0000
,
0010
1000
0010
0000
0001
0000
0010
0000
,
1000
0100
1000
0000
0100
0000
0010
0000
,
0001
0000
1000
0001
0100
0000
0001
0000
,
1000
0010
0200
0000
,
0000
0300
0002
0000
,
0000
0003
2100
0000
,
3100
0000
0102
0000
,
0103
0000
0000
0000
0010
1000
0010
1000
,
0010
0000
0100
0000
0001
0010
0001
0010
,
0001
0000
1000
0000
0100
0010
0100
0010
,
0100
0000
0010
0000
1000
0100
1000
0001
,
2000
0000
3000
0000
0001
0100
0001
0000
,
2000
0000
3100
0000
1000
0010
1000
0000
,
0200
0000
0301
0000
0010
0100
0010
0000
,
0200
0000
1300
0000
0001
1000
0100
0000
,
2000
0000
3001
0000
1000
0100
0002
0000
,
1003
0000
0000
0000
;

//---------------dance-single - ----------------
#NOTES:
     dance-single:
     :
     Hard:
     11:
     0.585,0.548,0.083,0.426,0.000: // measure 1
0000
0000
0000
0000
,  // measure 2
0000
0000
0000
0000
,  // measure 3
0000
0000
0000
0000
,  // measure 4
0000
0000
0000
0000
0000
0000
0000
0001
,  // measure 5
0100
0010
0100
0001
0100
0010
0100
0001
,  // measure 6
1000
0100
0010
0001
1000
0100
0010
0001
,  // measure 7
1000
0010
0100
0010
1000
0010
0100
0010
,  // measure 8
1000
0001
0100
0001
1000
0100
0010
0001
,  // measure 9
1000
0100
0100
0100
1000
0010
0200
0000
,  // measure 10
0301
0100
0100
0100
0010
0100
0002
0000
,  // measure 11
1003
0010
0010
0010
0100
0010
2000
0000
,  // measure 12
3002
0000
2000
3003
,  // measure 13
1000
0100
0010
0100
1000
0001
0001
0100
,  // measure 14
0001
0100
0010
0100
0001
1000
1000
0100
,  // measure 15
1000
0100
0010
0001
1000
0100
2000
0000
,  // measure 16
3001
0100
0010
1000
0001
0100
0002
0000
,  // measure 17
2003
0000
0002
3003
,  // measure 18
0010
0100
0001
1000
0100
0010
0001
1000
,  // measure 19
0100
1000
0100
0010
0100
1000
0100
0010
,  // measure 20
0200
0300
2000
3000
,  // measure 21
0001
0100
0010
0100
0001
0100
0010
0100
,  // measure 22
0002
0003
0020
0030
,  // measure 23
0100
0010
0001
1000
0100
0010
0001
1000
,  // measure 24
0100
0010
1000
0001
0100
0010
1000
0001
,  // measure 25
2000
3000
0020
0030
,  // measure 26
0200
0300
0002
0003
,  // measure 27
2100
0000
3010
0000
,  // measure 28
0102
0000
0000
0000
0013
0000
0000
1000
,  // measure 29
0001
1000
0001
1000
0010
0100
0010
0100
,  // measure 30
0001
1000
0001
1000
0100
0010
0100
0010
,  // measure 31
0001
0010
0100
1000
0001
0010
0100
1000
,  // measure 32
0100
0010
0001
1000
0020
0000
0030
0000
,  // measure 33
0100
0001
1000
0001
0100
0001
1000
0010
,  // measure 34
0100
0010
1000
0001
0020
0000
0030
0000
,  // measure 35
0002
0003
2000
3000
,  // measure 36
0002
0000
0003
0000
0100
0001
1000
0020
,  // measure 37
0000
1030
0100
1000
0100
0010
0001
0200
,  // measure 38
0000
0310
0100
0001
1000
0001
0010
0002
,  // measure 39
0000
1003
0100
0010
0100
1000
0001
0100
,  // measure 40
0010
1000
0001
0100
0001
1000
0001
1000
,  // measure 41
0020
0000
0130
0000
1000
0001
1000
0001
,  // measure 42
0200
0000
0310
0000
1000
0100
1000
0100
,  // measure 43
0010
0001
0100
0010
1000
0010
0100
0001
,  // measure 44
1000
0001
0100
0001
1000
0100
1000
1000
,  // measure 45
0100
0100
1000
0000
0002
0000
0003
0000
,  // measure 46
0200
0000
0300
0000
0001
0100
0001
0001
,  // measure 47
0100
0100
0001
0000
0020
0000
0030
0000
,  // measure 48
0200
0000
0300
0000
1000
0100
0010
0010
,  // measure 49
0001
0001
1000
0001
0100
0010
1000
1000
,  // measure 50
0010
0010
0100
0100
0002
0000
0003
0000
,  // measure 51
2000
3000
0200
0300
,  // measure 52
0020
0030
2001
0000
,  // measure 53
3100
0000
1002
0000
,  // measure 54
0103
0000
0000
0010
1000
0001
1000
0001
,  // measure 55
0100
0010
0100
0010
1000
0001
1000
0001
,  // measure 56
0100
0010
0100
0001
1000
0100
0010
0001
,  // measure 57
1000
0100
1000
0001
0100
0001
1000
0010
,  // measure 58
0200
0000
0300
0010
1000
0001
0100
0010
,  // measure 59
1000
0001
1000
0100
0010
0110
0000
0000
,  // measure 60
0010
0100
0001
1000
0001
1001
0000
0000
,  // measure 61
1000
0100
0010
0001
1000
1100
0000
0000
,  // measure 62
0001
0100
0010
1000
0001
0102
0000
0000
,  // measure 63
1003
0000
0000
0000
;

//---------------dance-single - ----------------
#NOTES:
     dance-single:
     :
     Challenge:
     8:
     0.382,0.387,0.042,0.260,0.000:
0000
0000
0000
0000
,
0000
0000
0000
0000
,
0000
0000
0000
0000
,
0000
0000
0000
0000
,
0001
1000
MMMM
0000
0001
1000
MMMM
0000
,
1000
0001
MMMM
0000
1000
0001
MMMM
0000
,
0010
0100
MMMM
0000
0010
0100
MMMM
0000
,
0100
0010
MMMM
0000
0100
0010
MMMM
0000
,
0001
0100
0001
0000
MMMM
0000
0100
0000
,
0001
0100
0001
0000
MMMM
0000
0100
0000
,
1000
0100
1000
0000
MMMM
0000
0100
0000
,
2000
0000
3002
0000
,
0103
0010
0100
0000
0010
0000
1000
0000
,
0100
0010
0100
0000
0010
0000
0001
0000
,
1000
0100
1000
0000
MMMM
0000
0001
0000
,
1000
0100
1000
0000
MMMM
0000
0010
0000
,
0002
0000
2003
0000
,
3010
0100
0010
0000
1000
0000
0001
0000
,
0100
0000
0001
0000
0100
0001
0100
0000
,
0001
0000
MMMM
0000
0010
1000
0010
0000
,
1000
0000
MMMM
0000
1000
0100
1000
0000
,
0100
0000
MMMM
0000
0001
1000
0100
0000
,
1000
0000
MMMM
0000
1000
0000
0001
1000
,
0001
MMMM
0010
0100
,
0020
0000
0000
0030
,
0200
0000
0000
0300
,
1002
0000
1003
0000
,
2001
0000
3001
0000
,
1000
0100
1000
0100
1000
0000
MMMM
0000
,
0001
0100
0001
0100
0001
0000
MMMM
0000
,
0010
0100
0010
0100
0010
0000
MMMM
0000
,
1000
0001
1000
0001
2000
0000
3000
0000
,
0001
1000
0001
0000
0100
0010
0100
0000
,
0001
1000
0001
0000
2000
0000
3000
0000
,
0020
0030
0200
0300
,
0002
0000
0003
0000
1000
0100
1000
0100
,
0000
0000
MMMM
0000
0001
0100
0001
0100
,
0000
0000
MMMM
0000
1000
0001
1000
0001
,
0000
0000
MMMM
0000
0001
0100
0001
0000
,
0100
0000
0100
0000
0010
1000
0010
1000
,
0010
0000
MMMM
0000
1000
0100
1000
0100
,
1000
0000
MMMM
0000
0001
0100
0001
0100
,
0001
0000
MMMM
0000
0001
1000
0001
1000
,
0002
2003
3010
0100
,
0010
0100
0010
0000
MMMM
0000
0001
0000
,
1000
0100
1000
0000
0001
0000
0100
0000
,
0010
1000
0010
0000
MMMM
0000
0010
0000
,
1000
0100
1000
0000
0100
0000
0010
0000
,
0001
0000
1000
0001
0100
0000
0001
0000
,
1000
0010
0200
0000
,
0000
0300
0002
0000
,
0000
0003
2100
0000
,
3100
0000
0102
0000
,
0103
0000
0000
0000
0010
1000
0010
1000
,
0010
0000
MMMM
0000
0001
0010
0001
0010
,
0001
0000
MMMM
0000
0100
0010
0100
0010
,
0100
0000
MMMM
0000
1000
0100
1000
0001
,
2000
0000
3000
0000
MMMM
0100
0001
0000
,
2000
0000
3100
0000
MMMM
0010
1000
0000
,
0200
0000
0301
0000
MMMM
0100
0010
0000
,
0200
0000
1300
0000
MMMM
1000
0100
0000
,
2000
0000
3001
0000
MMMM
0100
0002
0000
,
1003
0000
0000
0000
;
