#TITLE:Ganymede;
#SUBTITLE:;
#ARTIST:玄武;
#TITLETRANSLIT:;
#SUBTITLETRANSLIT:;
#ARTISTTRANSLIT:GENBU;
#GENRE:;
#CREDIT:;
#MENUCOLOR:;
#NEWMETERSYSTEM:NO;
#BANNER:Ganymede.png;
#BACKGROUND:Ganymede-bg.png;
#LYRICSPATH:;
#CDTITLE:./CDTITLES/BEATMANIA IIDX.PNG;
#MUSIC:Ganymede.mp3;
#OFFSET:-0.053;
#SAMPLESTART:0.001;
#SAMPLELENGTH:15.000;
#SELECTABLE:YES;
#LISTSORT:;
#DISPLAYBPM:72.000:82.000;
#BPMS:0.000=82.000,156.000=78.000,158.000=75.000,159.000=72.000,160.000=78.000;
#STOPS:;
#BGCHANGES:;
#ATTACKS:;

//---------------dance-single - ----------------
#NOTES:
     dance-single:
     :
     Beginner:
     1:
     0.082,0.116,0.048,0.000,0.000:
0000
0000
0000
0000
,
0000
0000
0000
0000
,
0000
0000
0000
0000
,
0000
0000
0000
0000
,
1000
0000
0000
0000
,
0010
0000
0000
0000
,
0100
0000
0000
0000
,
0001
0000
1000
0000
,
0001
0000
0010
0000
,
0100
0000
1000
0000
,
0010
0000
0100
0000
,
0001
0000
1000
0000
,
1001
0000
0000
0000
,
0110
0000
0000
0000
,
1001
0000
0000
0000
,
0110
0000
0100
0100
,
0100
0000
0010
0000
,
1000
0000
0001
0000
,
0010
0000
0001
0000
,
0100
0000
1000
0000
,
1001
0000
0000
0000
,
0000
0000
0000
0000
,
0110
0000
0000
0000
,
0000
0000
0000
0000
,
0000
0000
0000
0100
,
0100
0000
0100
0000
,
0100
0000
0100
0000
,
0010
0000
0010
0000
,
0010
0000
0010
0000
,
1000
0000
0001
0000
,
0100
0000
0010
0000
,
1000
0000
0100
0000
,
0001
0000
0010
0000
,
1000
0000
0001
0000
,
0100
0000
0010
0000
,
1000
0000
0001
0000
,
1000
0000
0001
0000
,
0100
0000
0100
0000
,
0100
0000
0100
0000
,
0010
0000
0010
0000
,
1000
0000
0001
0000
,
0100
0100
0100
0100
;

//---------------dance-single - ----------------
#NOTES:
     dance-single:
     :
     Easy:
     9:
     0.310,0.351,0.104,0.279,0.000:
0000
0000
0000
0000
,
0000
0000
0000
0000
,
0000
0000
0000
0000
,
0000
0000
0000
0000
,
1000
0010
1000
0010
0100
0001
0100
0001
,
1000
0100
0010
0001
1000
1000
0100
0100
,
0010
0001
0100
0010
0001
0100
0010
1000
,
0001
0010
0100
0010
0001
0001
1000
1000
,
0020
0130
0002
1003
,
0002
0013
0200
1300
,
0020
0130
0002
1003
,
0001
0010
0100
1000
0001
0100
0010
0100
,
0001
2002
0000
0000
0000
0000
3003
0000
,
1000
2002
0000
0000
0000
0000
3003
0000
,
0110
0220
0000
0000
0000
0000
0330
0000
,
1001
2002
0000
0000
0000
3003
0100
0010
,
1000
2000
0000
3001
0001
0002
0000
0013
,
0010
0020
0000
0130
0100
0200
0000
1300
,
0001
0200
0000
0301
1000
0020
0000
1030
,
0100
0010
0001
0100
0010
1000
0010
0100
,
2002
0000
0000
3003
0002
0000
0000
0013
,
0200
0000
0000
0000
0000
0000
0000
0300
,
0020
0000
0000
0030
0002
0000
0000
1003
,
0002
0000
0000
0000
,
2000
0000
0000
3003
,
0010
0010
0100
0100
0001
0001
1000
1000
,
0100
0010
0001
1000
0100
1000
0001
0100
,
0010
0010
1000
1000
0001
0001
0010
0010
,
0001
0100
0010
1000
0001
0010
0100
1000
,
0100
0010
0001
1000
0100
0010
0001
1000
,
0001
0100
0010
1000
0001
0100
0010
1000
,
0100
0001
0010
1000
0100
0001
0010
1000
,
0010
0001
0100
1000
0010
0001
0100
1000
,
0001
0100
0101
0001
1000
0010
1010
0010
,
0100
0001
1001
0001
0010
0100
0010
0001
,
1000
0001
0110
0010
1000
0001
1001
0001
,
1001
1000
0010
0100
0010
1000
0001
0100
,
0020
0000
1030
0000
0002
0000
0103
0001
,
2000
0000
3001
0000
0020
0000
0130
0010
,
0002
0000
1003
0000
0002
0000
1003
0010
,
1000
0010
0100
0001
1000
0100
0010
0001
,
1000
0100
1000
0100
1000
0001
2000
3001
;

//---------------dance-single - ----------------
#NOTES:
     dance-single:
     :
     Medium:
     10:
     0.388,0.417,0.096,0.207,0.303:
0000
0000
0000
0000
,
0000
0000
0000
0000
,
0000
0000
0000
0000
,
0000
0000
0000
0000
,
0001
1000
0001
0000
1000
0100
1000
0000
0100
0010
0100
0000
1000
0100
1000
0000
,
0001
0100
0001
0000
0100
0010
0100
0000
0010
1000
0010
0000
1000
0001
0100
0000
,
0010
0100
0010
0000
0100
0001
0100
0000
0001
0010
0001
0000
1000
0100
1000
0000
,
0001
0100
0010
0000
0100
0001
1000
0000
0001
0010
0100
0000
1000
0100
0010
0000
,
0002
0000
1003
0000
0020
0000
0130
0010
,
2000
0000
3001
0010
0200
0000
0310
0000
,
0002
1003
0020
0130
,
0020
0000
0000
0000
1030
0000
0001
0000
0100
0000
0001
0000
1000
0100
0010
0000
,
0100
2200
0000
0000
0000
0000
3300
0010
,
0100
0202
0000
0000
0000
0000
0303
0001
,
1000
2002
0000
0000
0000
0000
3003
0100
,
0110
0000
1001
0000
0000
0100
0000
0001
0000
1000
0000
0010
0010
0000
0100
0000
,
0010
1000
0010
0000
2000
0000
3001
0000
0100
0001
0100
0000
0002
0000
1003
0000
,
0001
0010
0100
0000
0020
0000
0031
0000
1000
0100
0010
0000
0200
0000
1300
0000
,
0001
0100
0001
0000
0200
0000
0301
0000
1000
0001
1000
0000
0002
0000
1003
0000
,
0001
0000
1000
0001
0001
0000
1000
0100
0100
0000
1000
0000
0010
0100
0010
0000
,
2000
0000
0000
0000
0000
0000
0000
3010
,
0200
0000
0000
0000
,
0302
0000
0000
0000
0023
0000
0031
1000
,
0002
0000
0000
0000
,
0203
0000
0000
0300
,
0010
0010
1000
0001
0100
0001
0010
0100
1000
0100
0010
0001
,
0100
0100
0010
0010
1000
1000
0001
0001
0010
0001
1000
0100
,
1000
0100
0010
0001
0100
0010
1000
0010
0100
0001
1000
0001
,
1000
1000
1000
0001
0001
0001
0010
0010
0010
0100
0100
0100
,
0010
0001
0100
0010
1000
0001
1000
1001
,
0001
0100
0010
1000
0100
0010
0100
1100
,
0001
0100
0001
0010
0001
1000
0001
0011
,
0100
0010
0100
0001
0100
0010
1000
1100
,
1001
0000
0001
0100
0001
0000
1000
0000
0010
0000
1000
0100
1000
0000
0001
0000
,
0100
0000
0001
1000
0010
0000
0100
0000
0010
1000
0100
0000
0010
0001
0100
0000
,
1001
0000
0100
0010
1000
0000
0010
0000
0110
0000
0001
0100
0001
0000
1000
0000
,
0001
0010
0100
0000
1000
0100
0010
0000
0001
1000
0001
1000
0010
0100
0001
1000
,
0001
0010
0001
0010
0001
0100
0010
1000
,
0001
0100
0010
1000
0100
0010
0100
1000
,
0001
0000
0000
0001
0000
0000
0100
0000
0000
0100
0000
0000
0010
0000
0000
0010
0000
0000
1000
0000
0000
1000
0000
0001
,
1000
0001
0100
0010
1000
0100
0010
0001
,
0100
0100
0010
0010
1000
0001
2000
3001
;

//---------------dance-single - ----------------
#NOTES:
     dance-single:
     :
     Hard:
     14:
     0.577,0.684,0.303,0.239,0.741:
0000
0000
0000
0000
,
0000
0000
0000
0000
,
0000
0000
0000
0000
,
0000
0000
0000
0000
,
0010
1000
0001
0100
0010
1000
0001
0100
0010
1000
0001
0010
0001
1000
0010
1000
,
0001
0100
0010
1000
0001
0100
0010
1000
0100
0010
0100
1000
0100
0010
0001
0100
,
0001
0010
1000
0010
0001
0010
1000
0010
0001
0100
1000
0100
0001
0100
1000
0100
,
0001
0010
0100
1000
0001
0010
0100
1000
0100
0010
0001
1000
0010
0100
0001
1000
,
1001
0010
0100
0000
0001
0100
0002
0000
1003
0010
1000
0000
0010
1000
0200
0000
,
0310
0100
1000
0000
0001
0010
0200
0000
0310
0001
1000
0000
0001
0100
0020
0000
,
0130
0001
0100
0000
0001
1000
0002
0000
1003
0001
1000
0000
0010
1000
0020
0000
,
0130
0001
0100
0001
1000
0100
0010
0001
1000
0100
0001
0100
1000
0001
0100
0010
,
0110
0000
2002
0000
0000
0000
0000
0000
0000
0000
0000
0000
3003
0000
1000
0100
,
0011
0000
0000
0000
2200
0000
0000
0000
0000
0000
0000
0000
0000
0000
0000
0000
0000
0000
0000
0000
0000
0000
0000
0000
3300
0000
0000
0000
0000
0000
0010
0100
,
0001
0000
2020
0000
0000
0000
0000
0000
0000
0000
0000
0000
3030
0000
0110
0010
,
1100
0000
0000
0000
0202
0000
0000
0000
0303
0000
1010
0000
0000
0000
1100
0000
0000
0000
0101
0000
0000
0000
1000
0001
0100
0000
0001
0000
1000
0000
0001
0000
,
1000
0010
0100
0000
0010
1000
0002
0000
0013
0100
1000
0000
0100
0010
0002
0000
,
1003
0100
0010
0000
0100
1000
0020
0000
0130
0001
1000
0000
0001
0100
0001
1000
,
0010
0100
0010
0000
1000
0100
0002
0000
0103
1000
0001
0000
0100
0001
2000
0000
,
3001
0100
0001
0000
0110
0000
0110
0000
1000
0001
0100
0010
1000
0100
0010
0001
,
2000
0000
0000
0000
3020
0000
0000
0130
,
0002
0000
0000
0000
,
0023
0000
0000
0000
0230
0000
0000
1300
,
0220
0000
0000
0330
,
0020
0000
0000
0030
,
0001
0000
0001
1000
0000
1000
0010
0000
0010
1000
0000
1000
0100
0000
0100
1000
0000
1000
0100
0000
0100
0010
0001
0010
,
0001
0000
0001
0100
0000
0100
0010
0000
0010
1000
0000
1000
0001
0000
0001
0010
0000
0010
0001
0000
0001
1000
0010
0100
,
0010
0000
0010
1000
0000
0100
0010
0000
0001
0100
0000
0001
1000
0000
0010
1000
0000
0010
0100
0000
0001
0010
0001
0100
,
0001
0000
1000
0010
0000
0100
0001
0000
1000
0001
0000
0001
1000
0010
0100
0001
1000
0001
0010
0100
1000
0100
0010
0001
,
1001
0100
1000
0000
0001
0010
0100
1000
0100
0010
0001
1000
0100
0010
1001
0000
,
0010
1000
0101
0000
1000
0100
1000
0001
0100
0010
1000
0010
0100
0010
1001
0000
,
0101
0010
1000
0000
1100
0010
0001
1000
0100
0001
0100
1000
0001
0100
0110
0000
,
1010
0000
0000
0001
0000
0000
0100
0000
0000
0000
0000
0000
0011
0000
0000
1000
0000
0000
0100
0000
0000
0010
0000
0000
0100
0000
0000
1000
0000
0000
0001
0000
0000
0100
0000
0000
0001
0000
1000
0000
0001
0000
0010
0000
0100
0000
0010
0000
,
0001
1000
1100
0001
1000
0001
0101
1000
0010
0100
0110
0001
0010
0100
0110
1000
,
0100
0010
0011
0100
0010
1000
0101
1000
0001
0100
0011
1000
0100
0010
0110
1000
,
0001
0100
1010
0001
1000
0100
0011
1000
0001
0100
0110
0001
1000
0001
0110
1000
,
0001
0000
0010
0000
0100
0000
1000
0000
0100
0000
0010
0000
0001
0000
1000
0000
0001
0000
0100
0000
0010
0000
1000
0000
0001
1000
0001
1000
0001
1000
0001
1000
,
0001
0000
1000
0000
0010
0000
0100
0000
0001
0000
1000
0000
0200
0000
0310
0100
,
1000
0000
0001
0000
0100
0000
0010
0000
1000
0000
0001
0000
0020
0000
0031
0100
,
0010
0000
0000
1000
0000
0000
0001
0000
0000
1000
0000
0000
0001
0000
0000
0010
0000
0000
1000
0000
0000
0100
0000
1000
,
1100
0100
1000
0001
0100
0010
1000
0001
,
0100
0010
1000
0001
1000
0100
0012
0103
;

//---------------dance-single - ----------------
#NOTES:
     dance-single:
     :
     Challenge:
     16:
     0.769,0.818,0.478,0.151,1.000: // measure 1
1001
0000
0000
0001
0000
0000
0100
0000
0000
0010
0000
0000
1000
0000
0000
0100
0000
0000
0010
0000
0000
0100
0000
1000
,  // measure 2
0100
0000
0000
1000
0000
0000
0010
0000
0000
0100
0000
0000
0001
0000
0000
1000
0000
0000
0001
0000
0000
0010
0000
0001
,  // measure 3
0010
0000
0000
0001
0000
0000
0100
0000
0000
0010
0000
0000
1000
0000
0000
0001
0000
0000
0100
0000
0000
0001
0000
1000
,  // measure 4
0001
0000
0000
0000
0000
0000
0100
0000
0000
0000
0100
0000
0010
0000
0000
0000
0000
0000
1000
0000
0000
0000
1000
0000
0001
0000
0000
0000
0000
0000
0100
0000
0000
0000
0000
0000
0010
0000
0000
0010
0000
0000
0010
0000
0000
0000
0000
0000
,  // measure 5
1010
0100
0001
1000
1001
0001
0010
0100
1100
0010
0001
0100
0110
0010
1000
0001
,  // measure 6
1001
0100
0010
0100
1010
0100
0001
1000
0011
0100
0010
0001
1100
0001
0100
0001
,  // measure 7
0110
0100
0001
1000
1001
0001
0010
0100
1100
0100
0010
0001
0101
0001
0100
0001
,  // measure 8
1001
0010
0100
0010
1100
0001
0100
0001
0011
1000
0100
1000
0101
0010
0010
0010
,  // measure 9
1001
1000
0001
0100
0001
1000
0001
0010
0100
0010
0001
1000
0100
0010
0100
1000
,  // measure 10
0101
0010
0100
0010
1000
0001
0100
0001
1000
0001
0010
0100
1000
0100
0010
0001
,  // measure 11
1100
0001
0100
0001
1010
0100
0001
1000
0011
1000
0100
0010
1100
0100
1000
0001
,  // measure 12
0110
0000
0100
0000
0010
0000
1000
0000
0011
0000
0100
0000
0010
0000
0001
0000
0110
0000
0100
0000
0010
0000
1000
0000
1100
0000
1100
0000
1001
0000
0001
0100
,  // measure 13
0010
0000
0220
0000
0000
0000
0330
0000
2000
0000
0000
0000
0000
0000
3010
1000
,  // measure 14
1001
0000
0000
0000
0202
0000
0000
0000
0000
0000
0000
0000
0303
0000
0000
0000
0020
0000
0000
0000
0000
0000
0000
0000
0030
0000
0000
0000
0000
0000
1000
0001
,  // measure 15
0100
0000
2100
0000
0000
0000
0100
0000
0000
0000
0100
0000
0000
0000
3100
0010
,  // measure 16
0001
0000
0000
0000
2002
0000
0000
0000
3003
0000
0110
0000
0000
0000
1001
0000
0000
0000
1100
0000
0000
0000
0001
0010
0001
0000
0100
0000
0010
0000
1000
0000
,  // measure 17
0001
0100
0010
1000
1001
0100
0010
1000
1100
0100
0010
0001
0101
0001
1000
0100
,  // measure 18
1001
0100
0010
1000
1010
0100
0001
1000
0011
0100
0010
0001
0101
0001
1000
0100
,  // measure 19
1100
1000
0010
0100
0110
0010
1000
0001
0011
0001
1000
0100
1001
0100
0010
1000
,  // measure 20
1010
0000
0010
0000
0100
0000
0001
0000
0011
0000
0100
0000
1000
0000
0100
0000
1001
0000
0010
0000
0100
0000
0010
0000
1010
0000
0100
1000
0001
0000
1000
0000
,  // measure 21
2001
0000
0000
0000
3020
0000
0000
0130
,  // measure 22
0002
1000
0010
0000
0200
0000
0303
0000
,  // measure 23
1002
0000
0000
0000
0203
0000
0000
0310
,  // measure 24
2000
0000
0000
0000
0000
0000
0000
3000
,  // measure 25
2002
0000
0000
0000
0000
0000
0000
0000
0000
0000
0000
0000
0000
0000
0000
0000
3003
0000
0000
0000
0000
0000
0000
0000
0010
0000
0010
1000
0000
0001
1000
0001
,  // measure 26
0100
0001
0010
0100
0010
0001
1000
0100
1000
0010
0100
0001
1000
0001
0100
0010
1000
0100
0001
0100
1000
0001
0010
1000
,  // measure 27
0010
0001
0100
0010
1000
0010
0100
0001
1000
0001
0010
0001
1000
0100
0010
0100
1000
0001
0100
0001
1000
0010
0100
0001
,  // measure 28
1000
0100
0010
0100
1000
0100
0010
0001
0100
0001
0010
0001
1000
0010
0100
0010
1000
0010
0100
0001
1000
0001
0100
0001
,  // measure 29
1000
0100
0010
0100
1000
0001
0100
0010
1000
0010
0100
0001
1000
1000
1000
0001
0001
0001
0010
0010
0010
0100
0010
0001
,  // measure 30
1000
0100
1000
0001
0100
0010
0100
0001
1000
0001
0010
0001
1000
0010
1000
0010
0100
0001
1000
0100
0001
0100
1000
0001
,  // measure 31
0100
0010
1000
0010
0100
0001
0010
1000
0010
0001
0100
0010
1000
0100
0010
0100
1000
0001
0100
0100
0100
0010
0010
0010
,  // measure 32
1000
0001
0010
0001
0100
0010
1000
0010
0100
0001
0010
0100
0010
0001
1000
0100
0001
0100
1000
0001
0100
0010
1000
0010
,  // measure 33
1000
0010
0100
0001
1000
0100
0001
0100
1000
0001
0100
0010
0100
0100
0100
0001
0001
0001
1000
1000
1000
0010
0010
0010
,  // measure 34
1000
0000
0100
1000
0100
0000
1000
0000
0001
0000
0100
0001
0100
0000
0001
0000
0010
0000
0100
0010
0001
0000
1000
0000
0001
0000
0100
0010
1000
0000
0010
0000
,  // measure 35
0100
0000
0001
1000
0100
0000
1000
0000
0001
0000
1000
0001
0010
0000
0001
0000
0100
0000
0010
1000
0100
0000
1000
0000
0001
0000
0010
0001
0100
0000
0001
0000
,  // measure 36
1000
0000
0100
1000
0100
0000
1000
0000
0001
0000
0010
0001
0010
0000
0001
0000
0100
0000
0010
0100
0001
0000
1000
0000
0001
0000
1000
0001
0010
0000
0001
0000
,  // measure 37
1000
0000
0000
0000
0000
0000
0000
0000
0000
0000
0000
0000
0100
0000
0000
0000
0000
0000
1000
0000
0000
0000
0000
0000
0100
0000
0000
0000
0000
0000
1000
0000
0000
0000
0000
0000
0100
0000
0000
0000
0000
0000
0000
0000
0000
0000
0000
0000
1000
0000
0000
0000
0000
0000
0000
0000
0000
0000
0000
0000
0001
0000
0000
0000
0000
0000
0100
0000
0000
0000
0000
0000
0001
0000
0000
0000
0000
0000
0100
0000
0000
0000
0000
0000
0001
0000
0000
0000
0000
0000
0000
0000
0000
0000
0000
0000
0100
0000
0000
0000
0000
0000
0000
0000
0010
0000
0000
0000
0000
0000
0000
0000
1000
0000
0000
0000
0000
0000
0000
0000
0001
0000
0000
0000
0000
0000
0000
0000
1000
0000
0000
0000
0000
0000
0000
0000
0001
0000
0000
0000
0000
0000
0000
0000
1000
0000
0000
0000
0000
0000
0000
0000
1000
0000
0000
0000
0000
0000
0000
0000
1000
0000
0000
0000
0000
0000
0000
0000
0100
0000
0000
0000
0000
0000
0000
0000
0010
0000
0000
0000
0000
0000
0000
0000
0001
0000
0000
0000
0000
0000
0000
0000
,  // measure 38
1001
0000
0000
0100
0000
0000
1000
0000
0000
0001
0000
0000
0100
0000
0000
0010
0000
0000
0100
0000
0000
0001
0000
1000
,  // measure 39
0011
0000
0000
0100
0000
0000
0010
0000
0000
0001
0000
0000
1000
0000
0000
0100
0000
0000
0010
0000
0000
0100
0000
0001
,  // measure 40
1100
0000
0000
0001
0000
0000
0100
0000
0000
0001
0000
0000
1000
0000
0000
0010
0000
0000
0100
0000
0000
0010
0000
0100
,  // measure 41
1010
0001
0100
0010
1000
1000
0001
0001
,  // measure 42
1000
0100
0010
0001
1000
0100
0021
1030
;
