#TITLE:Fantasista;
#SUBTITLE:;
#ARTIST:Dragon Ash;
#TITLETRANSLIT:;
#SUBTITLETRANSLIT:;
#ARTISTTRANSLIT:;
#GENRE:;
#CREDIT:;
#MENUCOLOR:;
#NEWMETERSYSTEM:NO;
#BANNER:Fantasista.png;
#BACKGROUND:Fantasista-bg.png;
#LYRICSPATH:;
#CDTITLE:./CDTITLES/NONE.PNG;
#MUSIC:Fantasista.mp3;
#OFFSET:-0.135;
#SAMPLESTART:101.179;
#SAMPLELENGTH:15.000;
#SELECTABLE:YES;
#LISTSORT:;
#BPMS:0.000=190.000;
#STOPS:;
#BGCHANGES:0.000=Fantasista.avi=1.000=1=1=0,
99999=-nosongbg-=1.000=0=0=0 // don't automatically add -songbackground-
;
#ATTACKS:;

//---------------dance-single - ----------------
#NOTES:
     dance-single:
     :
     Beginner:
     4:
     0.202,0.266,0.063,0.000,0.000: // measure 1
0000
0000
0000
0000
,  // measure 2
0000
0000
0000
0000
,  // measure 3
0000
0000
0000
0000
,  // measure 4
0000
0000
0000
0000
,  // measure 5
0010
0000
0000
0000
,  // measure 6
0010
0000
0000
0000
,  // measure 7
0010
0000
0000
0000
,  // measure 8
0010
0000
0000
0000
,  // measure 9
0010
0000
0100
0000
,  // measure 10
0010
0010
0010
0000
,  // measure 11
1000
0000
0001
0000
,  // measure 12
1000
0000
0001
0000
,  // measure 13
0001
0000
0010
0000
,  // measure 14
0100
0000
1000
0000
,  // measure 15
1000
0000
0100
0000
,  // measure 16
0010
0000
0001
0001
,  // measure 17
0001
0000
1000
0000
,  // measure 18
0010
0000
0100
0000
,  // measure 19
0010
0000
1000
0000
,  // measure 20
0001
0000
1000
0000
,  // measure 21
0010
0000
1000
0000
,  // measure 22
0001
0000
0100
0000
,  // measure 23
0001
0000
0010
0000
,  // measure 24
0100
0000
1000
0000
,  // measure 25
0100
0000
0000
0000
,  // measure 26
1000
1000
1000
0000
,  // measure 27
0010
0000
0000
0000
,  // measure 28
0100
0000
0000
0000
,  // measure 29
0001
0000
0000
0000
,  // measure 30
0010
0010
0010
0000
,  // measure 31
0100
0000
0000
0000
,  // measure 32
1000
0000
0000
0000
,  // measure 33
0001
0000
0001
0000
,  // measure 34
1000
1000
1000
0000
,  // measure 35
0010
0000
0100
0000
,  // measure 36
0010
0000
1000
0000
,  // measure 37
0001
0000
0010
0000
,  // measure 38
0100
0000
1000
0000
,  // measure 39
0100
0000
0010
0000
,  // measure 40
0001
0000
1000
1000
,  // measure 41
1000
0000
0010
0000
,  // measure 42
1000
0000
0001
0000
,  // measure 43
0100
0000
0010
0000
,  // measure 44
0100
0000
0001
0000
,  // measure 45
1000
0000
0001
0000
,  // measure 46
1000
0000
0010
0000
,  // measure 47
1000
0000
0100
0000
,  // measure 48
0010
0000
0001
0000
,  // measure 49
1000
0000
0000
0000
,  // measure 50
0100
0000
0000
0000
,  // measure 51
0010
0000
0001
0000
,  // measure 52
0100
0000
0010
0000
,  // measure 53
0100
0000
0000
0000
,  // measure 54
0001
0000
0000
0000
,  // measure 55
1000
0000
0010
0000
,  // measure 56
1000
0000
0001
0000
,  // measure 57
1001
0000
0000
0000
,  // measure 58
1001
0000
0000
0000
,  // measure 59
1001
0000
0000
0000
,  // measure 60
0110
0000
0000
0000
,  // measure 61
1001
0000
0000
0000
,  // measure 62
1001
0000
0000
0000
,  // measure 63
1001
0000
0000
0000
,  // measure 64
0110
0000
0000
0000
,  // measure 65
0010
0000
0010
0000
,  // measure 66
1000
0000
1000
0000
,  // measure 67
0001
0000
0001
0000
,  // measure 68
0100
0000
0100
0000
,  // measure 69
0001
0000
0010
0000
,  // measure 70
0100
0000
1000
0000
,  // measure 71
0100
0000
0010
0000
,  // measure 72
0001
0000
1000
0000
,  // measure 73
0010
0000
0010
0000
,  // measure 74
1000
0000
1000
0000
,  // measure 75
0001
0000
0001
0000
,  // measure 76
0100
0000
0100
0000
,  // measure 77
0010
0000
1000
0000
,  // measure 78
0001
0000
0100
0000
,  // measure 79
0001
0000
0010
0000
,  // measure 80
0100
0000
1000
0000
,  // measure 81
0000
0100
0000
0100
,  // measure 82
0000
0010
0000
0010
,  // measure 83
0000
0001
0000
0001
,  // measure 84
0000
1000
0000
1000
,  // measure 85
0000
0010
0000
0100
,  // measure 86
0000
0001
0000
1000
,  // measure 87
0000
0001
0000
0010
,  // measure 88
0000
0001
0000
1000
,  // measure 89
1000
0000
0010
0000
,  // measure 90
0100
0000
0001
0000
,  // measure 91
1000
0000
0010
0000
,  // measure 92
0100
0000
0001
0000
,  // measure 93
0000
1000
0000
0001
,  // measure 94
0000
1000
0000
0100
,  // measure 95
0000
0010
0000
0001
,  // measure 96
0001
0001
0001
0001
,  // measure 97
0001
0000
0000
0000
;

//---------------dance-single - ----------------
#NOTES:
     dance-single:
     :
     Easy:
     6:
     0.350,0.394,0.095,0.300,0.000: // measure 1
0000
0000
0000
0000
,  // measure 2
0000
0000
0000
0000
,  // measure 3
0000
0000
0000
0000
,  // measure 4
0000
0000
0000
0000
,  // measure 5
1000
0000
0000
0000
,  // measure 6
1000
0000
0000
0000
,  // measure 7
1000
0000
0000
0000
,  // measure 8
1000
0000
1000
0000
,  // measure 9
0001
0001
0100
0010
,  // measure 10
1000
1000
0200
0300
,  // measure 11
1000
1000
0010
0010
,  // measure 12
0100
0001
0020
0030
,  // measure 13
0001
0001
0010
0010
,  // measure 14
0100
0000
2000
3000
,  // measure 15
0010
0010
0100
0001
,  // measure 16
2000
0000
0000
3000
,  // measure 17
0010
1000
0001
0100
,  // measure 18
0001
0010
0200
0300
,  // measure 19
0010
0001
1000
0100
,  // measure 20
0010
0100
2000
3000
,  // measure 21
0001
0100
0010
0100
,  // measure 22
0001
1000
0020
0030
,  // measure 23
1000
0001
0100
0010
,  // measure 24
0200
0300
0002
0003
,  // measure 25
2000
0000
0000
3000
,  // measure 26
0001
0100
0001
1000
,  // measure 27
0020
0000
0000
0000
,  // measure 28
0000
0000
0000
0030
,  // measure 29
0200
0000
0000
0300
,  // measure 30
0010
1000
0001
0100
,  // measure 31
0002
0000
0000
0000
,  // measure 32
0000
0000
0000
0003
,  // measure 33
1000
0001
0100
0001
,  // measure 34
1000
0001
0020
0030
,  // measure 35
0001
0100
0010
0000
,  // measure 36
1000
0000
0002
0003
,  // measure 37
1000
0100
0010
0100
,  // measure 38
1000
0010
0200
0300
,  // measure 39
0010
0100
0001
1000
,  // measure 40
0020
0030
2000
3000
,  // measure 41
0001
0010
0001
0010
,  // measure 42
0100
1000
0200
0300
,  // measure 43
1000
0010
1000
0010
,  // measure 44
0100
0001
0200
0300
,  // measure 45
0001
1000
0010
0100
,  // measure 46
0001
1000
0002
0003
,  // measure 47
1000
0001
0100
0010
,  // measure 48
1000
0001
1000
1000
,  // measure 49
0020
0000
0000
0030
,  // measure 50
0100
0001
0100
0001
,  // measure 51
2000
0000
0000
0000
,  // measure 52
0000
0000
0000
3000
,  // measure 53
0200
0000
0000
0300
,  // measure 54
0010
0100
1000
0001
,  // measure 55
0020
0000
0000
0000
,  // measure 56
0000
0000
0000
0030
,  // measure 57
1001
0000
0000
0010
,  // measure 58
1001
0000
0000
0010
,  // measure 59
1001
0000
0000
0100
,  // measure 60
1001
0000
0110
0000
,  // measure 61
1001
0000
0000
0010
,  // measure 62
1001
0000
0000
0010
,  // measure 63
1001
0000
0000
0000
,  // measure 64
0110
0000
1001
0000
,  // measure 65
1000
0001
1000
0100
,  // measure 66
0010
0100
2000
3000
,  // measure 67
0001
0100
0010
0100
,  // measure 68
0001
0010
0002
0003
,  // measure 69
1000
0010
1000
0001
,  // measure 70
0100
0001
2000
3000
,  // measure 71
0001
0010
0100
0010
,  // measure 72
0002
0000
0000
0003
,  // measure 73
0100
0010
0100
0001
,  // measure 74
1000
0010
0200
0300
,  // measure 75
0010
1000
0001
0010
,  // measure 76
0001
0100
0020
0030
,  // measure 77
0100
0001
1000
0100
,  // measure 78
0010
0100
2000
3000
,  // measure 79
0100
0010
0001
0100
,  // measure 80
0010
1000
0001
1000
,  // measure 81
1001
0010
0000
0010
,  // measure 82
0100
0001
0000
0001
,  // measure 83
0010
0100
0000
0100
,  // measure 84
1000
0010
0100
0001
,  // measure 85
1000
0100
1000
0100
,  // measure 86
0010
0001
0100
0010
,  // measure 87
2000
3000
0002
0003
,  // measure 88
0100
0001
1000
0001
,  // measure 89
0010
0001
0000
0001
,  // measure 90
0010
0001
0000
1000
,  // measure 91
0100
1000
0000
1000
,  // measure 92
0010
0100
0001
1000
,  // measure 93
0001
0100
0010
1000
,  // measure 94
0100
0010
0100
1000
,  // measure 95
0002
0003
0200
0300
,  // measure 96
0010
1000
0100
0010
,  // measure 97
2002
0000
0000
0000
,  // measure 98
0000
0000
0000
0000
,  // measure 99
0000
0000
0000
0000
,  // measure 100
0000
0000
0000
3003
;

//---------------dance-single - ----------------
#NOTES:
     dance-single:
     :
     Medium:
     9:
     0.498,0.591,0.229,0.506,0.000:
0000
0000
0000
0000
,
0000
0000
0000
0000
,
0000
0000
0000
0000
,
0000
0000
0000
0000
,
0010
0000
0000
0000
,
0010
0000
0000
0000
,
0100
0000
0000
0000
,
0100
0000
0000
0001
,
0001
1000
1000
0010
,
0100
0000
0001
1000
0002
0000
1003
0000
,
0100
0010
0100
1000
,
0010
0000
0100
0010
0200
0000
0310
0000
,
1000
0000
0100
0000
0010
0000
0000
0001
,
1000
0010
0200
0301
,
1000
0100
1000
0000
0001
0000
0010
0000
,
0200
0000
0010
0310
,
1001
0010
0100
0001
,
1000
0001
1000
0000
0002
0000
1003
0000
,
0010
0100
0001
0010
,
0100
0000
1000
0100
2000
0000
3010
0000
,
0100
0000
0001
0000
1000
0000
0000
0001
,
0010
0001
0200
0301
,
1000
0000
0010
0000
0100
0001
0000
0001
,
1000
0001
0010
0110
,
0020
0001
0000
0031
,
1000
0100
0010
0001
,
2000
0100
0000
3100
,
0020
1000
0000
1030
,
0200
0010
0000
0310
,
0001
1000
0010
0100
,
0002
0100
0000
0103
,
0010
1000
0001
1000
,
0001
0010
0100
0010
,
0001
0000
1000
0100
2000
0000
3001
0000
,
0100
0010
0100
0001
,
1000
0000
0001
1000
0002
0000
0013
0000
,
0001
0000
0100
0000
0010
1000
0000
1000
,
0010
0100
0020
1030
,
0001
0010
0100
1000
,
0200
0300
0020
0030
,
0100
1000
0001
0100
,
0010
0000
0100
0001
0200
0000
0301
0000
,
1000
0100
0010
0001
,
1000
0000
0100
1000
0200
0000
1300
0000
,
0010
1000
0001
0100
,
0001
1000
0020
0130
,
0001
1000
0001
0010
,
0220
0330
2002
3003
,
2001
0010
0000
3010
,
0001
0100
0010
1000
,
0002
0010
0000
0013
,
0200
1000
0000
1300
,
0002
1000
0000
1003
,
0100
0010
1000
0001
,
2000
0100
0000
3100
,
0020
0001
0000
0031
,
1001
0000
0000
0120
0000
0000
1030
0000
,
0101
0000
0000
2100
0000
0000
3010
0000
,
1001
0000
0000
0102
0000
0000
1003
0000
,
0110
0000
0000
0120
0000
0000
0130
0000
,
2001
0000
0000
3001
0000
0000
1001
0000
,
0012
0000
0000
0013
0000
0000
0101
0000
,
2010
0000
0000
3010
0000
0000
1100
0000
,
0120
0000
0000
0130
0000
0000
0110
0000
,
0010
1000
0001
0100
,
0001
0000
0010
0000
0100
0000
1000
0100
,
1000
0001
1000
0010
,
0100
0000
0010
0000
1000
0000
0001
0010
,
0001
1000
0100
1000
,
0010
0000
0100
0000
0001
0000
1000
0010
,
0001
0010
1000
0100
,
0010
0000
0100
0000
1000
0000
0001
0010
,
1000
0010
0001
0100
,
0010
0000
1000
0000
0001
0000
1000
0001
,
0100
0001
0010
0100
,
1000
0000
0100
0000
0010
0000
0001
0100
,
0010
1000
0010
1000
,
0001
0000
0100
0000
0010
0000
1000
0001
,
1000
0001
0010
0100
,
0010
0110
1001
0110
,
2000
0000
3010
0000
0000
1000
0010
0000
,
0002
0000
0013
0000
0000
0001
0010
0000
,
0200
0000
0310
0000
0000
0100
0010
0000
,
1000
0001
0100
0010
,
2000
3100
0020
0031
,
2000
3001
0200
0310
,
0200
0300
0220
0330
,
0010
1000
0001
0100
,
0002
0000
0013
0000
0000
0100
1000
0000
,
0200
0000
1300
0000
0000
0010
1000
0000
,
0020
0000
0130
0000
0000
0001
1000
0000
,
0002
0013
0200
1300
,
0020
0130
0002
1003
,
0020
2030
3002
0203
,
0320
0030
0220
0330
,
0010
1000
1001
0110
,
2002
0000
0000
0000
,
0000
0000
0000
0000
,
0000
0000
0000
0000
,
0000
0000
0000
3003
;

//---------------dance-single - ----------------
#NOTES:
     dance-single:
     :
     Hard:
     12:
     0.672,0.670,0.269,0.506,0.040:
0000
0000
0000
0000
,
0000
0000
0000
0000
,
0000
0000
0000
0000
,
0000
0000
0000
0000
,
0001
0000
0000
0000
,
0001
0000
0000
0000
,
1000
0000
0000
0000
,
1000
0000
0000
0000
0010
0000
0100
0001
,
1000
0000
0010
1000
0010
0100
0010
0000
,
1000
0100
0010
0100
2000
0000
3001
0000
,
0100
0000
0000
0001
0000
0000
0001
0000
0010
0000
0000
0100
0000
0000
1000
0000
,
0000
0001
1000
0001
0020
0000
0130
0000
,
0010
0100
0010
0001
0100
0010
1000
0010
,
0100
0000
0000
0001
0000
0000
2000
0000
0000
0000
0000
0000
3100
0000
0000
0000
,
1000
0001
0100
0001
1000
0000
1001
0000
,
0120
0000
0100
0130
,
1001
0000
0001
0100
0010
0000
1000
0100
,
0010
0100
1000
0001
0200
0000
0310
0000
,
1000
0010
1000
0100
0001
0000
1001
0000
,
0001
0010
0100
1000
0020
0000
0031
0000
,
0010
1000
0010
1000
0100
0001
0100
0001
,
0100
0000
0000
1000
0000
0000
0002
0000
0000
0000
0000
0000
1003
0000
0000
0000
,
0001
1000
0001
1000
0010
0100
0000
0100
,
0001
1000
0010
0100
0001
0000
1100
0000
,
0002
0010
0000
0013
,
0100
0010
1000
0001
,
2100
0000
0001
0000
0001
0001
0000
0001
,
0000
0000
0010
0000
0010
0010
3010
0000
,
0200
0001
0000
0301
,
1000
0100
0010
0001
,
0102
0000
1000
0000
1000
1000
0000
1000
,
0000
0000
0100
0000
0100
0100
0103
0000
,
1000
0000
0100
0010
0100
0000
1001
0000
,
0010
0100
0002
0000
2003
0000
3010
0000
,
0001
0000
0000
0100
0000
0000
0001
0000
1000
0000
0000
0010
0000
0000
1000
0000
,
0000
0001
0100
0010
0200
0000
0301
0000
,
2000
0000
3100
0010
0200
0000
1300
0001
,
0100
0000
0000
0010
0000
0000
0200
0000
0000
0000
0000
0000
1300
0000
0000
0000
,
0001
0100
0010
1000
0001
0000
1001
0000
,
0120
0000
0100
0130
,
1000
0000
0001
0100
0010
0000
2000
0000
,
0000
0001
3001
0000
1002
0000
0013
0000
,
1000
0000
0000
0100
0000
0000
0001
0000
0100
0000
0000
1000
0000
0000
0001
0000
,
0000
0100
0010
0100
0002
0000
1003
0000
,
0010
1000
0010
1000
0001
0010
0001
0010
,
0100
0000
0000
0110
0000
0000
2001
0000
0000
0000
0000
0000
3001
0000
0000
0000
,
0100
0010
0100
0010
1000
0001
1000
0001
,
1000
0100
0010
0001
2000
0000
3100
0000
,
2100
0010
0000
3010
,
0100
0001
1000
0001
,
0012
0000
1000
0000
1000
1000
0000
1000
,
0000
0100
0100
0000
0010
0010
0013
0000
,
0102
0010
0000
0013
,
1000
0010
0001
0100
,
2001
0000
0010
0000
0001
0001
0000
0001
,
0000
0100
0100
0000
0010
0010
3001
0000
,
1001
0000
0010
0100
0000
0001
1000
0001
,
1001
0000
1000
0100
0000
0010
0001
0100
,
0110
0000
0010
1000
0000
0001
0100
0001
,
0101
0000
1000
0100
0000
0010
0100
1000
,
1001
0000
1000
0010
0000
0100
0010
0100
,
0110
0000
0010
1000
0000
0001
0010
0100
,
1100
0000
0001
0010
0000
0001
0100
0001
,
0011
0000
0001
0200
0000
0000
0310
0000
,
1000
0010
1000
0010
1000
0001
1000
1000
,
0001
0100
0001
0100
0001
0010
0001
0001
,
1000
0001
0100
0010
1000
0001
0100
0100
,
0010
1000
0001
0100
0001
0010
0002
0000
,
0103
0001
1000
0010
0100
0001
1000
1000
,
0100
0010
0100
1000
0001
0100
0010
0010
,
0100
0001
1000
0001
0100
0001
0010
0010
,
1000
0010
0001
0100
0010
1000
0002
0000
,
1003
0100
0010
0100
1000
0001
0100
0100
,
0001
0010
0001
0100
0010
1000
0001
0001
,
0010
0001
0010
0100
1000
0100
1000
1000
,
0010
0100
0001
1000
0001
0100
0020
0000
,
0130
0001
0100
0010
0100
0001
0100
0100
,
0010
1000
0010
0100
0010
0001
0010
0010
,
1000
0100
1000
0001
1000
0100
1000
1000
,
0001
0010
0001
0100
0010
1000
0002
0000
,
1003
0100
1000
0000
0001
0100
0001
0000
,
1000
0010
1000
0000
0001
0100
1000
0000
,
0010
0001
0100
0000
1000
0100
0010
0000
,
2000
3200
0320
0031
,
0200
0302
2003
3010
,
0200
0320
2030
3001
,
0020
0130
0220
0330
,
1000
1001
0110
1001
,
0001
0100
0020
0000
1030
0100
0020
0000
,
0130
1000
0002
0000
0103
0001
2000
0000
,
3010
0100
0002
0000
0013
0001
0200
0000
,
0320
2030
3002
0103
,
0002
0023
2030
3010
,
0002
0203
2300
3100
,
2000
3100
0022
0033
,
0001
0101
1010
1100
,
2002
0000
0000
0000
,
0000
0000
0000
0000
,
0000
0000
0000
0000
,
0000
0000
0000
3003
;
