#TITLE:EXUSIA;
#SUBTITLE:;
#ARTIST:L.E.D.-G;
#TITLETRANSLIT:;
#SUBTITLETRANSLIT:;
#ARTISTTRANSLIT:;
#GENRE:;
#CREDIT:;
#MENUCOLOR:;
#METERTYPE:DDR;
#BANNER:EXUSIA.png;
#BACKGROUND:EXUSIA-bg.png;
#LYRICSPATH:;
#CDTITLE:./CDTITLES/BEATMANIA IIDX.PNG;
#MUSIC:EXUSIA.ogg;
#OFFSET:0.000;
#SAMPLESTART:79.149;
#SAMPLELENGTH:15.000;
#SELECTABLE:YES;
#LISTSORT:;
#BPMS:0.000=188.000,168.000=94.000,185.000=188.000;
#STOPS:168.000=1.914894
,221.000=0.638298
;
#BGCHANGES:;
#ATTACKS:;

//---------------dance-single - ----------------
#NOTES:
     dance-single:
     :
     Beginner:
     4:
     0.153,0.243,0.055,0.000,0.000:
0000
0000
0000
0000
,
0000
0000
0000
0000
,
0000
0000
0000
0000
,
0000
0000
0000
0000
,
0000
0000
0000
0000
,
0000
0000
0000
0000
,
0000
0010
0000
0010
,
0000
0100
0000
0100
,
0000
0001
0000
0001
,
0000
1000
0000
1000
,
1000
0000
0000
0000
,
0001
0000
0000
0000
,
0100
0000
0000
0000
,
0010
0000
0000
0000
,
1000
0000
0000
0000
,
0100
0000
0000
0000
,
0010
0000
0000
0000
,
0001
0000
0000
0000
,
1001
0000
0000
0000
,
0000
1000
0000
1000
,
0000
0001
0000
0000
,
0000
0001
0000
0001
,
0000
0100
0000
0000
,
0000
0010
0000
0010
,
0000
1000
0000
0000
,
0000
0000
0000
0000
,
0001
0000
0000
0010
,
0010
0000
0000
0100
,
0100
0000
0000
0000
,
1000
0000
0000
0000
,
0010
0000
0000
0100
,
0100
0000
0000
0001
,
0001
0000
0000
0000
,
1000
0000
0000
0000
,
0001
0000
0000
1000
,
1000
0000
0000
0001
,
0001
0000
0000
0000
,
0010
0000
0000
0000
,
0100
0000
0000
0010
,
0010
0000
0000
0100
,
0100
0000
0000
0000
,
1000
0000
0001
0000
,
0000
0010
0000
0100
,
0000
0100
0000
0010
,
0000
1000
0000
0001
,
0000
1000
0000
0001
,
0000
1001
0000
0000
,
0000
1000
0000
0000
,
0001
0001
0000
0000
,
0000
0010
0000
0010
,
0010
0010
0000
0000
,
0000
0100
0000
0000
,
0000
1000
0000
0000
,
0000
0001
0000
1000
,
0000
1001
0000
0000
,
0000
0000
0000
0100
,
0000
0000
0000
0010
,
0000
1000
0000
1000
,
0000
0000
0000
0001
,
0000
0010
0000
0010
,
0000
0000
0000
0100
,
0000
0100
0000
0010
,
0000
0000
0000
0001
,
0000
1000
0000
0001
,
0000
0000
0000
1000
,
0000
0100
0000
0010
,
0000
0000
0000
0001
,
0000
0100
0000
0001
,
0000
0000
0000
1000
,
0000
0010
0000
0000
,
1001
0000
0110
0000
,
1001
0000
0000
0001
,
0000
0001
0000
0001
,
0000
0001
0000
0010
,
0000
0010
0000
0010
,
0000
0010
0000
0100
,
0000
0100
0000
0100
,
0000
0100
0000
1000
,
0000
1000
0000
1000
,
0000
1000
0000
0010
,
0000
0000
0100
0100
,
0000
0000
0001
0001
,
0000
0000
1000
1000
,
0000
0000
0000
0001
,
0000
0000
1000
1000
,
0000
0000
0001
0001
,
0000
0100
0000
0010
,
0000
0100
0000
1001
;

//---------------dance-single - ----------------
#NOTES:
     dance-single:
     :
     Easy:
     7:
     0.382,0.466,0.214,0.095,0.016:
0000
0000
0000
0000
,
0000
0000
0000
0000
,
0000
0000
0000
0000
,
0000
0000
0000
0000
,
0000
0000
0000
0000
,
0000
0000
0000
0000
,
0001
1000
0000
1000
,
0001
1000
0000
1000
,
0100
0010
0000
0010
,
0000
0100
0100
0100
,
0010
0001
1000
0100
,
0010
0001
1000
0010
,
1000
0100
0010
0001
,
1000
0100
0010
0100
,
1000
0010
0100
0001
,
1000
0010
0100
0001
,
1000
0001
0100
0010
,
0100
0100
0010
0100
,
1001
0000
0000
0001
0000
0000
1000
0000
,
0000
0100
0010
0100
,
1000
0000
0000
0001
0000
0000
1000
0000
,
0000
0010
0010
0010
,
0100
0000
0000
0010
0000
0000
0100
0000
,
0000
0010
0000
1000
,
0001
0000
0000
0010
0000
0000
0100
0000
,
1000
0100
0010
0001
,
1000
0000
0000
0010
0000
0000
0100
0000
,
0001
0000
0000
0010
0000
0000
0100
0000
,
1000
0001
1000
0010
,
0100
0000
0000
0010
0000
0000
0100
0000
,
1001
0000
0000
0010
0000
0000
0100
0000
,
0010
0000
0000
0001
0000
0000
1000
0000
,
0100
0100
1000
0001
,
1000
0000
0000
0001
0000
0000
1001
0000
,
0010
0100
0001
0100
,
0010
0100
1000
0100
,
0010
1000
0100
0001
,
0100
1000
0010
0001
,
0110
1000
1000
1000
,
0110
0001
0001
0001
,
0100
0010
0100
0001
,
1000
0000
0000
0001
0000
0000
1001
0000
,
0010
0000
0200
0000
0000
0310
2000
0000
,
0000
3001
0020
0000
0000
0130
0020
0000
,
0000
0031
0200
0000
0000
0310
2000
0000
,
3002
0000
2003
0000
0000
3100
0020
0000
,
0000
0130
1001
0000
0010
0000
0000
0000
,
0010
1001
0100
0000
,
0110
1001
0001
0000
,
0001
1001
0000
1000
,
1001
0110
0010
0010
,
0010
0110
0100
0100
,
0100
1001
0000
0110
,
0000
1001
1100
0101
,
1010
2001
0000
0000
,
0000
3001
0100
0010
,
0000
0010
0000
0000
1000
0000
0001
0000
,
1000
0001
0010
0100
,
0100
0100
0010
0001
,
0001
0001
1000
0010
,
0000
1000
0000
0000
0010
0000
0100
0000
,
0100
0010
1000
0100
,
0010
0100
0001
0100
,
1000
0100
0010
0001
,
0000
0100
0000
0000
0010
0000
1000
0000
,
0001
1000
0010
1000
,
1000
1000
0100
0010
,
0010
0010
0001
1000
,
0000
0010
0000
0000
0001
0000
0010
0000
,
0100
0010
0001
0100
,
1001
0010
1001
1000
,
1001
0000
0001
1000
0000
1000
0001
0000
,
0010
0100
1000
0001
,
0010
0100
1000
0001
,
0100
0010
1000
0001
,
0100
0010
1000
1001
,
0100
0010
0001
1000
,
0100
0010
0001
1000
,
0010
0100
0001
1000
,
0100
0001
0100
1100
,
1000
1000
1000
0010
,
0010
0010
0010
0100
,
0100
0100
0100
0001
,
0001
0001
0001
1000
,
1000
0000
0001
1000
0001
0000
0100
0000
,
0100
0000
0000
0000
0010
0000
0100
0000
0010
0000
0000
0000
1000
0000
0000
1000
,
0000
0000
0000
0000
0001
0000
0000
0001
0000
0000
0000
0000
0010
0000
0000
0010
,
0000
0000
0000
0000
0100
0000
0000
0100
0000
0000
0000
0000
2002
0000
0000
0000
,
0000
0000
0000
0000
,
0000
0000
0000
0000
,
0000
0000
3003
0000
;

//---------------dance-single - ----------------
#NOTES:
     dance-single:
     :
     Medium:
     11:
     0.536,0.788,0.261,0.087,0.241:
0000
0000
0000
0000
,
0000
0000
0000
0000
,
0000
0000
0000
0000
,
0000
0000
0000
0000
,
0000
0000
0000
0000
,
0000
0000
0000
0000
,
0000
0001
0010
0000
0000
0001
1000
0000
,
0000
1000
0010
0000
0000
1000
0001
0000
,
0000
0100
0010
0000
0000
0100
0001
0000
,
0000
0100
0000
0100
0010
0000
0110
0000
,
0001
0010
0100
0000
1000
0010
0100
0000
,
0001
0000
0010
0000
0100
0000
0000
0000
1000
0000
0000
0001
0000
0000
1000
0000
,
0010
1000
0100
0000
0010
0001
0100
0000
,
0010
0010
0100
0001
,
1000
0100
0010
0000
0001
0010
0100
0000
,
0010
0001
1000
0000
0010
1000
0001
0000
,
1000
0001
0100
0000
0001
1000
0001
0000
,
0000
1000
0000
1000
0001
0000
1001
0000
,
0010
0000
0010
0100
0000
0100
0001
1000
,
0000
0001
0010
0000
0000
0100
1000
0000
,
0010
0000
1000
0100
0000
0100
0010
0001
,
0000
0100
0010
0100
0010
0100
0010
0000
,
1000
0000
0001
0100
0000
0010
1000
0001
,
0000
1000
0100
0000
0000
1000
0010
0000
,
0100
0000
0001
1000
0000
0001
0010
0100
,
0010
0001
1000
0001
,
1001
0000
0000
0010
0000
0000
0100
0000
,
0001
0000
0000
0010
0000
0000
0100
0000
,
1000
0000
0010
0000
1000
0000
0000
0000
0001
0000
0000
0001
0000
0000
0100
0000
,
0001
0000
0000
0001
0000
0000
0010
0000
0000
0100
0000
0000
1000
0000
0100
0000
,
0010
0000
0000
0100
0000
0000
1000
0000
,
0010
0000
0000
0100
0000
0000
0001
1000
,
0001
0010
0001
0000
0100
0000
0100
0000
,
0110
0000
0000
1001
0000
0000
1010
0000
,
0001
0000
0010
0000
0100
1000
0100
0000
,
1000
0000
0010
0000
0100
0001
0100
0000
,
0001
0000
1000
0000
0001
0000
0000
0000
1000
0000
0000
1000
0000
0000
0010
0000
,
1000
0000
0000
1000
0000
0000
0100
0000
0000
0010
0000
0000
0001
0000
0100
0000
,
0010
0000
0000
0100
0000
0000
0010
0000
0000
0110
0000
0000
1000
0000
0000
0000
,
0010
0000
0000
0100
0000
0000
0010
0000
0000
0110
0000
0000
0001
0000
0000
0000
,
1000
0000
0001
0000
0100
0000
0000
0000
0001
0000
0000
0001
0000
0000
1000
0000
,
0001
0000
0000
1001
0000
0000
0010
0000
0000
0110
0000
0000
0001
0000
1000
0000
,
0100
0000
0000
0000
0010
0000
0000
0100
0000
1000
0100
0000
0010
0000
0000
0001
,
0000
1000
0010
0000
0100
0000
0000
0001
0000
0100
0010
0000
0100
0000
0001
1000
,
0000
1000
0001
0000
1000
0000
0100
1000
0000
0001
0100
0001
0000
1000
0010
1000
,
0000
0001
0010
0000
0100
0000
0010
0001
0000
1000
0010
0100
0010
0000
0100
0000
,
0001
1000
1001
0000
0010
0000
0000
1000
,
1000
0000
1001
0000
0010
0000
0000
0001
,
1000
0000
1001
0000
0010
0000
0000
1000
,
1000
0110
0001
0110
,
1001
0000
1100
0000
0100
0000
0100
0010
,
0100
0000
0011
0000
0010
0000
0010
0001
,
0010
0000
0000
0000
0001
0000
0000
0001
0000
0000
0001
0000
1000
0000
0000
1000
,
0000
0000
1000
0000
0010
0000
0100
0000
0010
0000
0000
0000
1001
0000
0000
0110
,
0000
0001
2000
0000
0000
0000
0000
0000
,
0000
0000
0000
0000
3001
0000
0000
0000
0100
0000
0100
0000
0100
0000
0000
0010
,
0000
0000
0100
0000
0000
0000
0000
0000
0001
0000
0010
0000
0100
0000
0000
0100
,
0000
0000
0100
0000
0010
0000
0000
0010
0000
0000
0010
0000
0001
0000
0000
1000
,
0000
0000
0001
0000
0100
0000
0000
0000
0010
0000
1000
0000
0010
0000
0000
0010
,
0000
0000
1000
0000
0010
0000
0000
0000
1000
0000
0100
0000
0010
0000
0000
0100
,
0000
0000
1000
0000
0000
0000
0000
0000
0100
0000
1000
0000
0001
0000
0000
0100
,
0000
0000
0010
0000
0100
0000
0000
0001
0000
0000
0100
0000
0010
0000
0000
0010
,
0000
0000
0010
0000
1000
0000
0000
1000
0000
0000
1000
0000
0001
0000
0000
0001
,
0000
0000
0001
0000
0010
0000
0000
0010
0000
0000
0010
0000
0100
0000
0000
0000
,
0010
0000
0110
0000
0000
0000
0000
0000
0001
0000
1000
0000
0001
0000
0000
0001
,
0000
0000
0001
0000
1000
0000
0000
1000
0000
0000
1000
0000
0010
0000
0000
0100
,
0000
0000
0010
0000
1000
0000
0000
0000
0100
0000
1000
0000
0010
0000
0000
0100
,
0000
0000
0001
0000
1000
0000
0000
0000
0001
0000
0010
0000
0001
0000
0000
1000
,
0000
0000
0010
0000
0000
0000
0000
0000
1000
0000
0100
0000
0010
0000
0000
0010
,
0000
0000
0010
0000
0100
0000
0000
0100
0000
0000
0100
0000
1000
0000
0001
0000
,
1000
0000
0001
1000
0001
0000
0100
0010
,
0100
0000
0010
1001
0000
0110
0002
0000
,
0010
0100
1003
2000
,
0010
0100
3001
0200
,
0010
1000
0301
0020
,
0001
1000
0031
2000
,
0100
0001
3010
0002
,
0100
1000
0013
0200
,
0010
1000
0301
0020
,
0001
0100
1030
0011
,
0001
0000
0010
0000
0000
0000
0000
0000
0010
0000
0001
0000
0100
0000
0000
0010
,
0000
0000
1000
0000
0100
0000
0000
0001
0000
0000
0100
0000
1000
0000
0000
0010
,
0000
0000
0001
0000
0010
0000
0000
0000
1000
0000
0100
0000
0010
0000
0000
0001
,
0000
1000
0001
0000
0100
0010
1001
0000
,
0100
0000
0100
0010
0100
0000
1001
0000
,
0010
0000
0000
0000
0010
0000
0100
0000
0010
0000
0000
0000
1001
0000
0000
1000
,
0000
0000
0001
0000
1001
0000
0000
0001
0000
0000
1000
0000
0110
0000
0000
0010
,
0000
0000
0100
0000
0110
0000
0000
1001
0000
0000
1100
0000
2002
0000
0000
0000
,
0000
0000
0000
0000
,
0000
0000
0000
0000
,
0000
0000
3003
0000
;

//---------------dance-single - ----------------
#NOTES:
     dance-single:
     :
     Hard:
     15:
     0.726,0.967,0.364,0.063,0.483:
0000
0000
0000
0000
,
0000
0000
0000
0000
,
0000
0000
0000
0000
,
0000
0000
0000
0000
,
0000
0000
0000
0000
,
0000
0000
0000
0000
,
0000
0001
0100
0000
0000
0001
1000
0000
,
0000
1000
0100
0000
0000
1000
0001
0000
,
0000
0010
0000
0100
0000
1000
0010
0000
,
0000
0100
0010
0010
0100
0001
1000
0000
,
0001
0010
0100
0000
1000
0010
0100
0000
,
0010
0000
1000
0000
0001
0000
0000
0000
0100
0000
0000
0001
0000
0000
1000
0001
,
1000
0010
0100
0001
1000
0001
0001
0000
,
0000
1000
0100
0010
0100
1000
1000
0000
,
0010
1000
0100
0000
0010
0001
1000
0000
,
0001
0100
0010
0000
0100
0001
1000
0000
,
0001
0010
0000
0110
0000
0001
0001
0000
,
0000
0000
1000
0000
1000
0000
1000
0000
0001
0000
0100
0001
0100
0000
0001
1000
,
0001
0000
0001
1000
0000
0000
0001
0000
0000
0000
1000
0000
0100
0000
0010
0000
,
0000
0100
1000
0000
0000
0001
0100
0000
,
0010
0000
0010
0100
0000
0000
0010
0000
0000
0000
0100
0000
0001
0000
1000
0000
,
0000
0000
0001
0000
0001
0000
0001
0000
0010
0000
0100
1000
0000
0000
0000
0000
,
0010
0000
0010
1000
0000
0000
0001
0000
0000
0000
1000
0000
0001
0000
0010
0000
,
0000
0001
0100
0000
0000
1000
0100
0000
,
0001
0000
0001
0010
0000
0000
0001
0000
0000
0000
1000
0000
0100
0000
0010
0000
,
0100
1000
0010
0100
0110
0001
1000
0000
,
0001
0010
0000
0001
0000
0000
0100
0000
0000
0100
0000
0000
0010
0000
1000
0000
,
0100
0010
0000
0100
0000
0000
1000
0000
0000
1000
0000
0000
0001
0000
0100
0000
,
0001
0000
0001
0000
1000
0000
0000
0000
0001
0000
0000
1000
0000
0000
0010
0000
,
0100
0000
0000
0100
0000
0000
0001
0000
0000
1000
0000
0000
0001
0000
0010
0000
,
0100
0010
0000
0100
0000
0000
0010
0000
0000
0010
0000
0000
0001
0000
0100
0000
,
0010
0100
0000
0010
0000
0000
0100
0000
0000
0100
0000
0000
0001
0000
1000
0000
,
0001
0000
0001
0000
1000
0000
0000
0000
0100
0000
0000
1000
0000
0000
0010
0000
,
0100
0000
0000
0110
0000
0000
1001
0000
0000
0101
0000
0000
1000
0000
0010
0000
,
0100
0001
0000
0010
0000
0000
1000
0000
0000
0010
0000
0000
0001
0000
0100
0000
,
0010
1000
0000
0100
0000
0000
0001
0000
0000
0100
0000
0000
1000
0000
0010
0000
,
0100
0000
0001
0000
1000
0000
0000
0000
0010
0000
0000
0010
0100
0000
0001
0000
,
1000
0000
0000
1000
0010
0000
0100
0000
0000
0100
0001
0000
1000
0000
0100
0000
,
0010
0100
0000
1000
0000
0000
0100
0000
0000
0011
0000
0000
0100
0000
0001
0000
,
0100
0010
0000
1000
0000
0000
0001
0000
0000
1001
0000
0000
1000
0000
0100
0000
,
0011
0000
0001
0000
0100
0000
0000
0000
0010
0000
0000
0100
0000
0000
0010
0000
,
1001
0000
0000
0110
0000
0000
1100
0000
0000
0011
0000
0000
0001
1000
0001
1000
,
0200
0000
0000
0000
1300
0100
0010
0100
0000
0100
1000
0000
0001
0010
0100
0010
,
0000
0010
0001
0000
1000
0010
0100
0010
0000
0010
1000
0001
0100
0001
1000
0010
,
0000
0010
1000
0001
0100
0001
0100
0010
0000
0010
1000
0100
0000
0010
0001
1000
,
0000
1000
0001
0000
1000
0010
0100
0001
0000
0001
0100
0001
0010
0100
1000
0100
,
0010
0001
1000
0001
1001
0000
0000
0000
0010
0000
0000
0000
0000
0000
1000
0000
,
1000
0000
1001
0000
0010
0000
0000
0001
,
0110
0000
1001
0000
0100
0000
0000
1000
,
1000
0110
0001
0110
,
1001
0000
0110
0010
0010
0010
0100
0100
,
0001
0001
0110
0010
0010
0010
0100
0100
,
1000
0000
1000
0000
0001
0000
1000
0001
0100
0000
0001
0000
1000
0000
0001
1000
,
0010
0000
1000
0000
0100
0000
0100
0000
0010
0000
0000
0000
1001
0000
0000
0110
,
0000
1001
2010
0000
0000
0000
0000
0000
,
0000
0000
0000
0000
0002
3003
0000
0000
0100
0000
0100
0000
1000
0100
0000
0100
,
0000
0000
0020
0000
0000
0000
0031
0000
0100
0000
0001
0000
0010
0000
0000
0010
,
0001
0000
1000
0000
0010
0000
0000
0010
1000
0000
0001
0000
0100
0000
0000
0100
,
0010
0000
0100
0000
0100
0000
0000
0001
0100
0000
0010
0000
1000
0000
0000
1000
,
0001
0000
1000
0000
0100
0000
0010
0001
0100
0000
0010
1000
0001
1000
0000
1000
,
0000
0000
2000
0000
0000
0000
3100
0000
1000
0000
0100
0000
0010
0000
0000
0010
,
0100
0000
1000
0000
0100
0000
0000
0100
0010
0000
0001
0000
0100
0000
0000
0001
,
0100
0000
0010
0000
1000
0000
0000
0100
0010
0000
0100
0000
1000
0000
0000
0001
,
1000
0000
0001
0000
1000
0000
0010
0100
0010
0000
1000
0001
1000
0100
0000
0100
,
0000
0000
2000
0000
0000
0000
3001
0000
0100
0000
0001
0000
0100
0000
0000
0010
,
1000
0000
0100
0000
0010
0000
0000
0001
0010
0000
0100
0000
1000
0000
0000
0001
,
0100
0000
0001
0000
0010
0000
0000
0100
0010
0000
0001
0000
1000
0000
0000
0010
,
1000
0000
0010
0000
0100
0000
0001
1000
0001
0000
0100
0010
0100
0010
0000
0010
,
0000
0000
0200
0000
0000
0000
0301
0000
0010
0000
0100
0000
0010
0000
0000
0001
,
1000
0000
0010
0000
1000
0000
0000
0100
0010
0000
0100
1000
0001
0000
1000
0000
,
1001
0000
1000
0001
1001
0000
0100
0010
,
1010
0000
0001
0101
0000
1100
1001
0010
,
0100
1000
0001
0010
0100
1000
0001
0010
,
1000
0010
0001
0010
1000
0010
0001
0100
,
0010
1000
0001
0100
0010
1000
0001
0100
,
1000
0000
0100
0000
0001
0000
0010
0100
0010
0000
0001
0000
1001
0000
0010
0000
,
0100
0001
1000
0010
0100
0001
1000
0100
,
0001
0100
1000
0010
0001
0010
1000
0100
,
0010
0001
1000
0010
0100
0001
1000
0001
,
0100
0000
0010
0000
0100
0000
0001
1000
0001
0000
0010
0100
0010
0000
0000
0000
,
0011
0011
0011
0100
,
1100
0000
1100
0000
1001
1000
0001
0000
,
1001
1001
1001
0110
,
0110
0000
0000
0000
0010
0000
0100
0001
1000
0000
0001
1000
0100
0000
0100
0000
,
0100
0100
0010
0100
1000
0100
0010
0010
,
0010
0000
0010
0000
0001
0000
0100
0000
0010
0000
0100
0000
1001
0000
0001
1000
,
0100
0000
1000
0000
1001
0000
1000
0001
0100
0000
0001
0000
0110
0000
0010
1000
,
0100
0000
0010
0001
1000
0000
0010
0100
0001
0000
1000
0001
0020
0000
0000
0000
,
0000
0000
0000
0000
,
0000
0000
0000
0000
,
0000
0000
0030
0000
;

//---------------dance-single - ----------------
#NOTES:
     dance-single:
     :
     Challenge:
     17:
     0.952,1.000,0.499,0.174,0.887:
0000
0000
0000
0000
,
0000
0000
0000
0000
,
0000
0000
0000
0000
,
0000
0000
0000
0000
,
0000
0000
0000
0000
,
0000
0000
0000
0000
,
0010
0000
1000
0010
1000
0000
0100
0000
0010
0000
0100
1000
0000
0100
1000
0000
,
0001
0000
0100
0010
0100
0000
0001
0000
0100
0000
0001
0010
0000
0001
0010
0000
,
0100
0000
0010
0001
0010
0000
0001
0000
1000
0000
0010
0100
0000
0001
1000
0000
,
0100
0000
0010
0100
0010
0000
0100
0000
1000
0000
1000
0000
0001
1000
0001
1000
,
0010
0000
1000
0100
0010
0000
0001
0000
1000
0000
0010
1000
0100
0000
1000
0000
,
0001
0000
0010
0001
0100
0000
0001
0000
0100
0000
0010
0100
0000
0001
1000
0001
,
0010
0000
0001
0010
0100
0000
1000
0000
0001
0000
1000
0010
0100
0000
0010
0000
,
1000
0000
0001
1000
0010
0000
0100
0000
0010
0000
1000
0100
0000
1000
0001
1000
,
0010
1000
1100
0000
1001
0010
1010
0000
,
0100
0001
0101
0000
1001
0010
0011
0000
,
1000
1100
0001
0101
1000
1001
1010
0000
,
0100
0000
0010
0100
0010
0000
0100
0000
0001
0000
0001
0000
1000
0001
1000
0001
,
0010
0000
0001
0010
0100
0000
0010
0000
0001
0000
1000
0000
0010
0000
0100
0000
,
0010
0000
1000
0001
0100
0000
0001
0000
1000
0000
0001
0000
1001
0000
0000
0000
,
1000
0000
0010
1000
0010
0000
0100
0000
0001
0000
0010
0000
0001
0000
1000
0000
,
0001
0000
1000
0000
1000
0000
0010
0000
0010
0000
0100
0001
1000
0001
1000
0001
,
0010
0001
0101
0000
1010
0001
1001
0000
,
0010
0100
1100
0000
0011
1000
1001
0000
,
0010
0000
0100
0010
0100
0000
0001
0000
1000
0000
0001
0000
1000
0000
0100
0000
,
0011
0000
0100
0010
1000
0000
0001
0000
0100
0000
0010
0100
0010
0000
1000
0001
,
1000
0100
0000
0001
0000
0000
0100
0000
0000
1000
0000
0000
0010
1000
0001
0000
,
0100
0001
0000
1000
0000
0000
0010
0000
0000
0001
0000
0000
0010
1000
0001
0000
,
1000
0000
0010
0000
1010
0000
0000
0000
0101
0000
0000
0001
0100
0000
0001
0000
,
0011
0000
0001
0010
0000
0000
0100
0000
0000
0100
1000
0000
0100
0010
0001
0000
,
1000
0010
0000
0001
0000
0000
0010
0000
0000
1000
0000
0000
0100
1000
0001
0000
,
0010
0001
0000
0010
0000
0000
1000
0000
0000
0010
0000
0000
0100
1000
0001
0000
,
0010
0000
0001
0000
0110
0000
0000
0000
1100
0000
0000
0011
0000
0000
0001
1000
,
0110
0000
0000
1001
0000
0000
0101
0000
0000
1100
0000
0000
0001
0010
0001
0010
,
0100
0010
0000
0010
0001
0000
0100
0000
0010
0000
1000
0000
0001
0100
0001
0000
,
1000
0100
0000
0100
1000
0000
0010
0000
0100
0000
0001
0000
1000
0010
0100
0000
,
0010
0000
1000
0000
1010
0000
0000
0000
1100
0000
0000
0100
1000
0000
0100
0000
,
0010
0001
0000
1000
0001
0000
0100
0001
0000
0100
0010
0000
0100
0001
1000
0000
,
0001
0010
0000
0010
0100
0000
0010
0001
0000
1000
0010
0000
0100
0001
1000
0000
,
0010
1000
0000
1000
0001
0000
1000
0100
0000
0010
0001
0000
0100
0010
0100
0000
,
1001
0000
0001
0000
0101
0000
0000
0000
1100
0000
0000
0010
0000
0000
0001
0000
,
1001
0100
0000
0100
1001
0000
0110
0001
0000
1000
0110
0000
1000
0001
1000
0001
,
0020
0000
0000
0000
0130
1000
0010
0002
0000
0013
1000
0100
0001
0100
1000
0020
,
0000
0130
0001
0000
1000
0100
0001
0200
0000
1300
0010
0001
0010
1000
0001
0200
,
0000
0301
0010
0100
0001
0010
0100
0002
0000
1003
0100
0020
0000
1030
0100
0020
,
0000
1030
0001
0000
1001
0010
0100
2000
0000
3100
0010
0001
1000
0010
0001
1000
,
0100
0001
1000
0010
1001
0000
0010
0000
0100
0000
0002
0000
0000
0000
1003
0000
,
0110
0000
1001
0010
0100
2000
0000
3001
,
1001
0000
1100
0010
0001
0200
0000
0310
,
0110
0000
0101
0010
1000
0001
1000
0000
,
0001
0000
1001
0100
0100
0100
1000
0010
,
0001
0010
1001
0100
0100
0100
0001
0010
,
1000
0000
0010
0000
1001
0000
0001
1000
0100
0000
1000
0000
1001
0000
1000
0001
,
0100
0000
0010
0000
0100
0000
0010
0000
2010
0000
0000
0000
3001
0000
0000
1001
,
0000
0110
2002
0000
0000
0000
0000
0000
,
0003
0000
0000
0000
0020
3030
0000
0000
0100
0000
0100
0000
0010
1000
0000
0001
,
0000
0000
2000
0000
0000
0000
3001
0000
0010
0000
0100
0000
0010
0000
0000
0010
,
0001
0000
1000
0000
0010
0000
0000
0010
0100
0000
0001
0000
1000
0000
0100
1000
,
0000
1000
0001
0000
0100
0001
0000
0100
0010
0000
0100
0000
0001
0000
1000
0001
,
0000
0001
0010
0000
0001
0000
0100
0010
0100
0000
0001
0000
1000
0010
0000
0100
,
0000
0000
0002
0000
0000
0000
0013
0000
0100
0000
1000
0000
0100
0000
0000
0100
,
0010
0000
0100
0000
1000
0000
0000
1000
0010
0000
1000
0000
0001
0000
0100
0001
,
0000
0100
0010
0000
1000
0000
0100
1000
0000
0100
0010
0000
0001
0000
0100
0000
,
0100
0000
0100
0000
0010
0000
1000
0001
0100
0000
0001
1000
0010
1000
0000
0001
,
0000
0000
0200
0000
0000
0000
0310
0000
1000
0000
0100
0000
0010
0000
0100
1000
,
0000
0100
1000
0000
0001
0000
0010
0001
0000
0010
0001
0000
1000
0000
0010
1000
,
0000
1000
0001
0000
0100
0001
0000
0001
0010
0000
0100
0000
0010
0000
0001
0010
,
0000
0010
0001
0000
1000
0000
0100
1000
0100
0000
0010
0001
0010
0100
0000
0010
,
0000
0000
0002
0000
0000
0000
0103
0000
0010
0000
0100
0000
0010
0000
0000
0010
,
1000
0000
0001
0000
0100
0000
0000
0100
0001
0000
1000
0001
0100
0000
0010
0000
,
1001
0000
0010
0100
1001
0000
1000
0001
,
0110
0000
0001
0000
0100
0000
0010
1000
0100
0000
0010
0001
1001
0000
0010
0000
,
0100
1000
0100
1000
0010
0000
0100
0000
0001
0100
0001
0100
0010
0000
0100
0000
,
0010
1000
0010
1000
0001
0000
1000
0000
0100
0010
0100
0010
0001
0000
1000
0000
,
0100
1000
0100
1000
0001
0000
0100
0000
0010
1000
0010
1000
0001
0000
1000
0000
,
0001
0010
0001
0010
0100
0000
0010
0001
0010
0000
0001
1000
0001
0000
1000
0000
,
0010
1000
0100
0010
0001
0000
0100
0000
0010
1000
0001
0100
0010
0000
0100
0000
,
0001
0010
0100
1000
0001
0000
1000
0000
0100
1000
0010
0100
0001
0000
1000
0000
,
0010
1000
0001
1000
0010
0000
0100
0000
0001
1000
0001
0010
0001
0000
1000
0000
,
0001
0000
0100
0001
0100
0000
0010
1000
0010
0000
1000
0001
1000
0001
0000
0100
,
0001
0000
0200
0000
0000
0000
0310
1000
0010
0000
0100
0000
0001
0000
0010
0001
,
0000
1000
0100
0000
0001
0000
0100
1000
0000
0010
0001
0010
0100
0000
0001
0100
,
0000
1000
0100
0000
0001
0010
0000
1000
0010
0000
0100
0000
1000
0000
0100
0010
,
0000
0001
1000
0000
0100
0000
0010
0100
0010
0000
1000
0001
0110
0000
0001
0000
,
0001
0000
0001
0000
1000
0100
0001
0100
1000
0000
1000
0000
0110
0000
1000
0000
,
1000
0000
1000
0000
0001
0100
1000
0100
0001
0000
0001
0000
0110
0000
1000
0001
,
0100
0000
0001
0000
1010
0000
0001
0010
0100
0000
1000
0000
0011
0000
1000
0100
,
0001
0000
0000
0000
0000
0000
0100
0000
0000
0000
0000
0000
1010
0000
0000
0000
0000
0000
0001
0000
0000
1000
0000
0000
0010
0000
0000
0000
0000
0000
1000
0000
0001
0000
1000
0000
0002
0000
0000
0000
0000
0000
0000
0000
0000
0000
0000
0000
,
0000
0000
0000
0000
,
0000
0000
0000
0000
,
0000
0000
0003
0000
;

//---------------dance-double - ----------------
#NOTES:
     dance-double:
     :
     Easy:
     7:
     0.397,0.464,0.277,0.087,0.000: // measure 1
00000000
00000000
00000000
00000000
,  // measure 2
00000000
00000000
00000000
00000000
,  // measure 3
00000000
00000000
00000000
00000000
,  // measure 4
00000000
00000000
00000000
00000000
,  // measure 5
00000000
00000000
00000000
00000000
,  // measure 6
00000000
00000000
00000000
00000000
,  // measure 7
01000000
00010000
00000000
00011000
,  // measure 8
00000100
00010000
00000000
01010000
,  // measure 9
00100000
01000000
00000000
00011000
,  // measure 10
00001000
00010000
00010000
00010000
,  // measure 11
00000100
00000010
00000001
00000010
,  // measure 12
00000100
00010000
00001000
00010000
,  // measure 13
01000000
00100000
00010000
10000000
,  // measure 14
00100000
01000000
00001000
00010000
,  // measure 15
00001000
00011000
00000000
00100000
,  // measure 16
00000000
00011000
00000000
00000100
,  // measure 17
00000000
00011000
00000000
00010000
,  // measure 18
00000000
00001000
00001000
00010000
,  // measure 19
00000010
00000000
00000000
00000100
00000000
00000000
00000001
00000000
,  // measure 20
00001000
00000001
00000010
00000100
,  // measure 21
00010000
00000000
00000000
00001000
00000000
00000000
00010000
00000000
,  // measure 22
01000000
10000000
00100000
00100000
,  // measure 23
01000000
00000000
00000000
00010000
00000000
00000000
00100000
00000000
,  // measure 24
00001000
00010000
00000000
00011000
,  // measure 25
00000100
00000000
00000000
00001000
00000000
00000000
00000010
00000000
,  // measure 26
00000100
00000001
00000010
00000100
,  // measure 27
00001000
00000000
00000000
01000000
00000000
00000000
00010000
00000000
,  // measure 28
00100000
00000000
00000000
00001000
00000000
00000000
00010000
00000000
,  // measure 29
00000010
00000010
00000100
00000001
,  // measure 30
00001000
00001000
00000100
00010000
,  // measure 31
00001000
00000000
00000000
00100000
00000000
00000000
00010000
00000000
,  // measure 32
01000000
00000000
00000000
00001000
00000000
00000000
00010000
00000000
,  // measure 33
00000010
00000010
00000100
00000001
,  // measure 34
00001000
00000000
00000000
00001001
00000000
00000000
00010100
00000000
,  // measure 35
00001000
00001000
01000000
00100000
,  // measure 36
01000000
10000000
01000000
00010000
,  // measure 37
00100000
00100000
00001000
00010000
,  // measure 38
00000100
00000010
00000001
00000100
,  // measure 39
00000110
00000010
00000010
00000010
,  // measure 40
00011000
00001000
00001000
00001000
,  // measure 41
01000000
00010000
00100000
00001000
,  // measure 42
00010000
00000000
00000000
00011000
00000000
00000000
00000100
00000000
,  // measure 43
00101000
02000000
03000000
00200000
,  // measure 44
00300000
00002000
00003000
00020000
,  // measure 45
00030000
00000020
00000030
00000200
,  // measure 46
00000300
00000000
00000002
00000000
00000003
00000000
00001000
00001000
,  // measure 47
00001000
00001000
00010100
00000000
00100000
00000000
00000000
00000000
,  // measure 48
00100000
01001000
00010000
00000000
,  // measure 49
00011000
00010100
00000010
00000000
,  // measure 50
00000010
00001001
00000000
00000101
,  // measure 51
00001100
00011000
00001000
00001000
,  // measure 52
00001000
00011000
00010000
00010000
,  // measure 53
00010000
00101000
01000000
00011000
,  // measure 54
00000010
00010100
00002000
00013000
,  // measure 55
00001000
00021000
00000000
00000000
,  // measure 56
00000000
00031000
01000000
00100000
,  // measure 57
10000000
10000000
01000000
00100000
,  // measure 58
00100000
00001000
00001000
00010000
,  // measure 59
00010000
00010000
00000100
00000010
,  // measure 60
00000010
00000010
00000001
00000100
,  // measure 61
00000010
00000100
00000010
00010000
,  // measure 62
00010000
00001000
00001000
00100000
,  // measure 63
00100000
00010000
00010000
01000000
,  // measure 64
01000000
10000000
01000000
10010000
,  // measure 65
00100000
01000000
00000000
00001000
,  // measure 66
00001000
00010000
00010000
00000010
,  // measure 67
00000010
00000010
00000100
00000001
,  // measure 68
00000001
00000001
00000010
00000100
,  // measure 69
00001000
00000100
00010000
00001000
,  // measure 70
00100000
00001000
01000000
00100000
,  // measure 71
10010000
01000000
10010000
01000000
,  // measure 72
00001000
00010000
00011000
00001000
,  // measure 73
00001000
00000000
00000100
00000010
00000001
00000000
00000001
00000000
,  // measure 74
00000001
00000000
00000010
00000100
00010000
00000000
00001000
00000000
,  // measure 75
00001000
00000000
01000000
00100000
01000000
00000000
00100000
00000000
,  // measure 76
00100000
00000000
10000000
00010000
01000000
00000000
00001000
00000000
,  // measure 77
00001000
00000000
00100000
00001000
00010000
00000000
00000010
00000000
,  // measure 78
00000010
00000000
00000100
00000001
00001000
00000000
00000001
00000000
,  // measure 79
00000001
00000000
00000010
00000100
00010000
00000000
00001000
00000000
,  // measure 80
00001000
00000000
00100000
00001000
01000000
00000000
01100000
00000000
,  // measure 81
00100000
00100000
00100000
01001000
,  // measure 82
00001000
00001000
00001000
00101000
,  // measure 83
00100000
00100000
00100000
00011000
,  // measure 84
00010000
00010000
00010000
00000010
,  // measure 85
00000010
00000000
00000100
00000001
00001000
00000000
00000010
00000000
,  // measure 86
00000010
00000000
00010000
00000100
00001000
00000000
01000000
00000000
,  // measure 87
01000000
00100000
00100000
00001000
,  // measure 88
00001000
00010000
00001000
00022000
,  // measure 89
00000000
00000000
00000000
00000000
,  // measure 90
00000000
00000000
00000000
00000000
,  // measure 91
00000000
00033000
00000000
00000000
;

//---------------dance-double - ----------------
#NOTES:
     dance-double:
     :
     Medium:
     10:
     0.493,0.536,0.166,0.063,0.202: // measure 1
00000000
00000000
00000000
00000000
,  // measure 2
00000000
00000000
00000000
00000000
,  // measure 3
00000000
00000000
00000000
00000000
,  // measure 4
00000000
00000000
00000000
00000000
,  // measure 5
00000000
00000000
00000000
00000000
,  // measure 6
00000000
00000000
00000000
00000000
,  // measure 7
00100000
01000000
00010000
00000000
10000000
00010000
01000000
00000000
,  // measure 8
00001000
00100000
00010000
00000000
00100000
00001000
00010000
00000000
,  // measure 9
00000100
00010000
00000000
00010000
00000000
00010000
00001000
00000000
,  // measure 10
00000000
00000100
00000100
00000100
00000010
00000000
00001000
00000000
,  // measure 11
00000001
00000010
00000100
00001000
,  // measure 12
00010000
00100000
01000000
10000000
,  // measure 13
10000000
00100000
01000000
00010000
,  // measure 14
00001000
00000010
00000100
00000001
,  // measure 15
00000001
00000010
00000100
00000000
00000000
00001000
00000001
00000000
,  // measure 16
00000000
00000100
00000010
00000000
00000000
00010000
00001000
00000000
,  // measure 17
00000000
01000000
00000000
01000000
00000000
01000000
00100000
00000000
,  // measure 18
00000000
00100000
10000000
01000000
00100000
00000000
00010000
00000000
,  // measure 19
10000000
00000000
00000000
10000000
00000000
00100000
01000000
00010000
,  // measure 20
00000000
01000000
00010000
00000000
00000000
01000000
00010000
00000000
,  // measure 21
00001000
00000000
00000000
00000100
00000000
00000010
00000001
00001000
,  // measure 22
00000000
00000001
00000010
00000000
00000010
00000000
00000100
00000000
,  // measure 23
00000010
00000000
00000000
00000001
00000000
00001000
00000010
00001000
,  // measure 24
00000000
00000100
00010000
00000000
00000000
00001000
00010000
00000000
,  // measure 25
00100000
00000000
00000000
01000000
00000000
00010000
10000000
01000000
,  // measure 26
00100000
01000000
10000000
00010000
,  // measure 27
10000000
00000000
00000000
10100000
00000000
00000000
00010000
00000000
,  // measure 28
01000000
00000000
00000000
01001000
00000000
00000000
00100000
00000000
,  // measure 29
00001000
00001000
00010000
00010000
,  // measure 30
00001000
00000000
00000000
00010000
00000000
00000000
00000010
00000000
,  // measure 31
00001001
00000000
00000000
00000100
00000000
00000000
00010000
00000000
,  // measure 32
00000010
00000000
00000000
00010000
00000000
00000000
00001000
00000000
,  // measure 33
00010000
00010000
01000000
01000000
,  // measure 34
00100000
00000000
00000000
00100000
00000000
00000000
00100000
00000000
00000000
00100000
00000000
00000000
10000000
00000000
01000000
00000000
,  // measure 35
00100000
00000000
00000000
00010000
00000000
00000000
00100000
00000000
00000000
00010000
00000000
00000000
10000000
00000000
00000000
00000000
,  // measure 36
00010000
00000000
00000000
01000000
00000000
00000000
00001000
00000000
00000000
00100000
00000000
00000000
00001000
00000000
00000000
00000000
,  // measure 37
00010000
00000000
00001000
00000000
00000100
00000000
00000000
00000000
00000010
00000000
00000000
00000100
00000000
00000000
00000100
00000000
,  // measure 38
00000001
00000000
00000000
00000001
00000000
00000000
00000010
00000000
00000000
00000010
00000000
00000000
00000100
00000000
00010000
00000000
,  // measure 39
00001000
00000000
00000000
00100000
00000000
00000000
00010000
00000000
00000000
01000000
00000000
00000000
01100000
00000000
00000000
00000000
,  // measure 40
00100000
00000000
00000000
10000000
00000000
00000000
01000000
00000000
00000000
00100000
00000000
00000000
01001000
00000000
00000000
00000000
,  // measure 41
00001000
00000000
00100000
00000000
00010000
00000000
00000000
00000000
00001000
00000000
00000000
00000100
00000000
00000000
00000010
00000000
,  // measure 42
00010000
00000000
00000000
00001000
00000000
00000000
00011000
00000000
00000000
00100000
00000000
00000000
00001000
00000000
00010000
00000000
,  // measure 43
00001000
00000000
00000000
00000000
01000000
00000000
00000000
01000000
00000000
00000000
00100000
00000000
10000000
00000000
00000000
00010000
,  // measure 44
00000000
00000000
10000000
00000000
01000000
00000000
00000000
00100000
00000000
00000000
00010000
00000000
00001000
00000000
00000000
00000100
,  // measure 45
00000000
00000000
00000010
00000000
00001000
00000000
00000000
00000001
00000000
00000000
00000010
00000000
00000001
00000000
00000000
00000001
,  // measure 46
00000000
00000000
00001000
00000000
00000100
00000000
00000000
00010000
00000000
00000000
00001000
00000000
00100000
00000000
00010000
00000000
,  // measure 47
01000000
10000000
01100000
00000000
00010000
00000000
00000000
10000000
,  // measure 48
10000000
00000000
01100000
00000000
00001000
00000000
00000000
00010000
,  // measure 49
00001000
00000000
00000110
00000000
00000001
00000000
00000000
00001000
,  // measure 50
00001000
00000110
00010000
01100000
,  // measure 51
10010000
00000000
00100000
00000000
00100000
00000000
01000000
00100000
,  // measure 52
01000000
00000000
10010000
00000000
01000000
00000000
00001000
00100000
,  // measure 53
00001000
00000000
00000000
00000000
00011000
00000000
00000000
00000100
00000000
00000000
00000100
00000000
00010000
00000000
00000000
00100000
,  // measure 54
00000000
00000000
00100000
00000000
00010000
00000000
00001000
00000000
00000200
00000000
00000000
00000000
00000310
00000000
00000000
00001000
,  // measure 55
00000000
00000001
00002000
00000000
00000000
00000000
00000000
00000000
,  // measure 56
00000000
00000000
00000000
00000000
00003001
00000000
00000000
00000000
00000010
00000000
00000100
00000000
00001000
00000000
00000000
00001000
,  // measure 57
00000000
00000000
00000200
00000000
00000000
00000000
00000000
00000000
00010300
00000000
00001000
00000000
00100000
00000000
00000000
00100000
,  // measure 58
00000000
00000000
00100000
00000000
00010000
00000000
00000000
00010000
00000000
00000000
00010000
00000000
01000000
00000000
00000000
01000000
,  // measure 59
00000000
00000000
00010000
00000000
01000000
00000000
00000000
00000000
00100000
00000000
10000000
00000000
01000000
00000000
00000000
01000000
,  // measure 60
00000000
00000000
01000000
00000000
00100000
00000000
00000000
00000000
00010000
00000000
10000000
00000000
00010000
00000000
00000000
00010000
,  // measure 61
00000000
00000000
02000000
00000000
00000000
00000000
00000000
00000000
03001000
00000000
00010000
00000000
00000100
00000000
00000000
00000100
,  // measure 62
00000000
00000000
00000100
00000000
00000010
00000000
00000000
00000010
00000000
00000000
00000010
00000000
00000001
00000000
00000000
00001000
,  // measure 63
00000000
00000000
00000001
00000000
00000100
00000000
00000000
00000100
00000000
00000000
00000010
00000000
00010000
00000000
00000000
00001000
,  // measure 64
00000000
00000000
00010000
00000000
00000100
00000000
00000000
00010000
00000000
00000000
00001000
00000000
00100000
00000000
00000000
00100000
,  // measure 65
00000000
00000000
02000000
00000000
00000000
00000000
00000000
00000000
03100000
00000000
00010000
00000000
10000000
00000000
00000000
10000000
,  // measure 66
00000000
00000000
10000000
00000000
00100000
00000000
00000000
00100000
00000000
00000000
00100000
00000000
01000000
00000000
00000000
00001000
,  // measure 67
00000000
00000000
00010000
00000000
00001000
00000000
00000000
00000100
00000000
00000000
00000010
00000000
00001000
00000000
00000000
00001000
,  // measure 68
00000000
00000000
00000001
00000000
00001000
00000000
00000001
00000000
00001000
00000000
00000000
00000000
00001001
00000000
00000000
00000010
,  // measure 69
00000000
00000000
00000200
00000000
00000000
00000000
00000000
00000000
00010300
00000000
00001000
00000000
01000000
00000000
00000000
01000000
,  // measure 70
00000000
00000000
01000000
00000000
00100000
00000000
00000000
00100000
00000000
00000000
00100000
00000000
01000000
00000000
00001000
00000000
,  // measure 71
00011000
00000000
00001000
00010000
00011000
00000000
00010000
00000100
,  // measure 72
00000110
00000000
00000001
00001000
00000000
00001000
00000001
00000000
,  // measure 73
00000010
00000000
00000100
00001000
00000100
00000000
00010000
00000000
,  // measure 74
00100000
00000000
01000000
10000000
01000000
00000000
10000000
00000000
,  // measure 75
00100000
00000000
01000000
00010000
01000000
00000000
00001000
00000000
,  // measure 76
00000010
00000000
00000100
00000001
00001000
00000000
00000001
00000000
,  // measure 77
00000010
00000000
00001000
00000010
00001000
00000000
00010000
00000000
,  // measure 78
00100000
00000000
10000000
00100000
10000000
00000000
10000000
00000000
,  // measure 79
00100000
00000000
00010000
00100000
00010000
00000000
00001000
00000000
,  // measure 80
00000010
00000000
00000001
00000010
00000100
00000000
00000110
00000000
,  // measure 81
00000010
00000010
00000010
00000100
,  // measure 82
00000100
00000000
00000100
00000000
00001000
00010000
00001000
00000000
,  // measure 83
00001000
00001000
00001000
01000000
,  // measure 84
01000000
00000000
00100000
01000000
00010000
10000000
00010000
00000000
,  // measure 85
00010000
00000000
10000000
01000000
10000000
00000000
10010000
00000000
,  // measure 86
00010000
00000000
00000000
00000000
01000000
00000000
00001000
00000000
00010000
00000000
00000000
00000000
00000010
00000000
00000000
00000010
,  // measure 87
00000000
00000000
00000010
00000000
00000100
00000000
00000000
00000100
00000000
00000000
00000100
00000000
00000001
00000000
00000000
00001000
,  // measure 88
00000000
00000000
00000100
00000000
00010000
00000000
00000000
00100000
00000000
00000000
10000000
00000000
02200000
00000000
00000000
00000000
,  // measure 89
00000000
00000000
00000000
00000000
,  // measure 90
00000000
00000000
00000000
00000000
,  // measure 91
00000000
03300000
00000000
00000000
;

//---------------dance-double - ----------------
#NOTES:
     dance-double:
     :
     Hard:
     15:
     0.739,0.857,0.483,0.071,0.344: // measure 1
00000000
00000000
00000000
00000000
,  // measure 2
00000000
00000000
00000000
00000000
,  // measure 3
00000000
00000000
00000000
00000000
,  // measure 4
00000000
00000000
00000000
00000000
,  // measure 5
00000000
00000000
00000000
00000000
,  // measure 6
00000000
00000000
00000000
00000000
,  // measure 7
00100000
01000000
00010000
00000000
10000000
00010000
01000000
00000000
,  // measure 8
00001000
00100000
00010000
00000000
01000000
00001000
00010000
00000000
,  // measure 9
00000100
00010000
00001000
00010000
00000010
00010000
00010000
00000000
,  // measure 10
00000000
01000000
01000000
01000000
00100000
00010000
10000000
00010000
,  // measure 11
10000000
01000000
00100000
00010000
10000000
01000000
00100000
00010000
,  // measure 12
00001000
00000100
00000010
00000001
00001000
00000100
00000010
00000001
,  // measure 13
00000001
00000010
00000100
00001000
00000001
00000010
00000100
00001000
,  // measure 14
00010000
00100000
01000000
10000000
00010000
00100000
01000000
10000000
,  // measure 15
00100000
01000000
00010000
00000000
01000000
00001000
00010000
00000000
,  // measure 16
00000100
00010000
00001000
00000000
00100000
00001000
00010000
00000000
,  // measure 17
00000010
00000100
00000001
00000100
00000010
00001000
00001000
00000000
,  // measure 18
00000100
00000000
00010000
00000100
00010000
00000000
00001000
00000000
00010000
00000000
00010000
00000000
00001000
00000000
00001000
00000000
,  // measure 19
00100000
01000000
00100000
00010000
00000000
10000000
00010000
01000000
,  // measure 20
00010000
00100000
00110000
00000000
00001000
00100000
00101000
00000000
,  // measure 21
00010000
00001000
00000100
00000010
00000000
00001000
00000001
00000100
,  // measure 22
00000000
00000000
00000001
00000000
00000001
00000000
00000001
00000000
00000001
00000000
00001000
00000001
00000000
00000000
00000000
00000000
,  // measure 23
00000010
00000100
00001000
00000100
00000000
00010000
00000010
00010000
,  // measure 24
00000100
00010000
00011000
00000000
00001000
00010000
00011000
00000000
,  // measure 25
00100000
01000000
10000000
01000000
00000000
00100000
00010000
10000000
,  // measure 26
00100000
01000000
00010000
10000000
01100000
00001000
00020000
00000000
,  // measure 27
00030010
00000000
00000000
00000110
00000000
00000000
00001001
00000000
00000000
00001100
00000000
00000000
00000001
00000000
00000010
00000000
,  // measure 28
00000100
00000000
00000000
00010100
00000000
00000000
00011000
00000000
00000000
00101000
00000000
00000000
00100000
00000000
00001000
00000000
,  // measure 29
00010000
00000000
00010000
00000000
00001000
00000000
00000000
00000000
01000000
00000000
00000000
01000000
00000000
00000000
00100000
00000000
,  // measure 30
10000000
00000000
00000000
10000000
00000000
00000000
01000000
00000000
00000000
00100000
00000000
00000000
00010000
00000000
10000000
00000000
,  // measure 31
10010000
00000000
00000000
11000000
00000000
00000000
01100000
00000000
00000000
00110000
00000000
00000000
00001000
00000000
00010000
00000000
,  // measure 32
00011000
00000000
00000000
00010100
00000000
00000000
00001010
00000000
00000000
00001001
00000000
00000000
00000001
00000000
00000010
00000000
,  // measure 33
00000100
00000000
00000100
00000000
00000010
00000000
00000000
00000000
00000001
00000000
00000000
00001000
00000000
00000000
00000010
00000000
,  // measure 34
00000110
00000000
00000000
00001100
00000000
00000000
00010100
00000000
00000000
00011000
00000000
00000000
00100000
00000000
00001000
00000000
,  // measure 35
01000000
00000000
00000000
01000000
00010000
00000000
10000000
00000000
00000000
10000000
01000000
00000000
00100000
00000000
00010000
00000000
,  // measure 36
10000000
00000000
00000000
10000000
00010000
00000000
01000000
00000000
00000000
01000000
00001000
00000000
00100000
00000000
00001000
00000000
,  // measure 37
00010000
00000000
00010000
00000000
00001000
00000000
00000000
00000000
00000100
00000000
00000000
00000100
00000010
00000000
00001000
00000000
,  // measure 38
00000100
00000000
00000000
00000100
00000010
00000000
00000001
00000000
00000000
00000001
00000010
00000000
00000100
00000000
00000010
00000000
,  // measure 39
00001001
00000000
00000000
00000001
00000100
00000000
00000010
00000000
00000000
00000010
00001000
00000000
00000100
00000000
00010000
00000000
,  // measure 40
00001000
00000000
00000000
00001000
00100000
00000000
01000000
00000000
00000000
01000000
10000000
00000000
00100000
00000000
01000000
00000000
,  // measure 41
00010000
00000000
00010000
00000000
10000000
00000000
00000000
00000000
10010000
00000000
00000000
00100000
00000000
00000000
01000000
00000000
,  // measure 42
01001000
00000000
00000000
00011000
00000000
00000000
00101000
00000000
00000000
00011000
00000000
00000000
00000100
00010000
00001000
00010000
,  // measure 43
00002000
00000000
00000000
00000000
00103000
00000000
00010000
00100000
00000000
00100000
01000000
00000000
10000000
00000000
00100000
01000000
,  // measure 44
00000000
01000000
00010000
00000000
00001000
00000000
00000100
00000010
00000000
00000010
00001000
00000000
00000001
00000000
00000010
00000100
,  // measure 45
00000000
00000100
00001000
00000100
00000000
00010000
00001000
00010000
00000000
00001000
00100000
00001000
00000000
01000000
00010000
01000000
,  // measure 46
00000000
00010000
10000000
00000000
00100000
00000000
00100000
01000000
00000000
01000000
00010000
00000000
00100000
00001000
00010000
00001000
,  // measure 47
01000000
00001000
00010000
00001000
00011000
00000000
00000000
00000000
00000010
00000000
00000000
00000000
00000000
00000000
00001000
00000000
,  // measure 48
00001000
00000000
00011000
00000000
00100000
00000000
00000000
00001000
,  // measure 49
00010000
00000000
00011000
00000000
00000010
00000000
00000000
00001000
,  // measure 50
00001000
00011000
01000000
00011000
,  // measure 51
00011000
00000000
00100000
00001000
01000000
00001000
00010000
00001000
,  // measure 52
00010000
00000000
00000010
00010000
00000100
00010000
00001000
00010000
,  // measure 53
00001000
00000000
00000000
00000000
00100000
00000000
00000000
00100000
00001000
00000000
01000000
00000000
00001000
00000000
00000000
00001000
,  // measure 54
00010000
00000000
00000010
00000000
00010000
00000000
00010000
00000000
00000200
00000000
00000000
00000000
00010300
00000000
00000000
00011000
,  // measure 55
00000000
00001000
00020000
00000000
00000000
00000000
00000000
00000000
,  // measure 56
00000000
00000000
00000000
00000000
00031000
00000000
00000000
00000000
01000000
00000000
01000000
00000000
00010000
00000000
00000000
00010000
,  // measure 57
00100000
00000000
00020000
00000000
00000000
00000000
00000000
00000000
10030000
00000000
00100000
00000000
01000000
00000000
00000000
01000000
,  // measure 58
00010000
00000000
10000000
00000000
00010000
00000000
00000000
00010000
00100000
00000000
00010000
00000000
00001000
00000000
00000000
00001000
,  // measure 59
00000100
00000000
00000010
00000000
00001000
00000000
00000000
00001000
00000001
00000000
00001000
00000000
00000001
00000000
00000000
00000001
,  // measure 60
00000010
00000000
00000001
00000000
00001000
00000000
00000100
00000000
00000010
00000000
00000001
00000000
00001001
00000000
00000000
00000010
,  // measure 61
00000100
00000000
00000020
00000000
00000000
00000000
00000000
00000000
00001030
00000000
00000100
00000000
00000010
00000000
00000000
00000010
,  // measure 62
00000001
00000000
00001000
00000000
00000001
00000000
00000000
00000001
00000100
00000000
00000010
00000000
00000100
00000000
00000000
00000001
,  // measure 63
00000100
00000000
00000010
00000000
00010000
00000000
00000000
00000100
00010000
00000000
00001000
00000000
00100000
00000000
00000000
00001000
,  // measure 64
01000000
00000000
00100000
00000000
10000000
00000000
01000000
00000000
00100000
00000000
00010000
00000000
10010000
00000000
00000000
10000000
,  // measure 65
01000000
00000000
00200000
00000000
00000000
00000000
00000000
00000000
00310000
00000000
10000000
00000000
00010000
00000000
00000000
00010000
,  // measure 66
01000000
00000000
00001000
00000000
00010000
00000000
00000000
00010000
00000010
00000000
00001000
00000000
00000100
00000000
00000000
00000100
,  // measure 67
00001000
00000000
00000100
00000000
00000010
00000000
00000000
00000010
00000100
00000000
00000010
00000000
00000001
00000000
00000000
00000001
,  // measure 68
00001000
00000000
00000001
00000000
00001000
00000000
00000100
00000000
00000010
00000000
00000001
00000000
00001001
00000000
00000000
00000010
,  // measure 69
00000100
00000000
00000020
00000000
00000000
00000000
00000000
00000000
00000031
00000000
00000010
00000000
00000100
00000000
00000000
00000100
,  // measure 70
00010000
00000000
00001000
00000000
00100000
00000000
00000000
00100000
00001000
00000000
00010000
00000000
01000000
00000000
00100000
00000000
,  // measure 71
10010000
00000000
00100000
01000000
00011000
00000000
00000100
00000010
,  // measure 72
00001001
00000000
00000010
00001100
00000000
00001001
00000001
00000010
,  // measure 73
00000100
00001000
00000001
00000010
00000100
00001000
00010000
00100000
,  // measure 74
01000000
10000000
00010000
00100000
01000000
10000000
10000000
00100000
,  // measure 75
01000000
00010000
10000000
00100000
01000000
00010000
00001000
00000010
,  // measure 76
00000100
00000001
00001000
00000010
00000100
00000001
00001000
00000100
,  // measure 77
00000010
00000001
00001000
00000100
00000010
00000001
00000100
00010000
,  // measure 78
00001000
00010000
00001000
00100000
00010000
10000000
00010000
00100000
,  // measure 79
01000000
10000000
00010000
00100000
01000000
10000000
00100000
01000000
,  // measure 80
00001000
00000000
00010000
00000000
00001000
00000000
00100000
00001000
00100000
00000000
00001000
00010000
00001000
00000000
00000000
00000000
,  // measure 81
00011000
00011000
00011000
00010100
,  // measure 82
00010100
00000000
00001010
00000000
00001001
00000001
00001000
00000000
,  // measure 83
00001001
00001000
00010100
00010100
,  // measure 84
00011000
00000000
00000000
00000000
00101000
00000000
00001000
00100000
00001000
00000000
01000000
00100000
01000000
00000000
01000000
00000000
,  // measure 85
01000000
01000000
00100000
01000000
00010000
10000000
10010000
01000000
,  // measure 86
01000000
00000000
01000000
00000000
00100000
00000000
00001000
00000000
00010000
00000000
00001000
00000000
00011000
00000000
00001000
00010000
,  // measure 87
00000100
00000000
00000010
00000000
00000110
00000000
00000010
00000100
00010000
00000000
00001000
00000000
00011000
00000000
00100000
00001000
,  // measure 88
01000000
00000000
00100000
00000000
01100000
00000000
01000000
00001000
00010000
00000000
00001000
00010000
00002000
00000000
00000000
00000000
,  // measure 89
00000000
00000000
00000000
00000000
,  // measure 90
00000000
00000000
00000000
00000000
,  // measure 91
00000000
00003000
00000000
00000000
;

//---------------dance-double - ----------------
#NOTES:
     dance-double:
     :
     Challenge:
     17:
     0.968,0.965,0.522,0.032,0.997: // measure 1
00000000
00000000
00000000
00000000
,  // measure 2
00000000
00000000
00000000
00000000
,  // measure 3
00000000
00000000
00000000
00000000
,  // measure 4
00000000
00000000
00000000
00000000
,  // measure 5
00000000
00000000
00000000
00000000
,  // measure 6
00000000
00000000
00000000
00000000
,  // measure 7
00100000
00000000
10000000
00000000
01000000
00000000
00100000
00000000
00010000
00000000
00100000
00001000
00000000
00100000
00001000
00000000
,  // measure 8
00010000
00000000
00000100
00000000
00001000
00000000
00000010
00000000
00000100
00000000
00000001
00000010
00000000
00000001
00000010
00000000
,  // measure 9
00000100
00000000
00010000
00000000
00001000
00000000
00100000
00000000
00010000
00000000
01000000
00100000
00000000
01000000
00100000
00000000
,  // measure 10
01000000
00000000
01000000
00000000
01000000
00000000
01000000
00000000
00100000
00000000
10000000
00010000
01000000
00000000
00010000
10000000
,  // measure 11
01000000
00000000
10000000
00000000
00100000
01000000
00100000
01000000
00010000
00000000
10000000
00000000
00010000
00100000
00010000
00100000
,  // measure 12
01000000
00000000
00100000
00000000
00010000
10000000
00010000
10000000
00100000
00000000
01000000
00010000
00000000
00010000
00100000
00001000
,  // measure 13
00010000
00000000
00000100
00000000
00001000
00000010
00001000
00000010
00000100
00000000
00000001
00000000
00000010
00000001
00000010
00000001
,  // measure 14
00001000
00000000
00000001
00000000
00000010
00000100
00000010
00000100
00001000
00000000
00000100
00010000
00000000
00001000
00010000
00001000
,  // measure 15
01000000
00100000
10100000
00000000
01000000
00010000
10010000
00000000
,  // measure 16
00100000
00001000
01001000
00000000
00010000
00000100
00010100
00000000
,  // measure 17
00000001
00000101
00001000
00001100
00000001
00001001
00001010
00000000
,  // measure 18
00000100
00000000
00000100
00000000
00000100
00000000
00000100
00000000
00000010
00000000
00001000
00000100
00000010
00000000
00000100
00010000
,  // measure 19
00001000
00000000
00100000
00001000
00000000
00000000
01000000
00000000
00000000
00000000
00100000
00000000
10000000
00000000
00010000
00000000
,  // measure 20
01000000
00001000
00101000
00000000
01000000
00001000
00011000
00000000
,  // measure 21
00000100
00000000
00010000
00000100
00000000
00000000
00000010
00000000
00000000
00000000
00000100
00000000
00001000
00000000
00000001
00000000
,  // measure 22
00000000
00000000
00000010
00000000
00000010
00000000
00000010
00000000
00000100
00000000
00010000
00001000
00000000
00000000
00000000
00000000
,  // measure 23
00100000
00001000
01010000
00000000
00100000
00001000
00011000
00000000
,  // measure 24
00000010
00010000
00001100
00000000
00000010
00010000
00011000
00000000
,  // measure 25
00001000
00000000
01010000
00000000
00001000
00000000
00110000
00000000
00001000
00000000
01010000
00000000
00001000
00010000
00001000
00010000
,  // measure 26
00000100
00000000
00000010
00000100
00001000
00000000
00000100
00000000
00000110
00000000
00000100
00000010
00000001
00000000
00001000
00000001
,  // measure 27
00001000
00000100
00000000
00000100
00001000
00000000
00000010
00001000
00000000
00001000
00000001
00000000
00000100
00000010
00001000
00000000
,  // measure 28
00000100
00010000
00000000
00010000
00001000
00000000
00100000
00010000
00000000
00010000
10000000
00000000
00010000
01000000
00100000
00000000
,  // measure 29
01010000
00000000
00010000
00000000
00110000
00000000
00000000
00000000
11000000
00000000
00000000
01000000
10000000
00000000
00100000
00000000
,  // measure 30
10000000
00010000
00000000
00010000
01000000
00000000
00001000
00100000
00000000
00100000
00001000
00000000
01000000
00001000
00010000
00000000
,  // measure 31
00001000
00000100
00000000
00000100
00000010
00000000
00001000
00000100
00000000
00000100
00000010
00000000
00000100
00001000
00000001
00000000
,  // measure 32
00000100
00000001
00000000
00000001
00000010
00000000
00000100
00000001
00000000
00000001
00000010
00000000
00000100
00000001
00001000
00000000
,  // measure 33
00000001
00000000
00000010
00000000
00001100
00000000
00000000
00000000
00010010
00000000
00000000
00000010
00010000
00001000
00010000
00001000
,  // measure 34
01001000
00000000
00000000
00101000
00000000
00000000
01100000
00000000
00000000
10010000
00000000
00000000
00010000
01000000
00001000
00010000
,  // measure 35
00001000
00010000
00000000
00010000
00001000
00000000
00000100
00000010
00000000
00000010
00001000
00000000
00000001
00000010
00000100
00000000
,  // measure 36
00000010
00000001
00000000
00000001
00001000
00000000
00000001
00000010
00000000
00000010
00000100
00000000
00010000
00000100
00000010
00000000
,  // measure 37
00010100
00000000
00000100
00000000
00011000
00000000
00000000
00000000
00101000
00000000
00000000
00001000
00100000
00000000
01000000
00000000
,  // measure 38
00100000
00010000
00000000
00010000
10000000
00000000
00100000
10000000
00000000
10000000
00010000
00000000
01000000
00100000
01000000
00000000
,  // measure 39
10010000
01000000
00000000
01000000
00100000
00000000
10000000
01000000
00000000
01000000
00100000
00000000
00010000
01000000
00100000
00000000
,  // measure 40
00011000
00000100
00000000
00000100
00000010
00000000
00001000
00000100
00000000
00000100
00000010
00000000
00000001
00001000
00000100
00000000
,  // measure 41
00000110
00000000
00000100
00000000
00011000
00000000
00000000
00000000
00101000
00000000
00000000
00001000
00100000
00000000
00001000
00000000
,  // measure 42
01010000
00000000
00000000
00110000
00000000
00000000
00011000
00000000
00000000
00001100
00000000
00000000
00001000
00010000
00001000
00010000
,  // measure 43
00000020
00000000
00000000
00000000
00000130
00000001
00001000
00000100
00000000
00000001
00000100
00000001
00001000
00000010
00000001
00000010
,  // measure 44
00000000
00000010
00001000
00000000
00000100
00010000
00001000
00100000
00000000
00100000
00010000
01000000
10000000
01000000
00010000
00100000
,  // measure 45
00000000
01000000
00100000
00010000
10000000
01000000
00100000
00010000
00000000
00001000
00000100
00000010
00000000
00000001
00000010
00000100
,  // measure 46
00000000
00000100
00000010
00000000
00000001
00000010
00001000
00000010
00000000
00000010
00000001
00000100
00001000
00010000
00100000
10000000
,  // measure 47
01000000
00010000
01000000
00100000
00011000
00000000
00000100
00000000
00000010
00000000
00001000
00000000
00000000
00000000
00010000
00000000
,  // measure 48
00000010
00000000
00011000
00100000
00001000
01000000
00000000
01000000
,  // measure 49
00110000
00000000
00011000
00000100
00000010
00000001
00000000
00000001
,  // measure 50
00000100
00000010
00011000
00100000
00001000
01000000
00011000
00000000
,  // measure 51
00010100
00000000
00011000
00010000
00010000
00010000
00001000
01000000
,  // measure 52
00100000
01000000
00011000
00010000
00010000
00010000
00001000
00000100
,  // measure 53
00000010
00000000
00000100
00000000
00011000
00000000
00001000
01000000
00100000
00000000
01000000
00000000
00011000
00000000
00001000
00000100
,  // measure 54
00000010
00000000
00000100
00000000
00011000
00000000
00001000
00000000
00102000
00000000
00000000
00000000
01003000
00000000
00000000
00110000
,  // measure 55
00000000
00000010
00012000
00000000
00000000
00000000
00000000
00000000
,  // measure 56
00000000
00000000
00000000
00000000
00013000
00000000
00000000
00000000
01000000
00000000
01000000
00000000
00010000
00100000
00000000
00100000
,  // measure 57
00010000
00000000
10000000
00000000
00000000
10000000
01000000
00000000
00100000
00000000
00010000
00000000
01000000
00000000
00010000
01000000
,  // measure 58
00000000
01000000
00010000
00000000
00100000
00000000
00001000
00010000
00000000
00010000
00001000
00000000
00000100
00000000
00000010
00000100
,  // measure 59
00000000
00000100
00000010
00000000
00001000
00000100
00000000
00000100
00000010
00000000
00000001
00000000
00000010
00000000
00001000
00000010
,  // measure 60
00000000
00000010
00000001
00000000
00001000
00000000
00000001
00001000
00000100
00000000
00001000
00000010
00010000
00001000
00000000
00001000
,  // measure 61
01000000
00000000
00010000
00000000
00000000
00010000
01000000
00000000
00010000
00000000
00100000
00000000
01000000
00000000
00100000
00010000
,  // measure 62
00000000
00010000
10000000
00000000
00100000
00000000
10000000
00100000
00000000
00100000
01000000
00000000
00010000
00000000
01000000
00001000
,  // measure 63
00000000
01000000
00001000
00000000
00100000
00000000
00001000
00010000
00000000
00001000
00010000
00000000
00000100
00000000
00000010
00000100
,  // measure 64
00000000
00010000
00000100
00000000
00000010
00000000
00000001
00001000
00000100
00000000
00001000
00000001
00000100
00000010
00000000
00000010
,  // measure 65
00001000
00000000
00001010
00000000
00000000
00000001
00000100
00000000
00000001
00000000
00000010
00000000
00000100
00000000
00010000
00000100
,  // measure 66
00000000
00000100
00010000
00000000
00001000
00000000
00100000
00010000
00000000
00010000
10000000
00000000
01000000
00000000
00100000
01000000
,  // measure 67
00000000
01000000
10000000
00000000
00100000
01000000
00000000
01000000
00001000
00000000
00100000
00000000
00001000
00000000
00010000
00001000
,  // measure 68
00000000
00001000
00010000
00000000
00000100
00000000
00010000
00000100
00010000
00000000
00000010
00000100
00000010
00001000
00000000
00001000
,  // measure 69
00000001
00000000
00000110
00000000
00000000
00000010
00000100
00000000
00001000
00000000
00000100
00000000
00000010
00000000
00000001
00000010
,  // measure 70
00000000
00000010
00000100
00000000
00001000
00000000
00010000
00100000
00000000
00100000
01000000
00000000
00010000
00000000
00100000
00000000
,  // measure 71
11000000
00000000
00000000
00000000
10000000
00000000
00100000
00000000
01010000
00000000
00000000
00000000
01100000
00000000
00010000
01000000
,  // measure 72
00010000
00000000
10000000
01000000
00100000
00000000
00001000
00010000
00000100
00000000
00001000
00000010
00000110
00000000
00000001
00000000
,  // measure 73
00000010
00000100
00000010
00000100
00001000
00000000
00000010
00000000
00000100
00000001
00000100
00000001
00001000
00000000
00000001
00000000
,  // measure 74
00000010
00000001
00000010
00000001
00001000
00000000
00000100
00000000
00010000
00000100
00010000
00000100
00001000
00000000
00100000
00000000
,  // measure 75
10000000
01000000
10000000
01000000
00010000
00000000
01000000
00000000
10000000
00100000
10000000
00100000
00010000
00000000
00100000
00000000
,  // measure 76
01000000
00010000
01000000
00010000
00100000
00000000
00001000
00010000
00001000
00000000
00010000
00000100
00001000
00000000
00000100
00000000
,  // measure 77
00000010
00000100
00001000
00000010
00000100
00000000
00000001
00000000
00000010
00000001
00001000
00000010
00000100
00000000
00000010
00000000
,  // measure 78
00010000
00000100
00000010
00000100
00010000
00000000
00001000
00000000
00100000
00001000
01000000
00100000
01000000
00000000
00010000
00000000
,  // measure 79
10000000
01000000
00100000
00010000
10000000
00000000
00010000
00000000
01000000
00010000
00100000
00010000
10000000
00000000
00010000
00000000
,  // measure 80
01000000
00001000
00100000
00001000
00010000
00000000
00000100
00000010
00000100
00000000
00001000
00000001
00001001
00000100
00000000
00000100
,  // measure 81
00000010
00000000
00000100
00000000
00000000
00000100
00000001
00000000
00000010
00000100
00001000
00000000
00000100
00000000
00010000
00000010
,  // measure 82
00000000
00010000
00000100
00010000
00001000
00000000
00100000
00001000
00000000
01000000
00010000
00100000
01000000
00000000
00100000
00010000
,  // measure 83
00000000
00010000
10000000
00000000
01000000
00100000
00000000
01000000
10000000
00000000
00100000
01000000
00001000
01000000
00000000
00001000
,  // measure 84
00100000
00000000
00001000
00010000
00000000
00000100
00010000
00000010
00000100
00000000
00000010
00000000
00001001
00000000
00000001
00000000
,  // measure 85
00000001
00000000
00000001
00000000
00001000
00000100
00001000
00000100
00000010
00000000
00000100
00000000
00011000
00000000
00001000
00000000
,  // measure 86
00001000
00000000
00001000
00000000
00100000
00010000
00100000
00010000
01000000
00000000
00100000
00000000
10010000
00000000
01000000
00001000
,  // measure 87
00010000
00000000
00001000
00000000
00011000
00000000
00000100
00010000
00001000
00000000
00000010
00000000
00001001
00000000
00000001
00000010
,  // measure 88
00000100
00000000
00000000
00000000
00000000
00000000
00001000
00000000
00000000
00100000
00000000
00000000
00010000
00000000
00000000
00000000
00000000
00000000
01000000
00000000
00000000
00100000
00000000
00000000
00010000
00000000
00000000
00000000
00000000
00000000
00001000
00000000
00010000
00000000
00001000
00000000
00020000
00000000
00000000
00000000
00000000
00000000
00000000
00000000
00000000
00000000
00000000
00000000
,  // measure 89
00000000
00000000
00000000
00000000
,  // measure 90
00000000
00000000
00000000
00000000
,  // measure 91
00000000
00030000
00000000
00000000
;
