#TITLE:Claiomh Solais;
#SUBTITLE:;
#ARTIST:DJ Yoshitaka VS S.S.D.;
#TITLETRANSLIT:;
#SUBTITLETRANSLIT:;
#ARTISTTRANSLIT:;
#GENRE:;
#CREDIT:;
#MENUCOLOR:;
#METERTYPE:DDR;
#BANNER:Claiomh Solais.png;
#BACKGROUND:Claiomh Solais-bg.png;
#LYRICSPATH:;
#CDTITLE:./CDTITLES/BEATMANIA IIDX.PNG;
#MUSIC:Claiomh Solais.ogg;
#OFFSET:0.000;
#SAMPLESTART:85.818;
#SAMPLELENGTH:15.000;
#SELECTABLE:YES;
#LISTSORT:;
#BPMS:0.000=165.000,176.000=82.500,208.000=165.000,272.000=82.500;
#STOPS:;
#BGCHANGES:0.000=Claiomh Solais.avi=1.000=0=0=0,
99999=-nosongbg-=1.000=0=0=0 // don't automatically add -songbackground-
;
#ATTACKS:;

//---------------dance-single - ----------------
#NOTES:
     dance-single:
     :
     Beginner:
     2:
     0.139,0.174,0.058,0.000,0.000:
0000
0000
0000
0000
,
0000
0000
0000
0000
,
0000
0000
0000
0000
,
0000
0000
0000
0000
,
0000
0000
0000
0000
,
0000
0000
0000
0000
,
0100
0000
0001
0000
,
1000
0000
0010
0000
,
1000
0000
0000
0000
,
0001
0000
0000
0000
,
0100
0000
0000
0000
,
0010
0000
0000
0000
,
0100
0000
0100
0000
,
0001
0000
0001
0000
,
1000
0000
1000
0000
,
0010
0000
0010
0000
,
1001
0000
0100
0000
,
0001
0000
1000
0000
,
0010
0000
0001
0000
,
0100
0000
1000
0000
,
0110
0000
0010
0000
,
1000
0000
0001
0000
,
1000
0000
0100
0000
,
0010
0000
0001
0000
,
1000
0000
0000
0000
,
0001
0000
0000
0000
,
0100
0000
0000
0000
,
0010
0000
0010
0000
,
1000
0000
0000
0000
,
0001
0000
0000
0000
,
0100
0000
0000
0000
,
0001
0000
0010
0000
,
0001
0000
0000
0000
,
1000
0000
0010
0000
,
1000
0000
0000
0000
,
0100
0000
0100
0000
,
1001
0000
0001
0000
,
1000
0000
0001
0000
,
1000
0000
1000
0000
,
0001
0000
0010
0000
,
0001
0000
0001
0000
,
0100
0000
0010
0000
,
1000
0000
0010
0000
,
0100
0000
0000
0000
,
1001
0000
1000
0000
,
0100
0000
0001
0000
,
0010
0000
0100
0000
,
0001
0000
1000
0000
,
1001
0000
0100
0000
,
0010
0000
1000
0000
,
0001
0000
0100
0000
,
0001
0000
0010
0000
,
0001
0000
1000
0000
,
0001
0000
0100
0000
,
0010
0000
1000
0000
,
0010
0000
0100
0000
,
0001
0000
0010
0000
,
0001
0000
0010
0000
,
0100
0000
1000
0000
,
0100
0000
1000
0000
,
1001
0000
0000
0000
,
0100
0000
0000
0000
,
0010
0000
1000
0000
,
0001
0000
0100
0000
,
0001
0000
0000
0000
,
1000
0000
0000
0000
,
0001
0000
0000
0000
,
1000
0000
0001
0000
,
1001
0000
0010
0000
,
0100
0000
0001
0000
;

//---------------dance-single - ----------------
#NOTES:
     dance-single:
     :
     Easy:
     3:
     0.260,0.353,0.050,0.707,0.000:
0000
0000
0000
0000
,
0000
0000
0000
0000
,
0000
0000
0000
0000
,
0000
0000
0000
0000
,
0000
0000
0000
0000
,
0000
0000
0000
0000
,
0020
0030
0002
0003
,
0200
0300
0020
0030
,
2000
0000
0000
3000
,
0002
0000
0000
0003
,
0200
0000
0000
0300
,
0010
0000
0000
0000
,
2000
0000
0000
3001
,
0002
0000
0000
1003
,
0020
0030
0200
0300
,
0002
0003
0200
0300
,
0002
0003
0020
0030
,
0200
0300
2000
3000
,
0200
0300
1000
0001
,
0200
0000
0000
0300
,
0220
0000
0330
0100
,
0002
0000
0000
0013
,
0002
0003
0200
0300
,
0020
0030
2000
3000
,
0200
0300
2000
3000
,
0002
0003
0020
0030
,
2002
0000
0000
3003
,
0100
0000
0000
0100
,
0120
0000
1030
0000
,
1000
0000
0100
0000
,
1000
0000
0001
0000
,
0100
0000
0001
0000
,
0010
0000
0001
0000
,
0100
0000
0010
0000
,
1000
0001
1000
0000
,
0002
0000
0000
0003
,
0200
0300
0100
0000
,
0020
0030
0010
0000
,
2000
3000
2000
3000
,
0002
0003
0001
0000
,
0020
0030
0010
0000
,
0200
0300
0100
0000
,
2000
3000
0100
1000
,
0002
0000
0003
0000
,
0200
0300
0010
1000
,
0002
0003
0010
0000
,
0200
0300
1000
0001
,
2000
3000
0020
0030
,
0200
0300
0002
0003
,
1000
1000
2000
3000
,
0002
0003
0020
0030
,
0200
0300
1000
0000
,
2000
0000
0000
3001
,
2000
0000
0000
3010
,
0200
0300
0020
0030
,
2000
3000
0002
0003
,
0020
0030
0002
0003
,
0200
0300
0020
0030
,
0200
0300
0002
0203
,
0320
0000
0000
0030
,
2000
0000
0000
3100
,
2000
0000
0000
3001
,
0200
0300
0002
0003
,
0020
0030
0200
0300
,
0020
0030
0002
0003
,
2000
3000
0002
0003
,
2002
0000
0000
3003
,
0010
0000
0100
0000
,
0120
1030
0002
0103
,
2000
3100
2002
0000
,
0000
0000
0000
3003
;

//---------------dance-single - ----------------
#NOTES:
     dance-single:
     :
     Medium:
     6:
     0.460,0.442,0.158,0.890,0.000:
0000
0000
0000
0000
,
0000
0000
0000
0000
,
0000
0000
0000
0000
,
0000
0000
0000
0000
,
0000
0000
0000
0000
,
0000
0000
0000
1000
,
0200
0310
0200
1300
,
0002
0203
0320
0130
,
0001
2000
3200
0320
,
0130
2000
3002
0203
,
0310
2000
3020
0130
,
1001
0000
0000
0110
0000
0000
1001
0000
,
2000
0010
0100
3001
,
0200
0010
0001
0310
,
0002
0010
1000
0103
,
2000
0100
0001
3010
,
1002
0100
0010
1003
,
0200
0010
0001
1300
,
0020
1000
0001
0130
,
2000
3200
0320
0032
,
2003
0100
0001
3010
,
0002
0100
1000
0013
,
2000
0001
0100
3001
,
0200
0001
1000
0301
,
2001
3010
0200
0301
,
2000
3100
0020
0031
,
1000
2002
0000
0000
0000
0000
3003
0000
,
0110
0000
0000
1001
0000
0000
0011
0000
,
0200
0310
2000
3001
,
0200
0301
0200
0310
,
0200
0301
0020
1030
,
0020
0031
2000
3001
,
0200
0310
2000
3100
,
0020
0031
0200
0310
,
0200
0301
0020
1030
,
0010
0001
0000
1000
0000
0001
0000
1000
,
0002
1003
0020
0030
,
2000
3100
0020
0030
,
0002
0103
0020
1030
,
0002
1003
2002
3003
,
2000
3100
2000
3000
,
0002
0103
0020
0030
,
0200
0301
2000
3100
,
0010
0110
2002
3003
,
2000
0000
3001
0000
0100
0010
0100
0001
,
0020
0000
0000
0000
0130
0000
1000
0100
,
2000
0000
3000
0000
0002
0000
0003
0100
,
0020
0030
2000
3000
0002
0003
1001
0000
,
0200
0000
0300
0000
0010
1000
0001
0100
,
0002
0003
2000
3000
0002
0003
2000
3000
,
0020
0030
0200
0300
,
0001
1000
0100
0000
1001
0000
0001
0000
,
2000
0000
3100
0000
0010
0001
0010
0000
,
0002
0000
0103
0000
0010
1000
0010
0000
,
2000
3001
0200
0301
,
2000
3100
0020
0031
,
0200
0000
0310
0000
0100
0001
0100
0000
,
0020
0000
1030
0000
0010
0100
0010
0000
,
2000
3001
0200
0301
,
2000
3200
0320
0032
,
2003
0000
3100
0000
0010
0001
0010
0001
,
0200
0000
0310
0000
0100
0001
0100
0001
,
2000
0000
3001
0000
1000
0001
1000
0001
,
0200
0000
0310
0000
0100
0001
1000
0010
,
2000
3001
0020
0130
,
2000
3100
0020
0031
,
1000
2002
0000
0000
0000
0000
3003
0000
,
0110
0000
0000
1001
0000
0000
1100
0000
,
0001
0100
0002
0000
1003
0100
2000
0000
,
3010
0100
0001
1000
2002
0000
0000
0000
,
0000
0000
0000
3003
;

//---------------dance-single - ----------------
#NOTES:
     dance-single:
     :
     Hard:
     11:
     0.622,0.736,0.308,0.799,0.087: // measure 1
0000
0000
0000
0000
,  // measure 2
0000
0000
0000
0000
,  // measure 3
0000
0000
0000
0000
,  // measure 4
0000
0000
0000
0000
,  // measure 5
0000
0000
0000
0000
,  // measure 6
0000
0000
0000
0000
0000
0000
0001
0100
,  // measure 7
0020
0000
1030
0001
0200
0000
0301
1000
,  // measure 8
0200
0000
1300
0100
0020
0000
0130
1000
,  // measure 9
0200
2300
3020
0230
,  // measure 10
0302
0023
0230
2300
,  // measure 11
3200
0302
0203
0310
,  // measure 12
1001
0000
0000
0110
0000
0000
1001
0000
,  // measure 13
2000
0000
3001
0001
0100
0010
0100
0001
,  // measure 14
0020
0000
0130
0100
1000
0010
0100
0001
,  // measure 15
0200
0000
0310
0010
1000
0010
0100
0001
,  // measure 16
2000
3001
0002
0103
,  // measure 17
0120
0000
0130
0100
0001
1000
0010
0100
,  // measure 18
0002
0000
1003
1000
0100
1000
0010
0100
,  // measure 19
0020
0000
1030
0010
0200
0000
0302
0000
,  // measure 20
2003
3200
0320
0130
,  // measure 21
2001
0000
3001
0001
0100
0001
0010
0001
,  // measure 22
0020
0000
1030
1000
0010
0001
0100
0010
,  // measure 23
0200
0000
0301
0001
1000
0001
0100
0001
,  // measure 24
2000
3001
0200
0310
,  // measure 25
1002
0000
1003
0000
0100
0001
0020
0000
,  // measure 26
1030
0100
2000
0000
3001
0100
0020
0000
,  // measure 27
1030
2002
0000
0000
0000
0000
3003
0000
,  // measure 28
0110
0000
0000
1001
0000
0000
1100
0000
,  // measure 29
0012
0000
0103
0001
0200
0000
0310
1000
,  // measure 30
0020
0000
0130
0001
0100
0000
0100
0010
,  // measure 31
0200
0000
0310
1000
0020
0000
1030
0001
,  // measure 32
2000
0000
3001
0010
0001
0000
0001
0010
,  // measure 33
0200
0000
0310
0001
2000
0000
3001
0100
,  // measure 34
0020
0000
0130
0010
0100
0000
0001
1000
,  // measure 35
0200
2300
3200
0320
,  // measure 36
0031
0100
0000
0101
0000
1001
0001
1000
,  // measure 37
0010
1000
0200
0000
0310
0000
0100
0000
,  // measure 38
1000
0001
0200
0000
0301
0000
1000
0000
,  // measure 39
0010
1000
0020
0000
0130
0001
0200
0000
,  // measure 40
0301
1000
0001
1000
0010
0000
0100
0000
,  // measure 41
0010
1000
0002
0000
1003
0000
0100
0000
,  // measure 42
0010
0100
2000
0000
3100
0000
0010
0000
,  // measure 43
0110
0000
0000
0000
1001
0000
0000
0000
0101
0000
0000
0000
1000
0000
0100
1000
,  // measure 44
0100
1010
2002
3003
,  // measure 45
0001
0000
0000
0000
1000
0000
0000
0100
1000
0100
0100
0000
0010
0000
0001
0000
,  // measure 46
0200
0000
0300
0000
0020
0000
0030
1000
0001
1000
1000
0000
0001
0000
0010
0001
,  // measure 47
0200
0000
0000
0000
0310
0000
0100
0001
0100
0000
0001
1000
0000
1000
0010
0000
,  // measure 48
2000
3200
0320
0032
2003
0000
3001
0000
,  // measure 49
1001
0010
0100
0001
2000
3200
0320
0032
,  // measure 50
2003
0000
3001
0000
0200
0000
0310
0000
0200
0000
0300
0000
0001
0000
0010
0001
,  // measure 51
0020
0000
0000
0000
0030
0000
0100
1000
0100
0000
1000
0001
0000
0001
1000
0000
,  // measure 52
0010
0000
0000
0000
0110
0000
0000
0000
1001
0000
0000
0000
1010
0000
0000
0000
0101
0000
0000
0000
0000
0000
0001
1000
0001
0000
0000
0000
1001
0000
0000
0000
,  // measure 53
0210
0000
0301
0100
0001
0001
0010
0100
,  // measure 54
2000
0000
3100
0100
1000
0010
1000
0001
,  // measure 55
0020
0000
0031
1000
0010
0010
1000
1000
,  // measure 56
0200
0000
0301
0100
0010
0010
0001
0001
,  // measure 57
2001
0000
3010
0010
0100
0100
0001
0001
,  // measure 58
0020
0000
0031
1000
0010
0010
0100
0100
,  // measure 59
0002
0000
0103
0001
0200
0000
0320
0000
,  // measure 60
1030
0100
0010
0001
1000
0100
0010
0001
,  // measure 61
0102
0000
0103
0100
0010
0010
1000
1000
,  // measure 62
2010
0000
3001
0001
0100
0100
0001
0001
,  // measure 63
0201
0000
0310
0010
0100
0100
0001
0001
,  // measure 64
1000
0100
0010
0100
1000
0001
0100
0010
,  // measure 65
2000
0000
3010
1000
0001
0100
0001
0010
,  // measure 66
0002
0000
0103
0010
1000
0010
0100
0001
,  // measure 67
1001
2002
0000
0000
0000
0000
3003
0000
,  // measure 68
0110
0000
0000
1001
0000
0000
1100
0000
,  // measure 69
0101
0001
1000
0100
0020
0000
0000
0000
0130
1000
0010
0100
0002
0000
0000
0000
,  // measure 70
1003
0010
1000
0001
0100
0000
0110
0000
2002
0000
0000
0000
0000
0000
0000
0000
,  // measure 71
0000
0000
0000
3003
;

//---------------dance-single - ----------------
#NOTES:
     dance-single:
     :
     Challenge:
     15:
     0.725,0.971,0.474,0.150,0.429:
0000
0000
0000
0000
,
0000
0000
0000
0000
,
0000
0000
0000
0000
,
0000
0000
0000
0000
,
0000
0000
0000
0000
,
0000
0000
0000
0000
0000
0000
0001
0100
,
0010
1000
0000
1010
0100
0001
0000
0011
,
0100
1000
0000
0110
0001
1000
0000
0110
,
0100
0000
0000
0000
0100
0000
0001
0000
0000
0000
0001
0000
0010
0000
0000
0010
,
0100
0000
1000
0000
0000
0000
1000
0000
0010
0000
0100
0010
0100
0000
0001
1000
,
0001
0000
0000
0000
1000
0100
1000
0100
1000
0100
0010
0001
0010
0001
0010
0001
,
1000
0000
0000
1001
0000
0000
0110
0000
,
0010
0000
1000
0000
0100
0000
0001
0000
0100
0000
1000
0000
0010
0000
0100
0001
,
1000
0000
0001
0000
0010
0000
1000
0000
0010
0000
0001
0000
0100
0000
0010
0100
,
0001
0000
0100
0000
1000
0000
0100
0000
0001
0000
0010
0000
1000
0000
0010
0100
,
1000
0100
0001
0100
1000
0000
1001
0000
,
0110
0000
0010
0000
1000
0000
0010
0000
0001
0000
0010
0000
1000
0000
0100
1000
,
0001
0000
1000
0000
0100
0000
0001
0000
0100
0000
1000
0000
0010
0000
0100
0001
,
1000
0000
0001
0000
0100
0000
1000
0000
0100
0000
0001
0000
0010
0000
0100
1000
,
0100
0000
0000
0100
0010
0000
0000
0010
0001
0000
0000
0000
1001
0000
0000
0000
,
0011
0000
0001
0000
0010
0000
1000
0000
0010
0000
0001
0000
1000
0000
0001
1000
,
0100
0000
0001
0000
0100
0000
1000
0000
0010
0000
0100
0000
0001
0000
1000
0001
,
0100
0000
1000
0000
0100
0000
0001
1000
0001
0000
1000
0010
1000
0000
0001
0000
,
0010
0000
1000
0000
0010
0000
0100
0000
1000
0000
0001
0000
1000
0000
0010
0100
,
0001
0000
0001
0000
1000
0100
1000
0000
0001
0000
0001
0000
1000
0010
1000
0000
,
0001
0000
0001
0000
1000
0001
1000
0000
0010
0000
0010
0000
0100
0001
1000
0000
,
1001
0000
1001
0000
0010
0100
0010
0100
0010
0100
0001
1000
0001
1000
0001
1000
,
0100
0000
0000
1100
0000
0000
0011
0001
,
0100
0000
0000
0000
0010
0000
0100
0000
0000
0000
0100
0000
0001
0000
0000
0001
,
1000
0000
0100
0000
0000
0000
0100
0000
1000
0000
0001
1000
0001
0000
1000
0010
,
1000
0000
0000
0000
1000
0000
0100
0000
0000
0000
0100
0000
0010
0000
0000
0010
,
0100
0000
1000
0000
0000
0000
0001
0000
0100
0000
0010
1000
0010
0000
1000
0001
,
1000
0000
0000
0000
0001
0000
0010
0000
0000
0000
0010
0000
0001
0000
0000
0001
,
1000
0000
0001
0000
0000
0000
0001
0100
0001
0000
1000
0100
1000
0000
0001
0000
,
0100
0100
0010
0010
,
0100
1001
0000
0110
0000
1001
0010
0100
,
1100
0010
0001
0100
2010
0000
3001
0000
,
0101
0010
1000
0100
0012
0000
1003
0000
,
1100
0010
0001
0000
0101
0010
1000
0000
,
1100
0000
0001
1000
0001
0000
1000
0000
0001
0000
0000
0000
1000
0000
0010
0000
,
0102
0000
0013
0001
2100
0000
3001
0100
,
0210
0000
0000
0301
1000
0000
0001
0000
0101
0000
0000
0000
1000
0000
0100
0000
,
0110
0000
0000
0000
1100
0000
0000
0000
0101
0000
0000
0000
0001
1000
0001
1000
,
0010
0110
1001
0000
,
2100
0000
0000
0000
3010
0000
0000
0100
0001
0100
0100
0000
0010
0000
1000
0000
,
0001
0010
0100
1000
0001
0000
1000
0000
0012
0000
0000
0000
0103
0000
1000
0010
,
0200
0000
0000
0000
0000
0000
0000
0000
0310
0000
0000
0000
1000
0000
0001
1000
0001
0000
0000
0000
0001
0000
0100
0000
0000
0000
0100
0000
0001
0000
0000
0000
,
1000
0100
0010
0001
1000
0000
1100
0000
0011
0000
0000
0000
1001
0000
0000
0000
,
0110
0010
1000
0010
0100
0001
1000
0100
0010
0100
0100
0000
1000
0000
0001
0000
,
1100
0000
0010
0000
0001
0000
0000
0000
0101
0000
0010
0000
1000
0000
0000
0000
0110
0000
0001
0000
1000
0000
0000
0000
2100
0000
0000
0000
3010
0000
0001
0010
,
0001
0000
0000
0000
0100
0000
0000
0000
0010
0000
0000
0000
1000
0000
0100
1000
0100
0000
0000
0000
1000
0000
0100
0000
0000
0000
0100
0000
0010
0000
0000
0000
,
0210
0000
0000
0000
2300
0000
0000
0000
3002
0000
0000
0000
0203
0000
0000
0000
0310
0000
0000
0000
0000
0000
0010
0100
0010
0000
0000
0000
0010
0000
0000
0000
,
1001
0000
0010
0000
1000
0000
0100
0000
0001
0000
0100
0000
1000
0000
0001
1000
,
0100
0000
1000
0000
0010
0000
0001
0000
0010
0000
1000
0000
0100
0000
0010
0001
,
0100
0000
0001
0000
1000
0000
0001
0010
0001
0000
1000
0010
1000
0000
0001
0000
,
1000
0100
0001
0100
1000
0010
0100
0001
,
1001
0000
0010
0000
1000
0000
0010
0000
0001
0000
0010
0000
1000
0000
0001
0010
,
0100
0000
0010
0000
0001
0000
0010
0000
1000
0000
0010
0000
0001
0000
1000
0100
,
0010
0000
0100
0000
1000
0000
0001
0100
0001
0000
1000
0010
1000
0000
0001
0000
,
1000
0000
0000
1000
0100
0000
0000
0100
0010
0000
0000
0000
0011
0000
0000
0000
,
1001
0000
0010
0000
0110
0000
0100
0000
0001
0000
0010
0000
1000
0000
0010
0001
,
1000
0000
0010
0000
1010
0000
1000
0000
0100
0000
0001
0000
0100
0000
1000
0001
,
0100
0000
0010
0000
0110
0000
0010
1000
0010
0000
0100
0001
0100
0000
0001
0000
,
1000
0000
0001
0000
1001
0000
1000
0000
0100
0000
0001
0000
0100
1000
0001
0000
,
1000
0000
1000
0000
0001
0100
0001
0000
1000
0000
1000
0000
0001
0010
0001
0000
,
1000
0000
1000
0000
0001
1000
0001
0000
1000
0000
1000
0000
0001
0010
0100
0000
,
0110
0000
0110
0000
0010
0001
0010
0001
1000
0010
1000
0010
0100
0001
0100
0001
,
1000
0000
0000
1001
0000
0000
0110
0000
,
0010
1000
0100
1000
0020
0000
0130
0000
0001
0100
0001
0010
0002
0000
1003
0000
,
1000
0100
0010
0001
0200
0000
0310
0000
2002
0000
0000
0000
0000
0000
0000
0000
,
0000
0000
0000
3003
;
