#TITLE:ALL I NEED YOUR LOVE;
#SUBTITLE:;
#ARTIST:GUHROOVY fw. M-Project;
#TITLETRANSLIT:;
#SUBTITLETRANSLIT:;
#ARTISTTRANSLIT:;
#GENRE:;
#CREDIT:;
#MENUCOLOR:;
#NEWMETERSYSTEM:NO;
#BANNER:ALL I NEED YOUR LOVE.png;
#BACKGROUND:ALL I NEED YOUR LOVE-bg.png;
#LYRICSPATH:;
#CDTITLE:./CDTITLES/BEATMANIA IIDX.PNG;
#MUSIC:ALL I NEED YOUR LOVE.mp3;
#OFFSET:-0.185;
#SAMPLESTART:97.819;
#SAMPLELENGTH:15.000;
#SELECTABLE:YES;
#LISTSORT:;
#BPMS:0.000=145.000;
#STOPS:;
#BGCHANGES:0.000=ALL I NEED YOUR LOVE.avi=1.000=1=1=0,
99999=-nosongbg-=1.000=0=0=0 // don't automatically add -songbackground-
;
#ATTACKS:;

//---------------dance-single - ----------------
#NOTES:
     dance-single:
     :
     Beginner:
     3:
     0.146,0.203,0.017,0.000,0.000:
0000
0000
0000
0000
,
0000
0000
0000
0000
,
0000
0000
0000
0000
,
0100
0000
0000
0000
,
0010
0000
0000
0000
,
1000
0000
0000
0000
,
0001
0000
0000
0000
,
1000
0000
0000
0000
,
0100
0000
0000
0000
,
0010
0000
0000
0000
,
0001
0000
0000
0000
,
0100
0000
0100
0000
,
0100
0000
0100
0000
,
0010
0000
0010
0000
,
0010
0000
0010
0000
,
1000
0000
0000
0000
,
0001
0000
0000
0000
,
1000
0000
0000
0000
,
0100
0000
1000
0000
,
0001
0000
0001
0001
,
0001
0000
0001
0001
,
0001
0000
1000
1000
,
1000
0000
1000
1000
,
1000
0000
0010
0010
,
0010
0000
0010
0010
,
0010
0000
0100
0100
,
0100
0000
0100
0100
,
0100
0000
0001
0000
,
1000
0000
0010
0000
,
1000
0000
0001
0000
,
1000
0000
0100
0000
,
0010
0000
0001
0000
,
1000
0000
0010
0000
,
0100
0000
0001
0000
,
1000
0000
0001
0000
,
1000
0000
0100
0000
,
1000
0000
0100
0000
,
0010
0000
0001
0000
,
0010
0000
0001
0000
,
0100
0000
0001
0000
,
1000
0000
0010
0000
,
0100
0000
0100
0000
,
0010
0000
1000
0000
,
0001
0000
0000
0000
,
0100
0000
0000
0000
,
0010
0000
0000
0000
,
1000
0000
0000
0000
,
0001
0000
1000
0000
,
0001
0000
1000
0000
,
0010
0000
0100
0000
,
0010
0000
1000
0000
,
0000
0001
0000
1000
,
0000
0100
0000
0010
,
0000
0100
0000
1000
,
0000
0010
0000
0001
,
0000
0100
0000
0001
,
0000
1000
0000
0010
,
0010
0000
0000
0000
,
1000
0000
0001
0000
,
1001
0000
0000
0000
,
0100
0000
0010
0000
,
1000
0000
0000
0000
,
0001
0000
0010
0000
,
0100
0000
0000
0000
,
0010
0000
0001
0000
,
1000
0000
0000
0000
,
0010
0000
0100
0000
,
0001
0000
0000
0000
,
1000
0000
0001
0000
,
0110
0000
0000
0000
;

//---------------dance-single - ----------------
#NOTES:
     dance-single:
     :
     Easy:
     5:
     0.294,0.289,0.034,0.361,0.000:
0000
0000
0000
0000
,
0000
0000
0000
0000
,
0000
0000
0000
0000
,
2000
0000
0010
3010
,
0200
0000
0001
0301
,
2000
0000
0100
3100
,
0020
0000
0001
0031
,
2000
3000
0002
0003
,
0200
0300
0020
0030
,
1000
1000
2000
3000
,
0001
0001
0002
0003
,
2002
0000
0000
0000
,
0000
0000
0000
3003
,
0200
0000
0000
0300
,
0010
0010
0020
0030
,
2002
0000
0000
0000
,
0000
0000
0000
3003
,
0200
0000
0000
0300
,
0100
0100
0200
0300
,
1000
1000
0001
1000
,
0001
1000
0001
1000
,
0010
0010
0100
0010
,
0100
0010
0100
0010
,
1000
1001
0001
1000
,
0001
1000
0001
1000
,
0010
0010
0100
0010
,
0100
0010
0100
0010
,
1000
1000
2000
3000
,
0100
0100
0200
0300
,
0020
0030
0002
0003
,
1000
0001
2000
3000
,
0001
0001
0002
0003
,
0100
0100
0200
0300
,
0010
1000
0020
0030
,
1000
0100
2000
3000
,
0001
1000
0001
1000
,
1000
1000
1000
1000
,
0001
1000
0001
1000
,
0001
0001
0001
0001
,
0100
0010
0100
0010
,
0100
0100
0100
0100
,
0010
0100
0010
0100
,
0010
0010
0010
0010
,
2000
0000
3100
0000
,
0002
0000
0103
0000
,
0020
0000
1030
0000
,
0002
0000
0013
0000
,
0200
0300
0000
0000
,
0020
0030
0000
0000
,
0002
0003
0000
0000
,
2000
0000
0001
3001
,
1000
0100
0010
0010
,
0001
0100
0010
0010
,
1000
0001
0100
0100
,
0001
1000
0010
0010
,
1000
0001
1000
1000
,
0001
1000
0001
0001
,
1000
0100
0010
0010
,
0100
1000
0001
0001
,
0200
0300
0010
0010
,
2000
3000
0001
0001
,
0020
0030
0001
0001
,
0200
0300
0010
1000
,
0200
0300
1000
0100
,
0020
0030
0001
1000
,
0002
0003
2000
3000
,
0010
0100
0010
1000
,
0001
0001
1000
1000
,
0001
1000
0010
0100
,
0110
0000
0000
0000
;

//---------------dance-single - ----------------
#NOTES:
     dance-single:
     :
     Medium:
     8:
     0.425,0.434,0.134,0.176,0.017:
0000
0000
0000
0000
,
0000
0000
0000
0000
,
0000
0000
0000
0000
,
0001
0000
0100
0000
0010
1000
0010
0000
,
1000
0000
0100
0000
0010
0001
0010
0000
,
0001
0000
1000
0000
0001
1000
0100
0000
,
1000
0000
0001
0000
1000
0001
0010
0000
,
0001
0000
0100
0000
0010
0010
0010
0000
,
1000
0000
0100
0000
0010
0010
0010
0000
,
0100
0000
1000
0000
0001
0001
0001
0000
,
1000
0000
0100
0000
1000
1000
1000
0000
,
2002
0000
0000
0000
,
0000
0000
0000
3003
,
0200
0000
0000
0000
,
0310
0010
0010
1000
,
1002
1000
0000
1000
,
0000
1000
0000
1003
,
2001
0001
0000
3001
,
0220
0000
0000
0330
,
1000
1000
0001
0001
,
0100
0000
0100
0000
0010
0010
0010
0000
,
1000
1000
0100
0100
,
1000
0000
1000
0000
0001
0001
0001
0000
,
0010
0001
1000
0010
,
0100
0000
0001
0000
1000
1000
1000
0000
,
0100
1000
0001
0100
,
0010
0000
0100
0000
0010
1000
0001
0000
,
1000
0000
1100
0000
0001
0100
0001
0000
,
0100
0000
0101
0000
0001
0010
0001
0000
,
1000
0000
1010
0000
1000
0010
0100
0000
,
0010
0000
1001
0000
0100
0001
1000
0000
,
0001
0000
0100
0000
0001
0010
0001
0000
,
1000
0000
0100
0000
1000
0100
0010
0000
,
0001
0000
1000
0000
0001
1000
0100
0000
,
0010
0110
2002
3003
,
0010
0000
0010
0000
0010
0010
0010
0000
,
0100
0000
0001
0000
1000
0100
1000
0000
,
0001
0000
0001
0000
0001
0001
0001
0000
,
1000
0000
0100
0000
1000
0010
1000
0000
,
0100
0000
0100
0000
0100
0100
0100
0000
,
1000
0000
0001
0000
0100
0001
1000
0000
,
0010
0000
0100
0000
0010
0010
0010
0000
,
1000
0010
1000
0000
0001
0100
0001
0000
,
2001
0000
0100
0000
0001
0001
3001
0000
,
0200
0000
0010
0000
1000
1000
1300
0000
,
0002
0000
0100
0000
0010
0010
0013
0000
,
2000
0000
0100
0000
0010
0010
3010
0000
,
0002
0000
0103
0000
0010
1000
0001
0000
,
2000
0000
3100
0000
0010
0001
1000
0000
,
0002
0000
0103
0000
0010
0100
0001
1000
,
0100
0000
0000
1100
0000
0000
0001
0000
1000
0000
0000
1001
0000
0000
0010
0000
,
0100
0001
1000
0001
0100
0000
0100
0000
,
0010
1000
0100
1000
0010
0000
0010
0000
,
1000
0001
0100
0001
1000
0000
1000
0000
,
0001
0010
0100
0010
0001
0000
0001
0000
,
0100
0001
0010
0000
0001
1000
0001
0000
,
1000
0100
0001
0000
0100
1000
0001
0000
,
1000
0010
0001
0000
0010
1000
0001
0000
,
1000
0000
1001
0000
0100
0010
1000
0010
,
0100
0001
0200
0000
0301
1000
0001
0000
,
1000
0000
0100
0000
1000
0100
0010
0000
,
1000
0010
2000
0000
3010
0100
0001
0000
,
0010
0000
0000
0001
0000
0000
1000
0000
0100
0000
0000
1001
0000
0000
0100
0000
,
0010
1000
0020
0000
0130
0001
1000
0000
,
0001
0010
0002
0000
1003
0100
0010
0000
,
0100
1000
0020
0000
0130
0010
1000
0000
,
0010
0100
0001
0000
1000
0100
1000
0001
,
0100
0010
1000
0001
,
1000
0000
0100
0000
0010
0000
0001
1000
,
0110
0000
0000
0000
;

//---------------dance-single - ----------------
#NOTES:
     dance-single:
     :
     Hard:
     13:
     0.656,0.637,0.218,0.042,0.600: // measure 1
0000
0000
0000
0000
,  // measure 2
0000
0000
0000
0000
,  // measure 3
0000
0000
0000
0000
,  // measure 4
0001
0000
0100
0000
0001
0000
1000
0000
0100
0000
0000
0100
0000
0000
0100
0000
,  // measure 5
1000
0010
0100
0001
1000
0001
0100
0001
,  // measure 6
1000
0000
0010
0000
0100
0000
0010
0000
1000
0000
0000
1000
0000
0000
1000
0000
,  // measure 7
0001
0000
0010
0000
0100
0000
0010
0000
1001
0000
0000
0110
0000
0000
1001
0000
,  // measure 8
0001
0000
1000
0000
0001
0000
0100
0000
0010
0000
0000
0010
0000
0000
0010
0000
,  // measure 9
0100
0001
1000
0100
0010
0100
1000
0001
,  // measure 10
0100
0000
0001
0000
1000
0000
0010
0000
0100
0000
0000
0100
0000
0000
0100
0000
,  // measure 11
0001
0000
0001
0100
0000
0000
0001
0000
1000
0000
1000
0100
0000
0000
1001
0000
,  // measure 12
0100
0000
0000
0100
1000
0000
0000
1000
0001
0000
0000
0001
0010
0000
0000
0010
,  // measure 13
0001
0000
0000
0001
0100
0000
0000
0100
0010
0000
0000
0010
1000
0000
0000
1000
,  // measure 14
0100
0000
0000
0100
1000
0000
0000
1000
0001
0000
0000
0001
0010
0000
0000
0010
,  // measure 15
0001
0000
0000
1001
0000
0000
0110
0000
0100
0000
0010
0000
2000
0000
0000
0000
,  // measure 16
3100
0000
0000
0100
1000
0000
0000
1000
0010
0000
0000
0010
0001
0000
0000
0001
,  // measure 17
0010
0000
0000
0010
0100
0000
0000
0100
0001
0000
0000
0001
0010
0000
0000
0010
,  // measure 18
0100
0000
0000
0100
1000
0000
0000
1000
0100
0000
0000
0100
1000
0000
0000
1000
,  // measure 19
0001
0002
0000
0000
0000
1000
1003
0000
,  // measure 20
1000
0000
0000
1000
0100
0000
0000
0000
1000
0000
0000
1000
0001
0000
0000
0001
,  // measure 21
0010
0000
0000
0010
0001
0000
0000
0001
1000
0000
0000
1000
0010
0000
0000
0010
,  // measure 22
0100
0000
0000
0100
0010
0000
0000
0000
0100
0000
0000
0100
0001
0000
0000
0001
,  // measure 23
1000
0000
0000
1000
0100
0000
0000
0100
0010
0000
0000
0010
0100
0000
0000
0100
,  // measure 24
1000
0000
0000
0001
0100
0000
0000
0000
0010
0000
0000
1000
0010
0000
0000
0100
,  // measure 25
0001
0000
0000
1000
0100
0000
0000
0010
0001
0000
0000
1000
0100
0000
0000
1000
,  // measure 26
0001
0000
0000
0100
0010
0000
0000
0000
0100
0000
0000
0010
1000
0000
0001
0000
,  // measure 27
0010
0100
0000
0010
0001
0000
1000
0100
0000
1000
0010
0000
2000
0000
0000
0000
,  // measure 28
3001
0000
0000
0001
0010
0000
0000
0010
0001
0000
0000
1000
0100
0000
0000
1000
,  // measure 29
0010
0000
0000
0100
0001
0000
0000
1000
0001
0000
0000
0010
1000
0000
0000
0010
,  // measure 30
0100
0000
0000
0100
0010
0000
0000
0010
0001
0000
0000
1000
0100
0000
0000
1000
,  // measure 31
0010
0000
0000
0100
0001
0000
0000
0100
0010
0000
0000
0001
1000
0000
0000
0001
,  // measure 32
0010
0000
0000
0010
0100
0000
0000
0100
1000
0000
0000
0001
0100
0000
0000
1000
,  // measure 33
0010
0000
0000
1000
0100
0000
0000
0001
0010
0000
0000
0001
1000
0000
0000
0010
,  // measure 34
0100
0100
0010
0010
1000
1000
0001
0001
,  // measure 35
2001
0000
0000
0100
0000
0000
0100
0000
0020
0000
0000
0000
3030
0000
0000
0000
,  // measure 36
1000
0000
0001
0000
0100
0001
0000
0001
1000
0000
0100
0000
1000
0010
0000
0010
,  // measure 37
1000
0001
0010
0001
0100
0010
0100
0001
,  // measure 38
1000
0000
0100
0000
0010
0100
0000
0100
1000
0000
0001
0000
0100
0001
0000
0001
,  // measure 39
1000
0100
0001
0100
1000
0001
1000
0001
,  // measure 40
0100
0000
0010
0000
0100
0010
0000
0010
1000
0000
0001
0000
1000
0100
0000
0100
,  // measure 41
1000
0100
0010
0100
1000
0001
0100
0010
,  // measure 42
0100
0000
0001
0000
0010
0001
0000
0001
1000
0000
0001
0000
1000
0010
0000
0010
,  // measure 43
1000
0010
0100
0001
1000
0100
1000
0001
,  // measure 44
1001
0000
1000
0000
0100
0000
0100
0000
0010
0000
0000
0100
0000
0000
1000
0000
,  // measure 45
0001
0000
0001
0000
0100
0000
0100
0000
0010
0000
0000
0100
0000
0000
0001
0000
,  // measure 46
1000
0000
1000
0000
0001
0000
0001
0000
0100
0000
0000
0001
0000
0000
1000
0000
,  // measure 47
0010
0000
0000
0110
0000
0000
1000
0000
0001
1000
0000
1001
0000
0000
0110
0000
,  // measure 48
1100
0000
0100
0000
1000
0000
0001
0000
0010
0000
0000
0010
0000
0000
0010
0000
,  // measure 49
0001
0000
0100
0000
0010
0000
1000
0000
0001
0000
0000
0001
0000
0000
0001
0000
,  // measure 50
1000
0000
0100
0000
0010
0000
0100
0000
1000
0000
0000
1000
0000
0000
1000
0000
,  // measure 51
1001
0000
0000
0110
0000
0000
1100
0000
0001
0100
0000
1001
0000
0000
1010
0000
,  // measure 52
0101
0000
0001
0000
1000
0000
0001
0000
1000
0000
0100
1000
0000
0000
0100
0000
,  // measure 53
1000
0000
0010
0000
0100
0000
0001
0000
1000
0000
0010
1000
0000
0000
0001
0000
,  // measure 54
0010
0000
0001
0000
0100
0000
0010
0000
1000
0000
0001
0010
0000
0000
0100
0000
,  // measure 55
0010
0000
0001
0000
1000
0000
0100
0000
1000
0000
0001
1000
0000
0000
0001
0000
,  // measure 56
1001
0000
0010
0000
0100
0000
0010
0000
1000
0000
0010
0100
0000
0000
0001
0000
,  // measure 57
1000
0000
0100
0000
0010
0000
0001
0000
1000
0000
0100
1000
0000
0000
0001
0000
,  // measure 58
0100
0000
0001
0000
0010
0000
1000
0000
0010
0000
0001
0100
0000
0000
0010
0000
,  // measure 59
1000
0000
1000
0001
0000
0001
0100
0000
0001
0000
0001
1000
0000
1000
0100
0000
,  // measure 60
1000
0000
0001
0000
0110
0000
0100
0000
0001
0000
1000
0100
0000
1000
0100
0000
,  // measure 61
1000
0000
0001
0000
0011
0000
0001
0000
0100
0000
0010
1000
0000
0000
0100
0000
,  // measure 62
1000
0000
0001
0000
1001
0000
0100
0000
0010
0000
0100
0010
0000
0100
0010
0000
,  // measure 63
1000
0000
0000
1001
0000
0000
0001
0000
0100
0000
0000
0110
0000
0000
1000
0000
,  // measure 64
1001
0000
0001
0000
0010
0000
0100
0000
0010
0000
0001
0100
0000
0001
0100
0000
,  // measure 65
0010
0000
1000
0000
0100
0000
0010
0000
0100
0000
1000
0001
0000
0000
0100
0000
,  // measure 66
0010
0000
1000
0000
0100
0000
1000
0000
0001
0000
0100
0001
0000
0010
0001
0000
,  // measure 67
1000
0000
0100
0000
0010
0000
0001
0000
1000
0000
0001
0000
0100
0010
1000
0000
,  // measure 68
0010
0000
0000
0010
0100
0000
0000
0100
0001
0000
0000
0001
1000
0000
0000
1000
,  // measure 69
0001
0000
0000
0001
0010
0000
0000
0010
0100
0000
0000
0100
1000
0000
0001
0000
,  // measure 70
0110
0000
0000
0000
;
