#TITLE:The Sky of Sadness;
#SUBTITLE:;
#ARTIST:猫叉Master;
#TITLETRANSLIT:;
#SUBTITLETRANSLIT:;
#ARTISTTRANSLIT:Nekomata Master;
#GENRE:;
#CREDIT:;
#MENUCOLOR:;
#METERTYPE:DDR;
#BANNER:The Sky of Sadness-bn.png;
#BACKGROUND:The Sky of Sadness-bg.png;
#LYRICSPATH:;
#CDTITLE:TUNE STREET-cdtitle.png;
#MUSIC:The Sky of Sadness.mp3;
#OFFSET:-0.440;
#SAMPLESTART:69.980;
#SAMPLELENGTH:10.440;
#SELECTABLE:YES;
#LISTSORT:;
#BPMS:0.000=138.000;
#STOPS:;
#BGCHANGES:;
#ATTACKS:;

//---------------dance-single - ----------------
#NOTES:
     dance-single:
     :
     Hard:
     8:
     0.572,0.572,0.188,0.286,0.277:
0000
0000
0000
0000
,
0000
0000
2002
0000
,
3003
0022
0000
0033
,
2200
0000
3300
0220
,
0000
0000
0330
0000
1000
0000
0100
0010
,
0001
0000
0010
0000
0100
1000
0001
0000
,
0100
0000
0010
1000
0001
0000
0010
0000
,
0001
0000
0010
0000
0100
0000
1000
0000
0010
0100
0000
0010
0000
1000
0000
0000
,
0001
0000
0010
0000
0001
0100
0000
0010
0000
1000
0000
0000
1000
0000
0100
0000
,
0010
0100
0000
0010
0000
0001
0000
0000
1000
0000
0001
0000
0100
0001
0000
1000
,
0000
0001
0000
0000
0010
0000
0010
0000
0001
1000
0000
0010
0000
0100
0000
0000
,
0010
0000
1000
0000
0100
1000
0000
0100
0000
1000
0000
0000
0010
0000
0100
0000
,
0010
1000
0000
0100
0000
0001
0000
0000
0100
0000
0010
0000
0001
1000
0000
0010
,
0000
1000
0000
0000
0100
0000
0010
0000
0002
0000
0000
0000
1003
0000
0000
0000
,
0001
0100
0100
0001
1000
1000
0200
0000
,
0010
0000
1300
0001
0010
0001
0010
0100
,
0100
0010
0001
0001
1000
0010
0200
0000
,
0001
0000
0310
1000
0100
1000
1000
0001
,
1000
1000
0020
0000
0100
0000
0031
0010
,
0100
0010
0100
0001
0001
1000
0100
0100
,
1000
0100
2000
0000
0001
0000
3001
1000
,
1001
0010
0010
0100
0001
0001
1000
0100
,
0010
0001
1000
0000
0010
1000
1000
0010
,
0100
0100
0001
0010
0100
1000
0001
0100
,
0001
1000
0010
0000
0100
0001
0001
0100
,
0010
0010
1000
0001
1000
0010
0001
0000
,
0010
0100
0010
0100
0100
0001
1000
1000
,
0100
1000
0010
1000
0100
0010
0001
1000
,
1002
0000
0000
0000
0013
0001
0201
0000
,
0000
0000
0310
1000
2100
0000
0000
0000
,
3010
1000
0120
0000
0000
0000
0031
0000
,
2010
0000
0000
0000
3001
0100
0210
0000
,
0000
0000
0310
1000
0102
0000
0000
0000
,
1003
0000
0010
0000
1000
0000
0000
0100
0000
0000
0010
0000
0001
0000
0010
0000
,
0002
0000
1003
0000
0010
1000
0200
0000
,
0310
0000
0001
0010
0002
0000
1003
0000
,
0010
0100
0200
0000
0310
0000
1001
0000
,
2000
0000
3100
0000
0010
0001
0200
0000
,
0310
0000
0100
0001
0002
0000
0013
0000
,
1000
0001
0010
1000
0010
0001
0011
0000
,
0010
0100
0010
0100
1000
0000
0001
0000
0100
0000
0000
0000
0010
1000
0010
1000
,
0001
0000
0100
0000
0001
0000
0000
0000
0010
0001
0010
0001
0100
0000
0010
0000
,
1000
0001
1000
0100
1000
0100
0010
0001
,
0200
0000
0310
1000
0100
0010
0012
0000
,
0013
0010
0001
1000
2010
0000
3001
0010
,
0001
0000
0100
0000
0001
0000
0000
0100
0000
0000
0010
0000
0000
1000
0000
0000
,
0100
0010
0001
1000
0001
0000
0100
0000
0010
0000
0000
0000
1000
0010
1000
0001
,
0100
0000
0010
0000
1000
0000
0000
0000
0001
0010
0100
0010
0001
0000
0100
0000
,
0010
0000
0000
0000
0100
0010
1000
0001
1000
0000
0010
0000
0100
0000
0001
0000
,
0020
0000
0000
0000
0130
0000
1000
0000
0001
0000
0100
0000
0101
0000
0000
0010
,
0000
0000
1000
0000
0000
0100
0000
0000
2001
0000
0000
0000
0100
0000
0000
0000
,
3001
0000
1000
0000
0001
0000
0000
0010
0000
0000
0001
0000
0000
0000
0100
0000
,
0001
1000
0100
1000
0010
0100
0001
0010
,
0100
1000
0100
1000
0001
0100
0010
0100
,
0001
1000
0001
0010
0100
1000
0100
0010
,
0001
0100
0100
0010
0100
0000
0010
1000
,
1000
0100
1000
0000
0100
0010
0010
0001
,
0010
0000
0001
1000
1000
0001
1000
0010
,
0100
0001
0000
0100
0000
0000
0001
1000
0000
0010
0000
0000
0100
0010
0000
0100
,
0000
0000
0001
0010
0000
0100
0000
0000
1000
0001
0000
1001
0000
0000
0001
0010
,
0000
0011
0000
0000
0100
1000
0000
1100
0000
0001
0010
0100
1000
0001
0010
0100
;

//---------------dance-single - ----------------
#NOTES:
     dance-single:
     :
     Medium:
     5:
     0.378,0.354,0.143,0.259,0.004:
0000
0000
0000
0000
,
0000
0000
2000
0001
,
0000
3002
0100
0000
,
0023
0100
0000
2030
,
0010
0000
3020
0001
,
0000
0032
1000
0000
,
0203
1000
0000
0320
,
1000
0030
1001
0001
,
0010
0000
0001
0000
1000
0000
0010
1000
,
0001
0010
0100
1000
,
0001
0000
0100
0010
0100
0000
0010
0000
,
1000
0000
0001
0000
0010
0000
0001
1000
,
0010
0100
0001
0010
,
0100
0000
1000
0100
0020
0000
0030
0000
,
0110
0000
0010
0000
0100
0000
0010
1000
,
0001
0000
0010
0000
0001
1000
0010
0000
,
1000
0000
0001
0000
0010
0000
0001
1000
,
0001
0000
0010
0001
0100
0000
0100
0000
,
0010
0000
1000
0001
0010
0000
0001
0000
,
1000
0010
0001
0000
0010
0000
0100
0000
,
0010
0000
0100
0001
1000
0000
0010
1000
,
1001
0000
1000
0000
0010
0000
1000
0100
,
0010
0000
0100
0000
0010
0001
0100
0000
,
0010
0000
1000
0000
1000
0000
0001
0100
,
0001
0000
1000
0010
1000
0000
0100
0000
,
0010
0000
0001
0010
0100
0000
0010
0000
,
0001
1000
0100
0000
1000
0000
0010
0000
,
0100
0000
0001
0010
1000
0000
1000
0010
,
0002
0000
1000
2003
,
0000
0100
3020
0000
,
1000
0200
0000
0330
,
2001
0000
0100
3002
,
0000
0010
0023
0000
,
0001
0130
1000
0100
,
0110
0000
0001
0000
1000
0100
1000
0000
,
0010
0000
0100
0001
0100
0000
0010
0000
,
1000
0001
2000
0000
0000
0000
3000
0000
,
0001
0000
0100
0000
0010
0100
0001
0000
,
1000
0000
0100
1000
0200
0000
0010
0000
,
1000
0000
0010
0000
1300
0001
1000
0000
,
0110
0100
0100
0101
,
1000
0001
0011
0001
,
0001
1100
0010
0100
,
0011
0000
0000
0000
1000
0001
1001
0000
,
0000
0000
0010
0100
0110
0000
0000
0000
,
0001
0100
0002
0000
1000
0000
0103
0000
,
0001
0001
0001
0000
1000
0000
0010
0010
,
0010
0000
0110
0000
1000
1000
1000
0000
,
0001
0000
0010
0010
0010
0000
0001
0000
,
1000
0000
0000
0000
0100
1000
0001
0000
,
0010
0000
0010
0001
0100
0000
0000
0000
,
0010
0000
0100
0000
0010
0000
1000
0100
,
0020
0001
0100
0001
,
0230
1300
0002
1000
,
0010
0000
1003
0100
0010
0001
1000
0000
,
0020
0100
1000
0100
,
2030
3001
0200
0010
,
0001
0310
1000
1001
,
0002
0000
0000
0023
0000
0000
0230
0000
,
0000
2300
0000
0000
3010
0000
0000
1001
,
0000
0000
0000
0000
0110
0000
0000
0000
0000
0000
1000
0000
0100
0000
0010
0001
;

//---------------dance-single - ----------------
#NOTES:
     dance-single:
     :
     Easy:
     3:
     0.308,0.326,0.241,0.366,0.000:
0000
0000
0000
0000
,
0000
0000
2000
0000
,
0000
3002
0000
0000
,
0023
0000
0000
0230
,
0000
0000
2300
0000
,
0010
3020
0000
0100
,
0230
0000
0001
0302
,
0000
1003
1001
1000
,
0010
0100
0000
0001
,
0010
0001
1000
0010
,
0000
0100
0010
1000
,
0100
0010
0000
0100
,
0010
0001
1000
0001
,
0000
0100
0000
0000
,
1001
0001
0001
2000
,
0000
0010
3001
1100
,
1000
1000
0020
0000
,
0100
1030
1001
0010
,
0010
0002
0000
0010
,
1003
0110
0100
0100
,
0020
0000
0001
0130
,
1001
0001
1000
0010
,
0100
0010
0000
1010
,
0100
0010
0001
1000
,
0001
0000
0101
0001
,
1000
0010
0100
0010
,
0000
0110
1000
0100
,
0010
0001
1000
0000
,
0002
0000
1000
2003
,
0000
0010
3020
0000
,
0100
0230
0000
0000
,
2300
0000
0100
3200
,
0000
0001
0302
0000
,
0010
0013
0001
0010
,
0110
0000
0100
1000
,
0000
1000
0001
0000
,
0010
0001
0000
0100
,
0110
0000
0010
1000
,
0000
0001
0200
0000
,
0000
0010
0310
0100
,
1001
0001
0001
1001
,
1000
1000
0110
0100
,
0100
0110
0010
0010
,
2000
0000
3001
1002
,
0000
0103
0210
0000
,
0300
0010
1000
0001
,
0011
0010
0010
0011
,
0001
0001
1100
0100
,
0100
1100
1000
1000
,
0200
0000
0310
0020
,
0001
0031
2002
0000
,
3003
0220
0000
0330
,
0010
1000
0010
2000
,
0000
3001
0001
0100
,
0001
0200
0000
0310
,
2000
0000
3000
0100
,
0010
0001
0020
0000
,
0030
0001
1000
0010
,
2002
0000
0000
3003
0000
0000
0220
0000
,
0000
0330
0000
0000
0202
0000
0000
0303
,
0000
2020
0000
3030
;

//---------------dance-single - ----------------
#NOTES:
     dance-single:
     :
     Beginner:
     1:
     0.154,0.269,0.080,0.358,0.000:
0000
0000
0000
0000
,
0000
0000
1000
0000
,
0000
1000
0000
0000
,
0001
0000
0000
0001
,
0000
0000
0010
0000
,
0000
0010
0000
0000
,
0100
0000
0000
0100
,
0000
0000
2000
3000
,
0000
0002
0003
0000
,
0200
0300
0000
0020
,
0030
0000
0200
0300
,
0000
0002
0003
0000
,
0020
0030
0000
0200
,
0300
0000
0000
0000
,
1000
0000
0000
0000
,
1000
0000
0000
0100
,
0000
0000
0000
0100
,
0000
0000
0010
0000
,
0000
0000
0010
0000
,
0000
0001
0000
0000
,
0000
0001
0000
0000
,
0010
0000
0000
0000
,
0010
0000
0000
0001
,
0000
0000
0000
0001
,
0000
0000
1000
0000
,
0000
0000
1000
0000
,
0000
0100
0000
0000
,
0000
0100
0000
0000
,
2002
0000
0000
3003
,
0000
0000
0220
0000
,
0000
0330
0000
0000
,
2000
3000
0000
0002
,
0003
0000
0200
0300
,
0000
0010
0010
0000
,
0220
0000
0000
0330
,
0000
0000
2002
0000
,
0000
3003
0000
0000
,
0020
0030
0000
0200
,
0300
0000
0002
0003
,
0000
0000
1000
1000
,
1000
0000
0000
0010
,
0000
0000
0100
0000
,
0000
0001
0000
0000
,
0010
0000
0000
0010
,
0000
0000
0100
0000
,
0000
0100
0000
0000
,
1000
0000
0000
0010
,
0000
0000
0100
0000
,
0000
0001
0000
0000
,
2002
3003
0000
0220
,
0330
0000
2002
3003
,
0000
0220
0330
0000
,
2002
0000
0000
3003
,
0000
0000
0020
0000
,
0000
0030
0000
0000
,
2000
3000
0000
0020
,
0030
0000
0200
0300
,
0000
0002
0003
0000
,
2000
0000
0000
3000
0000
0000
0002
0000
,
0000
0003
0000
0000
2000
0000
0000
3000
,
0000
0010
0000
0000
;

//---------------dance-double - ----------------
#NOTES:
     dance-double:
     :
     Hard:
     8:
     0.522,0.490,0.188,0.250,0.250:
00000000
00000000
00000000
00000000
,
00000000
00000000
20020000
00000000
,
30030000
00220000
00000000
00330000
,
00022000
00000000
00033000
00002200
,
00000000
00003300
00000102
00000010
,
00001003
00002010
00000001
00003100
,
00020100
00000010
00030100
00102000
,
01000000
00000000
00000000
00000000
00013000
00000000
00000000
00000000
00100000
00010000
00000000
10000000
00000000
00010000
00000000
00000000
,
00100000
00000000
00010000
00000000
01000000
00100000
00000000
01000000
00000000
00010000
00000000
00000000
00100000
00000000
00001000
00000000
,
00010000
00000100
00000000
00000010
00000000
00000100
00000000
00000000
00000010
00000000
00000001
00000000
00001000
00000010
00000000
00000100
,
00000000
00000010
00000000
00000000
00001000
00000000
00000100
00000000
00001000
00000010
00000000
00010000
00000000
00001000
00000000
00000000
,
00010000
00000000
01000000
00000000
10000000
00010000
00000000
01000000
00000000
00010000
00000000
00000000
10000000
00000000
00100000
00000000
,
01000000
00001000
00000000
00010000
00000000
00100000
00000000
00000000
01000000
00000000
00010000
00000000
10000000
01000000
00000000
10000000
,
00000000
00100000
00000000
00000000
01000000
00000000
00010000
00000000
00200000
00000000
00000000
00000000
00301000
00000000
00010000
00000000
,
00001000
00010000
00010000
00000100
00001000
00001000
00000010
00000100
,
00000001
00000010
00000100
00000000
00000110
00000000
00001000
00000100
,
00000100
00001000
00000001
00000001
00001000
00000100
00010000
00001000
,
00100000
00000000
10010000
00000000
00100000
10000000
10000000
00100000
,
01000000
01000000
00010000
00100000
00010000
10000000
00100000
00000000
,
10010000
00000000
00100000
00001000
00001000
00100000
00010000
00010000
,
01000000
00001000
00010000
00000100
00010000
00000000
00011000
00000000
,
00001000
00000100
00000100
00000001
00000100
00000100
00000010
00001000
,
00000100
00000000
00010000
00000000
00011000
00000000
00010000
01000000
,
01000000
10000000
01000000
01000000
00100000
00000000
00010000
00000000
,
10000000
00100000
01000000
00000000
00010000
00100000
00100000
00010000
,
00001000
00001000
00010000
00100000
01000000
00000000
10000000
00010000
,
00100000
00000000
00001000
00000100
00000100
00000010
00000100
00000100
,
00000001
00001000
00000100
00000000
00000010
00000001
00001000
00000000
,
00002100
00000000
00000000
00000000
00003010
00001000
00000200
00000000
,
00000000
00000000
00010300
00001000
00020000
00000000
00000000
00000000
,
00031000
00100000
02000000
00000000
00000000
00000000
13000000
00000000
,
10020000
00000000
00000000
00000000
00130000
00010000
02000000
00000000
,
00000000
00000000
03100000
10000000
00200000
00000000
00000000
00000000
,
10300000
00000000
01000000
00000000
00100000
00000000
00000000
00010000
00000000
00000000
10000000
00000000
00100000
00000000
01000000
00000000
,
00002000
00000000
00013000
00000000
00000100
00000010
00000002
00000000
,
00000103
00000000
00000010
00010000
00002000
00000000
00003100
00000000
,
00001000
00100000
00020000
00000000
10000000
00000000
01030000
00000000
,
20010000
00000000
30100000
00000000
10000000
01000000
00200000
00000000
,
00310000
00000000
10000000
00100000
02000000
00000000
03010000
00000000
,
10000000
00000000
00100000
00000000
01000000
00010000
00100000
00001000
,
00010000
00001000
00010000
00000000
00001000
00000000
00000100
00000000
00000001
00000000
00000000
00000000
00000010
00000001
00000010
00000000
,
00000100
00000000
00001000
00000000
00000010
00000000
00000000
00000000
00010000
00000100
00010000
00000000
00001000
00000000
00100000
00000000
,
00010000
00000000
00000000
00000000
10000000
00010000
10000000
00000000
00100000
00000000
01000000
00000000
00010000
00000000
00000000
00000000
,
10000000
00000000
11000000
00000000
01000000
00100000
00010000
00000000
,
00110000
00000000
00001000
00010000
00000100
00000000
00001100
00000000
,
00000100
00000000
00000010
00000000
00000001
00000000
00000000
00001000
00000000
00000000
00000010
00000000
00000000
00000100
00000000
00000000
,
00000010
00010000
00001000
00000000
00010000
00000000
00000100
00000000
00000010
00000000
00000000
00000000
00000001
00000010
00000100
00000000
,
00001000
00000000
00000010
00000000
00000100
00000000
00000000
00000000
00000001
00001000
00000100
00000000
00010000
00000000
00001000
00000000
,
00100000
00000000
00000000
00000000
00010000
01000000
00100000
00000000
01000000
00000000
10000000
00000000
01000000
00000000
00000000
00000000
,
01010000
00000000
00000000
00000000
10000000
00000000
00000000
00000000
01000000
00000000
00100000
00000000
00010000
00000000
00000000
00001000
,
00000000
00000000
00000100
00000000
00000000
00000010
00000000
00000000
00000002
00000000
00000000
00000000
00001000
00000000
00000000
00000000
,
00000103
00000000
00000001
00000000
00001000
00000000
00000000
00000100
00000000
00000000
00000010
00000000
00000000
00000000
00000100
00010000
,
00000100
00000010
00000001
00001000
,
00000100
00010000
00000010
00001000
00000100
00000000
00010000
00000000
,
00001000
00010000
01000000
10000000
00100000
01000000
00010000
10000000
,
11000000
00000000
10000000
00000000
00100000
01000000
00001000
00000000
,
00010000
00000000
00001000
00100000
00010000
00000000
00001000
00000000
,
00000100
00000000
00010000
00000100
00001000
00000010
00000100
00000001
,
00001000
00000100
00000000
00000010
00000000
00000000
00000001
00001000
00000000
00000100
00000000
00000000
00010000
00001000
00000000
00010000
,
00000000
00000000
00000100
00001000
00000000
00000010
00000000
00000000
00000100
00001000
00000000
00010000
00000000
00000000
00100000
01000000
,
00000000
00010000
00000000
00000000
10000000
00010000
00000000
00100000
00000000
00000000
01000000
10000000
01000000
00100000
00010000
01000000
;

//---------------dance-double - ----------------
#NOTES:
     dance-double:
     :
     Medium:
     6:
     0.388,0.408,0.215,0.250,0.027:
00000000
00000000
00000000
00000000
,
00000000
00000000
00000020
00000000
,
00000001
00000230
00000000
00001000
,
00020300
00000000
00100000
00032000
,
00000000
01000000
00203000
00000000
,
01000000
00320000
00000000
01000000
,
20030000
00000000
01000000
30200000
,
00000000
10000000
01300000
00010000
,
10000000
01000000
00100000
00000000
00010000
00000000
01000000
00000000
,
00001000
00000000
00010000
00000000
00000100
00000010
00000001
00000000
,
00001000
00000110
00001001
00000010
,
00010000
00000100
00010000
00000000
00001000
00000000
00100000
00000000
,
00010000
00000000
00001000
00000000
00000100
00000010
00000100
00000000
,
00001000
00000000
00000100
00020000
00002000
00000000
00033000
00000000
,
00101000
00000000
00100000
00000000
00010000
00000000
10000000
00100000
,
01000000
00010000
10000000
01000000
,
00100000
00000000
01000000
00000000
10000000
00010000
01000000
00000000
,
00010000
00110000
01010000
00100000
,
00001000
00000000
00010000
00001000
00000100
00000000
00000010
00000000
,
00000100
00000001
00000010
00000100
,
00001000
00000100
00001000
00000000
00000010
00000000
00000100
00000000
,
00001001
00000000
00000010
00000000
00000001
00000010
00000001
00000000
,
00000100
00000000
00001000
00000000
00000100
00000010
00000100
00000000
,
00000010
00000000
00010000
00001000
00010000
00000000
00001000
00000000
,
00100000
00000000
00010000
10000000
01000000
00000000
00100000
00000000
,
01000000
00000000
10000000
00010000
00100000
00000000
00010000
00000000
,
00100000
00001000
01000000
00000000
00100000
00000000
10000000
01000000
,
00100000
00000000
00001000
00000000
00010000
00000100
00001000
00000100
,
00000020
00000000
00000001
00000230
,
00000000
00010000
00002300
00000000
,
00000100
00023000
00000000
00030000
,
00210000
00000000
01000000
00320000
,
00000000
10000000
02030000
00000000
,
03100000
00000000
10000000
00000000
01000000
00100000
00010000
00000000
,
02010000
00000000
00010000
00000000
03100000
10000000
00020000
00000000
,
00100000
00000000
00130000
00001000
00020000
00000000
00000100
00000000
,
00030100
00000010
00000200
00000000
00000000
00000000
00000300
00000000
,
00001002
00000000
00001000
00000000
00001003
00000010
00000200
00000000
,
00000010
00000000
00000310
00001000
00000200
00000000
00010000
00000000
,
00010300
00000000
00001000
00000000
00100000
00010000
10000000
00010000
,
10010000
10000000
00010000
01010000
,
00010000
00100000
00101000
00001000
,
00010000
00010100
00000100
00000010
,
00000011
00000000
00001000
00001100
,
00000100
00000000
00000010
00000001
00002000
00000000
00000000
00000000
,
00000100
00000000
00000000
00000000
00003100
00000000
00000000
00010000
00000000
00000000
00000100
00000000
00000000
00010000
00000000
00000000
,
00011000
00001000
00100000
00110000
,
00010000
10000000
10100000
00100000
,
00010000
00011000
00001000
00000100
,
00000101
00000000
00000000
00000000
00001000
00000000
00000000
00000000
00000100
00000000
00010000
00000000
00001000
00000000
00000000
00010000
,
00000000
00000000
01000000
00000000
00000000
10000000
00000000
00000000
00010000
00000000
00000000
00000000
10000000
00000000
00000000
00000000
,
00100000
00000000
01000000
00000000
00100000
00000000
00000000
10000000
00000000
00000000
00010000
00000000
00000000
00000000
00100000
00000000
,
00020000
10000000
01000000
10030000
,
00100000
00010000
20000000
00010000
,
30010000
00000000
00100000
00000000
00001000
00010000
00000100
00010000
,
00000010
00000100
00000001
00000020
,
00000001
00000031
00001001
00000100
,
00000010
00000000
00001000
00000100
00000010
00000001
00001000
00000000
,
00000100
00000000
00000000
00010000
00000000
00000000
00001000
00000000
,
00000000
00100000
00000000
00000000
01010000
00000000
00000000
00101000
,
00000000
00000000
00000000
00000000
00010100
00000000
00000000
00000000
00000000
00000000
00001000
00000000
00000001
00000000
00000010
00000100
;

//---------------dance-double - ----------------
#NOTES:
     dance-double:
     :
     Easy:
     3:
     0.296,0.326,0.161,0.277,0.000: // measure 1
00000000
00000000
00000000
00000000
,  // measure 2
00000000
00000000
20000000
00000000
,  // measure 3
00000000
32000000
00000000
00000000
,  // measure 4
03200000
00000000
00000000
00320000
,  // measure 5
00000000
00000000
00032000
00000000
,  // measure 6
00000100
00003200
00000000
00000010
,  // measure 7
00000320
00000000
00000001
00000032
,  // measure 8
00000000
00001003
00001001
00000010
,  // measure 9
00010000
00001000
00010000
00000000
,  // measure 10
00001000
00100000
00010000
10000000
,  // measure 11
01000000
00000000
00100000
00010000
,  // measure 12
10000000
00100000
01000000
00000000
,  // measure 13
00001000
00010000
00001000
00000100
,  // measure 14
00000010
00000200
00000300
00000000
,  // measure 15
00001010
00001000
00000100
00010000
,  // measure 16
00000000
00001000
00100000
00010000
,  // measure 17
10000000
01000000
00100000
00000000
,  // measure 18
01000000
10000000
00010000
00010000
,  // measure 19
00100000
01000000
00000000
00100000
,  // measure 20
00001000
00010000
00001000
00001000
,  // measure 21
00100000
00000000
00010000
00100000
,  // measure 22
00110000
00001000
00010000
00000100
,  // measure 23
00001000
00000000
00000100
00000010
,  // measure 24
00000001
00001000
00000010
00000100
,  // measure 25
00000000
00000010
00001000
00000001
,  // measure 26
00000100
00000010
00010000
00000000
,  // measure 27
00001000
00100000
00010000
10000000
,  // measure 28
01000000
00100000
00000000
00010000
,  // measure 29
20000000
00000000
01000000
30020000
,  // measure 30
00000000
00100000
02030000
00000000
,  // measure 31
00010000
03002000
00000000
00003000
,  // measure 32
00020000
00000000
00001000
00030200
,  // measure 33
00000000
00000010
00002300
00000000
,  // measure 34
00000010
00003001
00001000
00000100
,  // measure 35
00010100
00001000
00100000
00010000
,  // measure 36
00000000
10000000
01000000
00100000
,  // measure 37
00001000
00010000
00000000
00001000
,  // measure 38
00000100
00000001
00000010
00000100
,  // measure 39
00000000
00001000
00000100
00000000
,  // measure 40
00010000
00000100
00000010
00000001
,  // measure 41
00001001
00001000
00001000
00001001
,  // measure 42
00000001
00000001
00000110
00000100
,  // measure 43
00000100
00000110
00000010
00000010
,  // measure 44
00002000
00000000
00003100
00020000
,  // measure 45
00000000
00031000
00200000
00000000
,  // measure 46
00310000
10000000
00100000
01000000
,  // measure 47
10010000
00010000
00010000
10010000
,  // measure 48
10000000
10000000
01100000
00100000
,  // measure 49
00100000
01100000
01000000
01000000
,  // measure 50
00020000
00000000
00130000
00001000
,  // measure 51
00010000
00001000
00011000
00000000
,  // measure 52
00010000
00000100
00000010
00000001
,  // measure 53
00002000
00000000
00000000
00003200
,  // measure 54
00000000
00010000
00020300
00000000
,  // measure 55
00031000
00100000
01000000
00100000
,  // measure 56
00110000
00000000
00001000
00010000
,  // measure 57
00001000
00000100
00000001
00000100
,  // measure 58
00001000
00010000
01000000
10000000
,  // measure 59
20020000
00000000
00000000
30030000
00000000
00000000
00022000
00000000
,  // measure 60
00000000
00033000
00000000
00000000
00002002
00000000
00000000
00003003
,  // measure 61
00000000
00022000
00000000
00033000
;
