#TITLE:NeverWorld;
#SUBTITLE:;
#ARTIST:奏音;
#TITLETRANSLIT:NeverWorld;
#SUBTITLETRANSLIT:;
#ARTISTTRANSLIT:Kanon;
#GENRE:;
#CREDIT:;
#BANNER:;
#BACKGROUND:;
#LYRICSPATH:;
#CDTITLE:;
#MUSIC:NeverWorld.mp3;
#OFFSET:0.620000;
#SAMPLESTART:11.960006;
#SAMPLELENGTH:12.000000;
#SELECTABLE:YES;
#BPMS:0.000000=200.000000
;
#STOPS:157.500000=0.150000,
165.000000=0.150000,
172.500000=0.150000,
180.000000=0.150000,
315.500000=0.150000,
323.000000=0.150000,
330.500000=0.150000,
338.000000=0.150000
;
#BGCHANGES:;
#KEYSOUNDS:;
#ATTACKS:;

//---------------dance-single - ----------------
#NOTES:
     dance-single:
     :
     Hard:
     17:
     0.994321,1.050131,0.554917,0.293313,0.657973,878.000000,808.000000,70.000000,37.000000,0.000000,0.000000,0.994321,1.050131,0.554917,0.293313,0.657973,878.000000,808.000000,70.000000,37.000000,0.000000,0.000000:
0000
0000
0000
0000
,
0000
0000
0000
0000
,
0000
0000
0000
0000
,
0000
0000
1010
0000
1000
0110
0000
0010
,
1001
0000
1000
0000
0100
0000
0010
0001
1000
0000
0010
0100
0001
0000
0100
0010
,
1000
0001
0010
0100
0020
0000
0000
0000
0130
0000
0011
0000
0000
0000
0100
0000
,
1001
0000
1000
0000
0010
0000
0100
0001
0100
0000
0001
1000
0100
0000
0010
0000
,
0001
0000
0100
0001
2000
0000
0000
0000
3001
0000
0110
0000
0000
0000
0100
0000
,
1001
0000
0001
0000
0010
0000
0100
1000
0001
0000
0100
0010
1000
0000
0010
0100
,
0001
1000
0100
0010
0200
0000
0000
0000
0310
0000
1100
0000
0000
0000
0100
0000
,
1001
0000
0001
0000
0100
0000
0010
1000
0010
0000
1000
0001
0010
0000
0100
0000
,
1000
0000
0010
1000
0200
0000
0000
0000
1300
0000
0011
0000
0000
0000
0010
0000
,
1100
0000
1000
0000
0001
0000
0010
0100
1000
0000
0010
0100
0001
0000
1000
0010
,
0100
0001
1000
0001
0200
0000
0000
0000
0310
0000
0101
0000
0000
0000
0100
0000
,
1010
0000
0010
0000
1000
0000
0001
1000
0100
0000
0010
0001
0100
0000
0010
0000
,
1000
0000
0100
1000
0020
0000
0000
0000
1030
0000
1010
0000
0000
0000
0001
0000
,
0101
0000
0100
0000
0010
0000
1000
0001
0100
0000
0010
1000
0100
0000
0010
0001
,
1000
0001
1000
0100
0020
0000
0000
0000
0130
0000
0011
0000
0000
0000
1000
0000
,
0120
0000
2000
0030
0002
3000
0020
0003
,
0130
0000
0110
0000
0110
0000
1000
1000
,
0001
0001
2000
0000
3010
0010
0100
0100
,
0001
0000
1000
0000
0100
0000
0000
0000
0010
0000
0001
1000
0001
1000
0001
1000
,
0001
0000
0000
1000
0000
0000
0010
0000
0000
0000
0000
0000
0100
0000
0000
0000
0000
0000
0100
0000
0000
0000
0000
0000
0001
0000
0000
0000
0000
0000
1000
0000
0000
0000
0000
0000
0010
0000
0000
0000
0000
0000
0000
0000
0010
0000
0000
0000
,
1000
0000
0000
0000
0010
0000
0000
0000
0100
0000
0000
0000
0002
0000
0000
0000
0000
0000
0000
0000
0000
0000
0000
0000
2003
0000
0000
0000
0000
0000
0000
0000
0000
0000
0000
0000
3010
0000
0000
0100
0000
0000
0010
0000
0000
0100
0000
0000
,
0010
0000
0000
0100
0000
0000
0010
0000
0000
0100
0000
0000
0001
0000
0000
0000
1000
0000
0000
0000
0010
0000
0000
0000
1000
0000
0000
0000
0001
0000
0000
0000
0100
0000
0000
0000
0010
0000
0000
0000
0000
0000
0000
0000
0010
0000
0000
0000
,
1000
0000
0000
0102
0000
0000
0023
0000
0000
0130
1000
0100
,
0010
0000
0000
0000
0001
0000
1000
0000
0000
0000
0010
0000
0100
0000
0000
0000
0000
0000
2002
0000
0000
3003
0000
0000
,
2002
3003
0010
0010
1000
0001
0100
0100
,
0001
0000
0000
1000
0000
0000
0010
0000
0100
0000
0000
0000
0001
0000
0000
0001
0000
0000
0010
0000
0000
0100
0000
0000
,
0100
1000
0010
0010
1000
0001
0100
0100
,
0001
0000
1000
0000
0100
0010
0000
0001
0010
0000
0000
0100
1000
0000
0010
0000
,
0100
0100
0001
0001
0100
0010
1000
1000
,
0001
0000
0000
1000
0010
0100
0001
0010
0100
1000
0000
0000
,
0010
0000
0100
0000
0001
0000
1000
0000
0000
0100
0000
0000
1000
0000
0000
0010
0000
0000
0001
0000
0000
0010
0000
0000
,
1000
0000
0100
0001
0100
1000
0010
0100
,
0001
0000
1010
0100
0001
1000
0010
1000
,
1001
0000
0101
0010
1000
0100
1000
0001
,
0011
0000
0110
0100
1100
1000
1001
0001
,
0201
0000
0000
0000
0310
0000
0010
0000
1000
0000
1000
0001
0100
0000
0010
0000
,
0010
0000
1001
0100
0010
1000
0001
0100
,
0010
1000
0100
0010
0001
0010
0100
2000
,
0000
3001
0010
0100
1000
0001
0200
0000
,
0310
0001
0010
1000
0001
0010
1000
0010
,
0001
1000
0010
0100
0001
0010
0001
1000
,
0100
1000
0010
0001
1000
0100
0001
1000
,
0010
1000
0100
0010
0002
0000
1003
0010
,
0100
1000
0100
0001
0010
0100
1000
1010
,
0000
0101
0010
1000
0001
0000
0101
0010
,
1000
0100
0010
0001
0010
0100
1000
1001
,
0000
0011
0010
0100
1000
0000
1010
0100
,
0001
0010
0001
1000
0010
0001
0010
0110
,
0000
1010
1000
0100
0001
0100
1000
0001
,
0100
0010
1000
0100
1000
0001
0010
0011
,
0000
0110
0100
1000
0001
0000
1100
0100
,
0010
0000
0001
0000
1000
0000
0010
0100
0010
0100
0010
0100
0010
0000
1000
0001
,
1000
0001
0010
0000
0100
0000
1000
0001
1000
0001
0100
0000
0010
0000
1000
0001
,
0000
0000
0100
0000
0010
1000
0001
1000
0100
0010
0001
0000
0100
0000
0010
1000
,
0001
0000
0000
1000
0000
0000
0010
0000
0000
0100
0000
0000
0010
0000
0000
0000
0000
0000
1000
0000
0000
0001
0000
0000
0000
0000
0000
0000
0000
0000
0010
0000
0000
0001
0000
0000
0100
0000
0000
0000
0010
0000
0000
0000
1000
0000
0000
0000
,
0001
1000
0010
0100
0001
0010
0001
1000
0010
0100
0001
0010
,
0100
1000
0010
0100
1000
0100
0001
0010
0001
1000
0100
0010
,
0100
1000
0010
0100
1000
0100
0001
0010
0100
0010
0001
0100
,
0010
0000
0000
0000
0001
0000
0000
0000
0010
0000
0000
0000
1000
0000
0000
0000
0001
0000
0000
0000
1000
0000
0000
0000
0100
0000
0000
0000
0010
0000
0000
0000
0001
0000
0000
0000
1000
0000
0000
0000
0000
0000
0010
0000
0000
1000
0000
0000
,
0001
0000
0100
0001
1000
0000
0001
0100
0010
0000
1000
0001
0100
0000
0010
0000
,
0100
0000
1010
0000
0000
0000
0010
0000
0101
0000
0000
0000
0010
0000
1000
0001
,
0100
0000
0001
0010
0100
0000
1000
0100
1000
0100
0010
0001
0010
0000
0100
0000
,
0010
0000
1001
0000
0000
0000
1000
0000
0110
0000
0000
0000
0100
0000
0010
1000
,
0001
0000
0100
0001
1000
0000
0001
0010
0100
1000
0010
1000
0010
0000
1000
0000
,
0100
0000
0011
0000
0000
0000
0001
0000
1100
0000
0000
0000
1000
0000
0001
1000
,
0100
0000
0010
0100
1000
0000
0010
1000
0001
1000
0001
0010
0100
0000
1000
0000
,
0001
0000
0110
0000
0000
0000
1000
0000
0101
0000
0000
0000
0001
0000
0010
0001
,
1000
0000
0010
0100
0001
0000
0010
0100
1000
0010
1000
0010
0100
0000
0001
0000
,
1000
0000
1100
0000
0100
1000
0001
0000
0022
0000
0000
0000
0033
0000
0010
0100
,
1000
0000
0100
0010
0001
0000
1000
0010
0100
0001
0010
0001
0010
0000
0001
0000
,
0010
0000
0011
0000
0001
0000
1000
0000
2200
0000
0000
0000
3300
0000
1000
0001
,
0100
0000
0010
1000
0001
0000
1000
0001
1000
0010
0100
0010
0100
0000
0001
0000
,
0100
0000
0110
0000
0010
0000
1000
0000
2002
0000
0000
0000
3003
0000
0001
0010
,
0100
0000
1000
0010
0100
0000
0001
1000
0100
1000
0010
0100
0010
0000
1000
0000
,
0001
0101
0100
0010
1010
1000
0002
0000
,
2000
0003
0020
3000
0130
0000
1001
0100
,
0001
0000
0010
0000
0100
1000
0001
0000
0010
0000
0100
0000
0010
0000
0001
0000
,
1000
0000
0010
1000
0001
1000
0100
0000
0010
0000
0001
0000
1000
0000
0010
0000
,
0100
0000
0001
1000
0010
0000
0100
0000
0001
0100
0010
1000
0010
0100
0001
0010
,
0100
1000
0100
0010
0001
1000
0010
1000
0001
0000
1000
0000
0100
0000
0010
0000
,
0001
1000
0100
0000
0010
0000
0100
0000
1000
0000
0001
0000
0100
0000
0010
0000
,
1000
0001
0010
0100
0010
0001
1000
0010
,
1000
0000
0001
0000
0200
0000
0000
0000
0310
0000
1000
0001
2000
0000
0000
0000
,
3010
0100
0001
0100
0010
0000
0110
0000
0000
0000
1010
0000
1000
0000
0001
0000
,
0100
0010
1000
0100
0010
0001
1000
0010
,
1000
0001
0100
0101
0000
0110
0010
1000
,
0001
0010
1000
0010
0001
0100
1000
0100
,
0010
1000
0001
0011
0000
1100
1000
0010
,
0100
0001
1000
1001
0000
0110
0010
1000
,
0001
0200
0010
0010
0010
0010
0010
0310
,
1000
0001
1000
0001
0200
0000
0000
0000
0000
0000
0300
0000
0110
0000
0000
0000
,
0101
0000
1000
0010
0100
0001
0000
1000
,
0010
0100
0000
0001
0010
0100
0000
1000
,
0010
0100
0101
0010
0100
1000
0000
0100
,
0001
0010
0000
0100
1000
0010
0000
0100
,
0001
1000
0000
0000
0000
0000
0000
0000
;

//---------------dance-single - ----------------
#NOTES:
     dance-single:
     :
     Medium:
     13:
     0.694212,0.661193,0.221967,0.348805,0.000000,613.000000,585.000000,28.000000,44.000000,0.000000,0.000000,0.694212,0.661193,0.221967,0.348805,0.000000,613.000000,585.000000,28.000000,44.000000,0.000000,0.000000:
0000
0000
0000
0000
,
0000
0000
0000
0000
,
0000
0000
0000
0000
,
0000
0000
0101
0000
0000
1010
0000
0000
,
1001
0000
1000
0010
0100
0000
0001
0010
,
0100
0010
0002
0000
0003
0011
0000
0000
,
0110
0000
0010
0100
1000
0000
0100
1000
,
0001
0100
0020
0000
0030
0110
0000
0000
,
1010
0000
0010
0100
0001
0000
1000
0010
,
1000
0001
0200
0000
0300
1010
0000
0000
,
0101
0000
0100
0001
1000
0000
0010
0100
,
0001
1000
0200
0000
0300
0110
0000
0000
,
1001
0000
0010
1000
0001
0000
1000
0010
,
0100
0001
0020
0000
0030
0110
0000
0000
,
1100
0000
1000
0001
0010
0000
0001
0010
,
0100
1000
0020
0000
0030
0101
0000
0000
,
1010
0000
0001
1000
0001
0000
1000
0100
,
0010
0001
0200
0000
0300
1010
0000
0000
,
0110
0100
0010
1000
,
0001
0000
1001
0000
1001
0000
1000
0010
,
0100
0001
2000
0000
3010
0100
0001
0010
,
0100
1000
0100
0000
0010
0001
0010
0100
,
0010
0001
1000
0100
1000
0010
0100
0000
,
0010
1000
0002
0000
0203
0000
0301
1000
,
0010
1000
0001
0000
1000
0000
0010
0000
,
0110
0000
0200
0000
0302
0000
1003
0010
,
0100
0001
2000
0001
,
3010
0000
0010
0100
0001
1000
0100
1000
,
0001
0000
2000
3000
0001
0010
0100
1000
,
1000
1000
0010
0100
0010
0100
0001
1000
,
0001
0000
0020
0030
0200
0300
2000
3001
,
0010
0010
0100
1000
0001
1000
0010
0100
,
0001
0000
1000
0010
1000
0001
0100
0000
,
0010
0000
0100
0001
1000
0100
0010
0001
,
0010
0000
0001
0010
0100
1000
0010
1000
,
0100
1100
1000
0010
,
0100
0101
0001
1000
,
0010
0110
0110
1001
,
1001
0000
0010
1000
0001
0100
0010
1000
,
1000
0000
0001
2000
3010
0100
0010
1000
,
0001
0100
0001
1000
0010
1000
0001
0200
,
0000
0310
2000
3001
0010
0001
0020
0000
,
0130
1000
0100
0010
0001
1000
0010
1000
,
0010
0200
0301
0010
0100
1000
0010
0100
,
0001
1000
0010
0100
0001
0010
0100
1000
,
0002
0103
0010
1000
0200
0000
1300
0100
,
0010
0001
1000
0010
0100
0010
1000
0001
,
0000
1000
0100
0010
0001
0000
1000
0010
,
1000
0001
0100
0001
1000
0010
0100
0001
,
0000
0010
0100
0010
0001
0000
1000
0010
,
1000
0001
0100
0010
1000
0100
0010
0100
,
0000
1000
0010
0100
1000
0100
0001
0010
,
0100
1000
0010
0100
0001
1000
0010
1000
,
0000
0001
0100
0001
0010
0000
0100
1000
,
0010
0100
0001
0200
0000
0000
0310
0000
,
1000
0001
1000
0010
,
1010
1000
0100
0010
,
0001
0000
0010
0000
0110
0000
0100
1000
,
0001
0000
1000
0010
0100
0000
0001
0010
,
0100
0000
1000
0010
0100
0000
0001
0010
,
0100
1000
0010
0100
,
0001
0010
0100
1000
,
0010
0000
0100
0000
0010
1000
0100
1000
,
0001
0100
0000
0010
0100
0000
0000
0001
,
1000
0100
1000
0010
0100
0001
0010
0100
,
1000
0100
0000
0010
0001
0000
0000
1000
,
0010
0100
0001
0010
0100
1000
0001
1000
,
0100
0010
0000
0001
0100
0000
0000
0010
,
0100
0010
1000
0010
0100
0001
0010
0001
,
1000
0001
0000
1000
0010
0000
0000
0100
,
0010
1000
0010
0100
0001
0100
0010
1000
,
0001
1000
0100
0010
0002
0000
0000
0013
,
0100
1000
0010
0100
0010
1000
0001
1000
,
0010
0100
0001
1000
0200
0000
0000
1300
,
0001
0010
0001
1000
0010
1000
0001
0100
,
0010
1000
0010
0100
0020
0000
0000
1030
,
0001
1000
0100
0010
0001
0010
0100
1000
,
0010
0100
0001
0010
0200
0000
2300
0000
,
3002
0000
0023
0000
0130
0000
1000
0002
,
0103
0010
0100
0001
1000
0100
1000
0010
,
0100
0001
1000
0100
0010
0001
0200
0310
,
1000
0001
0010
0001
2000
0000
3020
0000
,
0230
0000
0302
0000
1003
0020
0130
0010
,
1000
0001
1000
0010
0100
0001
0010
0001
,
1000
0100
1000
0010
2000
3001
0100
0001
,
0010
0100
2000
0000
3010
0100
0002
0000
,
1003
0000
0010
0100
0000
0010
1000
0001
,
1000
0100
0010
0100
0010
0001
1000
0100
,
1000
0010
0100
0010
0000
0100
0001
0100
,
0010
1000
0001
0010
0001
0100
0010
0100
,
0001
1000
0001
0010
0000
0100
1000
0100
,
1000
0010
0100
0001
0000
1000
0010
0100
,
0001
1000
0010
0100
0010
0100
0010
0100
,
0001
1000
0020
0000
0000
0000
2030
0000
,
3001
0000
1000
0010
0100
0001
0000
1000
,
0100
0010
0000
0001
0010
0100
0000
1000
,
0010
0100
0001
1000
0001
0100
0000
0010
,
1000
0001
0000
0100
0001
1000
0000
0010
,
0100
0001
0000
0000
0000
0000
0000
0000
;

//---------------dance-single - ----------------
#NOTES:
     dance-single:
     :
     Easy:
     5:
     0.382779,0.466725,0.039637,0.491498,0.000000,338.000000,333.000000,5.000000,62.000000,0.000000,0.000000,0.382779,0.466725,0.039637,0.491498,0.000000,338.000000,333.000000,5.000000,62.000000,0.000000,0.000000:
0000
0000
0000
0000
,
0000
0000
0000
0000
,
0000
0000
0000
0000
,
0000
0000
0200
0000
0300
0002
0000
0003
,
2000
3010
1000
0001
,
0100
0000
0020
0000
0030
2000
0000
3000
,
0200
0310
0001
0010
,
0100
0000
2000
0000
3000
0002
0000
0003
,
0200
0310
1000
0001
,
0100
0000
0020
0000
0030
2000
0000
3000
,
0002
0103
0010
1000
,
0100
0000
0020
0000
0030
0002
0000
0003
,
0020
0130
1000
0010
,
0100
0000
0002
0000
0003
2000
0000
3000
,
0020
1030
0001
0100
,
0010
0000
2000
0000
3000
0200
0000
0300
,
0020
0031
0010
0100
,
1000
0000
0020
0000
0030
0200
0000
0300
,
0002
0103
0010
1000
,
0001
0100
0100
0010
,
0100
2000
3010
0000
,
0100
0001
0100
0000
,
0010
0000
1000
0100
,
0010
0002
2003
3001
,
0000
0001
1000
1001
,
1001
0200
0000
0310
,
0010
0000
0000
0001
,
1000
0000
0010
0000
0100
0000
0010
0100
,
0010
0000
0001
1000
,
0001
0000
0100
0000
0010
0000
1000
0001
,
1000
0000
0100
1000
,
0001
0000
0100
0000
0001
0000
1000
0010
,
1000
0000
0100
0001
,
0010
0000
0100
0000
1000
0000
0001
0100
,
0001
0000
1000
0000
0001
0000
0100
0010
,
0100
0220
0000
0000
,
0330
2002
0000
0000
,
3003
0100
0100
0100
,
0100
0000
0020
0000
0000
0000
0000
0100
,
0130
0000
0001
2000
0000
3001
0000
0100
,
0000
0010
0000
1000
0000
0001
0000
0100
,
0000
0001
0020
0000
0130
0000
1000
0000
,
0100
0010
0001
1000
,
0010
2000
0000
3001
0000
0100
0000
0010
,
0000
1000
0000
0001
0000
0010
0000
0100
,
2000
3100
0010
0001
,
1000
0000
0010
0000
0100
0000
0001
1000
,
0000
0100
0010
0001
,
1000
0000
0010
0000
1000
0000
0001
0100
,
0000
0010
1000
0001
,
0100
0000
0010
0000
1000
0000
0001
0010
,
0000
0100
1000
0001
,
0100
0000
0010
0000
1000
0000
0001
1000
,
0000
0100
0010
0100
,
1000
0000
0001
0100
0001
0000
0100
0000
,
0000
0001
0000
0010
,
0000
0100
0000
1000
,
0000
0010
0000
0100
,
0000
0001
0000
0010
,
0000
0200
0000
0000
,
0000
0000
0000
0000
,
0000
0000
0000
0000
,
1300
0100
0010
0002
,
0003
0200
0000
0300
0020
0000
0030
0000
,
1000
0001
0100
0020
,
0030
2000
0000
3000
0002
0000
0003
0000
,
1000
0100
0010
0002
,
0003
0020
0000
0030
0200
0000
0300
0000
,
0010
0001
1000
0020
,
0030
0200
0000
0300
0002
0000
0003
0000
,
1000
0010
0001
0020
,
0030
1000
0000
0001
0100
0000
0000
0000
,
0010
1000
0001
0010
,
0000
0100
0000
1000
0100
0000
0000
0000
,
0010
0001
0010
0200
,
0300
1000
0000
0001
1000
0000
0000
0000
,
0001
0100
0001
0200
,
0300
0001
0000
0100
0020
0000
1030
0000
,
1000
0000
1000
0000
0001
0000
1000
0002
,
0000
0013
0000
0001
0000
0100
0000
0010
,
0000
1000
0000
0001
0000
0010
0200
0000
,
1300
0100
0010
0001
,
0010
0000
0100
0000
1000
0002
0000
0013
,
0000
0001
0000
1000
0000
0010
0000
1000
,
0000
0001
0000
0100
0020
0000
0130
0000
,
0001
2000
0000
3002
,
0000
0000
0103
0010
0000
0000
1000
0000
,
0001
0100
0001
1000
,
0010
0000
1000
0100
0000
0000
0010
0000
,
0001
0010
0100
1000
,
0010
0000
0100
0001
0000
0000
1000
0000
,
0010
0000
0100
0001
0000
0000
0010
0000
,
0100
1000
0010
0010
,
0010
0000
2002
0000
0000
3003
0100
0000
,
0100
0000
0000
0010
0100
0000
0000
0001
,
0010
0000
0000
0100
1000
0000
0000
0010
,
0100
0000
0000
0001
1000
0000
0000
0010
,
0100
0000
0000
0001
0010
0000
0000
0100
,
1000
0100
0000
0000
0000
0000
0000
0000
;

//---------------dance-single - ----------------
#NOTES:
     dance-single:
     :
     Beginner:
     3:
     0.236689,0.311150,0.023782,0.150620,0.000000,209.000000,206.000000,3.000000,19.000000,0.000000,0.000000,0.236689,0.311150,0.023782,0.150620,0.000000,209.000000,206.000000,3.000000,19.000000,0.000000,0.000000:
// measure 0
0000
0000
0000
0000
,  // measure 1
0000
0000
0000
0000
,  // measure 2
0000
0000
0000
0000
,  // measure 3
0000
0000
0010
0000
0000
1000
0000
0000
,  // measure 4
0001
0100
0000
1000
,  // measure 5
0000
0000
0100
0000
0000
0001
0000
0000
,  // measure 6
0010
0100
0000
1000
,  // measure 7
0000
0000
0001
0000
0000
1000
0000
0000
,  // measure 8
0010
0100
0000
1000
,  // measure 9
0000
0000
0100
0000
0000
0001
0000
0000
,  // measure 10
1000
0010
0000
0001
,  // measure 11
0000
0000
0100
0000
0000
1000
0000
0000
,  // measure 12
0100
0010
0000
0100
,  // measure 13
0000
0000
1000
0000
0000
0001
0000
0000
,  // measure 14
0100
0001
0000
0010
,  // measure 15
0000
0000
0001
0000
0000
0010
0000
0000
,  // measure 16
0100
1000
0000
0010
,  // measure 17
0000
0000
0100
0000
0000
0010
0000
0000
,  // measure 18
1000
0010
0000
0001
,  // measure 19
0000
0010
0000
0100
,  // measure 20
0000
0001
0100
0000
,  // measure 21
0000
1000
0010
0000
,  // measure 22
0100
0000
0001
0000
,  // measure 23
0100
0000
0001
1000
,  // measure 24
0000
1000
0000
0001
,  // measure 25
0001
0020
0000
0030
,  // measure 26
0100
0000
0000
1000
,  // measure 27
0000
0100
0000
0100
,  // measure 28
0100
0000
1000
0000
,  // measure 29
1000
0000
1000
0001
,  // measure 30
0001
0000
0010
0000
,  // measure 31
1000
0000
1000
0010
,  // measure 32
0010
0000
0010
0000
,  // measure 33
0100
0000
0001
1000
,  // measure 34
1000
0000
1000
0010
,  // measure 35
0010
0220
0000
0000
,  // measure 36
0330
2002
0000
0000
,  // measure 37
3003
0010
0000
0010
,  // measure 38
0000
0200
0000
0000
,  // measure 39
0310
0000
0001
1000
0000
1000
0000
0000
,  // measure 40
0000
0100
0000
0000
0000
1000
0000
0000
,  // measure 41
0000
0010
0200
0000
0310
0000
0000
0000
,  // measure 42
0010
0000
1000
0000
,  // measure 43
0100
0020
0000
1030
0000
0000
0000
0100
,  // measure 44
0000
0000
0000
1000
0000
0000
0000
0010
,  // measure 45
0002
0013
0000
1000
,  // measure 46
0000
0000
0100
0000
0000
0000
1000
0001
,  // measure 47
0000
0010
0000
1000
,  // measure 48
0000
0000
0100
0000
0000
0000
1000
0010
,  // measure 49
0000
0100
0000
1000
,  // measure 50
0000
0000
0100
0000
0000
0000
1000
0010
,  // measure 51
0000
0100
0000
0001
,  // measure 52
0000
0000
0100
0000
0000
0000
0010
0001
,  // measure 53
0000
0010
0000
0010
,  // measure 54
0000
1000
0001
1000
,  // measure 55
0000
0000
0000
0100
,  // measure 56
0000
0000
0000
0001
,  // measure 57
0000
0000
0000
0010
,  // measure 58
0000
0000
0000
0100
,  // measure 59
0000
0000
0000
0000
,  // measure 60
0000
0000
0000
0000
,  // measure 61
0000
0000
0000
0000
,  // measure 62
0000
0000
0000
1000
,  // measure 63
0000
0010
0000
0000
0100
0000
0000
0000
,  // measure 64
0000
1000
0000
0100
,  // measure 65
0000
0001
0000
0000
0100
0000
0000
0000
,  // measure 66
0000
0010
0000
1000
,  // measure 67
0000
0100
0000
0000
0001
0000
0000
0000
,  // measure 68
0000
0010
0000
0100
,  // measure 69
0000
0010
0000
0000
1000
0000
0000
0000
,  // measure 70
0000
0100
0000
0100
,  // measure 71
0000
0001
0000
0000
0010
0000
0000
0000
,  // measure 72
0000
0001
0000
0100
,  // measure 73
0000
0010
0000
0000
0010
0000
0000
0000
,  // measure 74
0000
1000
0000
0100
,  // measure 75
0000
0001
0000
0000
0001
0000
0000
0000
,  // measure 76
0000
0010
0000
0100
,  // measure 77
0000
1000
0000
0000
0100
0000
0020
0000
,  // measure 78
0000
0000
0000
0000
0030
0000
0001
2000
,  // measure 79
0000
3100
0000
0000
0000
0010
0000
0000
,  // measure 80
0000
0001
0000
0000
0000
0100
0020
0000
,  // measure 81
0031
0000
0100
0000
,  // measure 82
0100
0000
0000
0000
0001
2000
0000
3100
,  // measure 83
0000
0000
0000
0001
0000
0000
0000
0001
,  // measure 84
0000
0000
0000
0010
0200
0000
0310
0000
,  // measure 85
0000
0002
0000
2003
,  // measure 86
0000
0000
3010
0100
0000
0000
0001
0000
,  // measure 87
1000
0000
1000
0000
,  // measure 88
0100
0000
0001
0010
0000
0000
0100
0000
,  // measure 89
0000
0100
0000
0001
,  // measure 90
0000
0000
0010
1000
0000
0000
0001
0000
,  // measure 91
0000
0000
0010
1000
0000
0000
0100
0000
,  // measure 92
0000
0020
0000
0000
,  // measure 93
0030
0000
2002
0000
0000
3003
0010
0000
,  // measure 94
0010
0000
0000
0000
,  // measure 95
0000
0000
0000
0000
,  // measure 96
0000
0000
0000
0000
,  // measure 97
0000
0000
0000
0000
0000
0000
0000
0001
,  // measure 98
1000
0001
0000
0000
0000
0000
0000
0000
;
